osu file format v14

[General]
AudioFilename: audio.mp3
AudioLeadIn: 0
PreviewTime: 57974
Countdown: 0
SampleSet: Soft
StackLeniency: 0.9
Mode: 2
LetterboxInBreaks: 0
WidescreenStoryboard: 1

[Editor]
Bookmarks: 9584,19969,29200,47661,60065,77661,89200,109969,114584,124103,135353,145738,164200,183094
DistanceSpacing: 1
BeatDivisor: 4
GridSize: 32
TimelineZoom: 2.3

[Metadata]
Title:Yuusha
TitleUnicode:勇者
Artist:YOASOBI
ArtistUnicode:YOASOBI
Creator:Spectator
Version:Hex's Salad
Source:葬送のフリーレン
Tags:-hex- hex fayew skill issue lol skill_issue_lol verti keqing iljaaz sousou no frieren brave japanese jpop j-pop pop anime op opening ayase ikuta lilas 幾田 りら female vocals vocal
BeatmapID:4448601
BeatmapSetID:2103497

[Difficulty]
HPDrainRate:3
CircleSize:3
OverallDifficulty:7.2
ApproachRate:7.2
SliderMultiplier:1.3
SliderTickRate:1

[Events]
//Background and Video events
0,0,"bg.jpg",0,0
//Break Periods
2,114784,121776
2,135209,139084
//Storyboard Layer 0 (Background)
//Storyboard Layer 1 (Fail)
//Storyboard Layer 2 (Pass)
//Storyboard Layer 3 (Foreground)
//Storyboard Layer 4 (Overlay)
//Storyboard Sound Samples

[TimingPoints]
354,288.461538461538,4,2,2,60,1,0
9584,-100,4,2,2,70,0,0
19969,-100,4,2,2,80,0,0
24007,-100,4,2,2,80,0,0
24440,-100,4,2,2,80,0,0
28623,-100,4,2,2,80,0,0
29200,-100,4,2,2,80,0,0
29632,-100,4,2,2,70,0,0
37853,-100,4,2,2,90,0,0
37998,-100,4,2,2,90,0,0
38430,-100,4,2,2,80,0,0
40450,-100,4,2,21,80,0,0
40594,-100,4,2,2,80,0,0
45065,-100,4,2,21,80,0,0
45209,-100,4,2,2,80,0,0
47661,-100,4,2,2,70,0,0
52277,-100,4,2,2,80,0,0
54584,-100,4,2,2,70,0,0
58623,-100,4,2,2,80,0,0
59055,-100,4,2,1,90,0,0
59488,-100,4,2,1,90,0,0
61219,-100,4,2,1,90,0,0
61363,-100,4,2,1,90,0,1
64103,-100,4,2,1,90,0,1
64392,-100,4,2,1,90,0,1
64680,-100,4,2,1,90,0,1
64969,-100,4,2,1,90,0,1
65257,-100,4,2,1,90,0,1
65546,-100,4,2,1,90,0,1
65834,-100,4,2,1,90,0,0
66123,-100,4,2,1,90,0,1
67998,-100,4,2,1,90,0,1
68214,-100,4,2,1,90,0,0
68286,-100,4,2,1,90,0,1
74777,-100,4,2,1,90,0,1
75353,-100,4,2,1,90,0,1
77661,-100,4,2,1,80,0,0
87902,-100,4,2,1,70,0,0
89055,-100,4,2,1,80,0,0
95978,-100,4,2,1,80,0,0
96267,-100,4,2,1,80,0,0
96411,-100,4,2,2,80,0,0
96555,-100,4,2,1,80,0,0
96988,-100,4,2,2,80,0,0
97132,-100,4,2,1,80,0,0
97565,-100,4,2,2,80,0,0
97853,-100,4,2,1,80,0,0
98142,-100,4,2,2,80,0,0
98286,-100,4,2,1,80,0,0
98719,-100,4,2,2,80,0,0
98863,-100,4,2,1,80,0,0
99296,-100,4,2,20,80,0,0
99440,-100,4,2,1,80,0,0
99873,-100,4,2,2,80,0,0
100161,-100,4,2,1,80,0,0
101027,-100,4,2,2,80,0,0
101171,-100,4,2,1,80,0,0
101603,-100,4,2,2,80,0,0
101747,-100,4,2,1,80,0,0
102180,-100,4,2,2,80,0,0
102469,-100,4,2,1,80,0,0
102757,-100,4,2,2,80,0,0
102901,-100,4,2,1,80,0,0
103334,-100,4,2,2,80,0,0
103478,-100,4,2,1,80,0,0
103911,-100,4,2,2,80,0,0
104055,-100,4,2,1,80,0,0
104488,-100,4,2,2,80,0,0
104632,-100,4,2,1,80,0,0
105065,-100,4,2,2,80,0,0
105209,-100,4,2,1,80,0,0
105353,-100,4,2,1,80,0,0
105786,-100,4,2,1,80,0,0
110978,-100,4,2,1,80,0,0
111700,-100,4,2,1,80,0,0
113430,-100,4,2,1,80,0,0
114007,-100,4,2,2,60,0,0
121507,-100,4,2,2,60,0,0
122661,-100,4,2,2,60,0,0
123238,-100,4,2,2,80,0,0
123815,-100,4,2,2,70,0,0
139969,-100,4,2,2,80,0,0
142277,-100,4,2,2,90,0,0
143430,-100,4,2,1,90,0,0
145594,-100,4,2,1,90,0,1
146025,-100,4,2,1,90,0,1
146171,-100,4,2,1,90,0,1
151507,-100,4,2,1,90,0,1
151652,-100,4,2,1,90,0,1
152661,-100,4,2,1,90,0,1
152950,-100,4,2,1,90,0,1
154536,-100,4,2,1,90,0,1
154753,-100,4,2,1,90,0,0
154825,-100,4,2,1,90,0,1
154969,-100,4,2,1,90,0,1
159584,-100,4,2,1,80,0,0
163046,-100,4,2,1,80,0,0
163478,-100,4,2,1,80,0,0
164200,-100,4,2,1,80,0,0
183094,-100,4,2,1,70,0,0

[Colours]
Combo1 : 68,167,248
Combo2 : 44,223,219
Combo3 : 138,196,213

[HitObjects]
165,302,354,5,2,3:0:0:0:
131,243,498,1,2,0:0:0:0:
155,180,642,1,0,0:0:0:0:
220,160,786,1,0,3:0:0:0:
352,158,1075,1,0,0:0:0:0:
355,88,1219,1,2,0:0:0:0:
358,18,1363,1,2,3:0:0:0:
225,14,1652,5,0,0:0:0:0:
358,201,1940,2,0,L|491:284,2,130,0|0|0,3:0|0:0|0:0,0:0:0:0:
286,170,2661,5,2,3:0:0:0:
222,179,2805,1,2,0:0:0:0:
195,238,2949,1,0,0:0:0:0:
230,293,3093,1,0,3:0:0:0:
363,360,3382,2,0,L|452:356,2,65,0|0|2,0:0|0:0|3:0,0:0:0:0:
232,263,3959,5,2,0:0:0:0:
100,74,4248,2,0,L|231:147,2,130,0|0|2,3:0|0:0|0:0,0:0:0:0:
172,149,4969,5,2,3:0:0:0:
237,156,5113,1,0,0:0:0:0:
282,204,5257,1,2,0:0:0:0:
284,270,5401,1,0,3:0:0:0:
242,321,5545,1,2,3:2:0:0:
177,333,5690,1,2,0:0:0:0:
307,350,5978,6,0,L|458:332,2,130,2|2|0,3:0|0:0|3:0,0:0:0:0:
174,340,6844,2,0,L|171:186,1,130,0|2,0:0|0:0,0:0:0:0:
245,184,7277,6,0,P|294:171|227:34,1,260,2|2,3:0|3:2,0:0:0:0:
173,31,7998,2,0,L|77:29,2,65,2|0|2,0:0|0:0|0:0,0:0:0:0:
247,33,8430,6,0,L|254:117,1,65,2|0,3:0|0:0,0:0:0:0:
122,96,8863,2,0,L|109:239,1,130,2|0,0:0|0:0,0:0:0:0:
178,243,9296,1,0,0:0:0:0:
409,347,9584,5,4,1:0:0:0:
451,299,9728,1,0,0:0:0:0:
429,238,9872,1,2,0:0:0:0:
365,230,10016,1,0,0:0:0:0:
234,214,10305,2,0,L|229:135,1,65,0|2,0:0|0:0,0:0:0:0:
297,114,10594,1,0,1:0:0:0:
425,34,10882,6,0,L|433:174,1,130,2|0,0:0|0:0,0:0:0:0:
302,240,11459,2,0,L|459:254,1,130,0|8,0:0|0:3,0:0:0:0:
287,342,11892,5,4,1:2:0:0:
254,285,12036,1,0,0:0:0:0:
275,223,12180,1,2,0:0:0:0:
335,198,12324,1,0,0:0:0:0:
203,108,12613,1,0,0:0:0:0:
135,102,12757,1,2,0:0:0:0:
68,96,12901,1,0,1:0:0:0:
200,184,13190,5,2,0:0:0:0:
67,187,13478,2,0,L|57:325,1,130,0|0,0:0|1:0,0:0:0:0:
127,318,13911,1,0,0:0:0:0:
361,354,14200,5,0,1:0:0:0:
426,343,14344,1,0,0:0:0:0:
467,291,14488,1,2,0:0:0:0:
464,225,14632,1,2,0:0:0:0:
418,178,14776,1,10,0:0:0:0:
352,173,14921,1,2,0:0:0:0:
221,190,15209,6,0,P|172:132|298:53,1,260,0|0,1:0|0:0,0:0:0:0:
428,45,16075,2,0,L|276:44,1,130,0|8,0:0|0:3,0:0:0:0:
154,37,16507,6,0,P|109:70|153:138,1,130,2|2,1:2|0:2,0:0:0:0:
258,96,17084,2,0,L|261:185,1,65,10|0,0:0|0:0,0:0:0:0:
195,183,17373,2,0,L|188:259,1,65,2|0,0:0|1:2,0:0:0:0:
334,330,17661,6,0,L|412:341,1,65,2|2,0:0|0:0,0:0:0:0:
270,250,18094,2,0,L|262:101,1,130,2|0,0:0|0:0,0:0:0:0:
327,101,18527,1,2,0:0:0:0:
256,192,18815,12,10,19680,0:0:0:0:
171,322,19969,6,0,P|120:262|234:146,1,260,4|2,1:0|1:2,0:0:0:0:
346,57,20834,1,8,0:0:0:0:
411,55,20978,1,0,0:0:0:0:
346,57,21123,6,0,L|205:80,1,130,2|2,1:2|0:3,0:0:0:0:
346,158,21700,2,0,P|375:195|334:279,1,130,0|10,1:2|0:0,0:0:0:0:
118,340,22277,6,0,P|87:292|221:185,1,260,0|2,1:0|1:2,0:0:0:0:
335,56,23142,1,10,0:0:0:0:
402,50,23286,1,0,0:0:0:0:
468,43,23430,2,0,L|479:174,1,130,0|2,1:0|0:3,0:0:0:0:
244,285,24007,2,0,L|90:278,1,130,4|8,1:2|1:2,0:0:0:0:
352,332,24584,6,0,P|393:290|285:156,1,260,4|2,1:0|1:2,0:0:0:0:
173,17,25450,1,10,0:0:0:0:
106,80,25594,1,0,0:0:0:0:
173,17,25738,6,0,L|327:42,1,130,2|2,1:2|0:3,0:0:0:0:
431,157,26315,2,0,P|460:207|422:279,1,130,2|10,1:2|0:0,0:0:0:0:
200,334,26892,6,0,P|138:307|128:125,1,260,2|0,1:2|1:0,0:0:0:0:
250,5,27757,1,10,0:0:0:0:
185,1,27902,1,2,0:0:0:0:
120,10,28046,6,0,L|263:21,1,130,2|2,1:2|0:3,0:0:0:0:
16,113,28623,2,0,L|17:246,1,130,14|0,0:0|0:0,0:0:0:0:
251,330,29200,5,4,1:0:0:0:
407,337,29632,2,0,P|464:285|403:193,1,195,2|0,3:3|0:0,0:0:0:0:
287,193,30353,6,0,L|279:51,1,130,0|0,3:0|3:0,0:0:0:0:
411,37,30930,1,2,0:0:0:0:
285,76,31219,1,8,1:3:0:0:
50,256,31507,5,8,1:3:0:0:
262,350,32084,2,0,P|302:324|254:267,1,130
138,259,32661,6,0,L|131:116,1,130,0|0,3:0|3:0,0:0:0:0:
262,30,33238,1,2,1:2:0:0:
304,58,33334,1,0,3:0:0:0:
306,99,33430,1,0,3:0:0:0:
267,127,33526,1,2,1:2:0:0:
36,121,33815,5,4,1:0:0:0:
240,123,34392,2,0,L|242:263,1,130,2|0,0:0|0:0,0:0:0:0:
115,336,34969,6,0,L|109:192,1,130,0|0,3:0|3:0,0:0:0:0:
239,140,35546,1,0,0:3:0:0:
109,49,35834,1,4,1:3:0:0:
345,25,36123,6,0,P|432:102|331:190,1,260,4|2,1:3|0:0,0:0:0:0:
224,200,36988,1,2,0:3:0:0:
459,363,37277,6,0,L|464:297,1,65,2|0,1:2|1:0,0:0:0:0:
334,221,37709,1,2,1:2:0:0:
472,200,37998,2,0,L|400:201,1,65,0|0,0:0|1:0,0:0:0:0:
174,103,38430,6,0,P|134:144|178:183,1,130,4|8,1:2|3:2,0:0:0:0:
247,187,38863,1,8,2:2:0:0:
313,181,39007,2,0,L|317:267,1,65,0|0,1:0|0:0,0:0:0:0:
184,332,39440,6,0,L|28:320,1,130,0|0,3:0|0:0,0:0:0:0:
119,246,39873,1,2,0:3:0:0:
186,239,40017,2,0,L|327:227,2,130,0|2|0,1:0|0:0|0:0,0:0:0:0:
330,48,40738,5,2,1:2:0:0:
396,51,40882,1,2,0:0:0:0:
397,115,41026,1,8,0:0:0:0:
398,180,41170,1,10,0:0:0:0:
269,190,41459,1,0,0:0:0:0:
404,318,41748,6,0,P|448:289|391:245,1,130,2|0,0:0|0:0,0:0:0:0:
281,232,42325,1,0,1:2:0:0:
413,110,42613,2,0,L|496:107,1,65,0|2,0:0|3:3,0:0:0:0:
244,20,43046,5,6,1:2:0:0:
180,27,43190,1,0,0:0:0:0:
138,74,43334,1,8,3:2:0:0:
137,138,43478,1,8,0:0:0:0:
179,185,43622,1,0,1:0:0:0:
242,194,43767,1,2,0:0:0:0:
109,296,44055,6,0,P|184:319|237:362,2,130,2|0|0,0:0|0:0|1:2,0:0:0:0:
235,232,44921,2,0,L|377:228,1,130,2|0,0:0|0:0,0:0:0:0:
220,39,45353,6,0,L|217:172,1,130,2|8,1:2|3:2,0:0:0:0:
281,166,45786,2,0,L|432:166,1,130,8|0,3:2|2:2,0:0:0:0:
342,257,46219,1,8,3:2:0:0:
109,329,46507,6,0,L|25:322,1,65,2|2,1:2|0:0,0:0:0:0:
171,165,46940,1,0,1:2:0:0:
39,47,47228,2,0,L|35:116,1,65,0|2,0:0|1:3,0:0:0:0:
273,271,47661,6,0,L|342:280,1,65,12|2,1:3|0:0,0:0:0:0:
206,171,48094,2,0,L|198:98,1,65,0|10,3:0|0:0,0:0:0:0:
331,18,48527,1,0,3:0:0:0:
398,15,48671,2,0,P|411:51|394:161,1,130
164,185,49680,2,0,L|242:195,1,65,12|0,1:3|0:0,0:0:0:0:
373,200,49969,6,0,L|383:273,1,65,12|0,1:3|0:0,0:0:0:0:
261,330,50402,2,0,L|182:340,1,65,0|8,3:0|0:0,0:0:0:0:
79,334,50834,1,0,3:0:0:0:
14,263,50978,2,0,P|7:204|60:148,1,130
113,146,51411,1,0,3:0:0:0:
309,160,51844,2,0,L|380:160,2,65,2|10|12,1:2|3:0|0:3,0:0:0:0:
164,260,52277,6,0,L|82:247,1,65,4|0,1:2|0:0,0:0:0:0:
229,349,52709,1,2,0:0:0:0:
269,301,52853,1,2,0:0:0:0:
250,242,52997,1,0,1:0:0:0:
190,226,53141,1,10,0:0:0:0:
424,177,53430,6,0,L|429:38,1,130,0|10,1:0|0:0,0:0:0:0:
299,28,54007,2,0,L|458:24,1,130,2|10,0:0|0:0,0:0:0:0:
195,107,54584,6,0,P|116:149|195:265,1,260,0|2,1:0|0:0,0:0:0:0:
425,349,55738,2,0,P|442:300|356:201,1,195,0|0,1:0|0:0,0:0:0:0:
285,205,56315,6,0,P|226:174|325:54,1,260,2|0,0:0|1:0,0:0:0:0:
256,192,57180,12,0,58046,0:0:0:0:
311,280,58623,6,0,L|453:294,1,130,12|0,0:1|0:0,0:0:0:0:
296,194,59055,6,0,P|265:144|301:78,1,130,4|0,1:0|0:0,0:0:0:0:
423,82,59632,1,2,3:3:0:0:
410,18,59776,1,8,0:2:0:0:
371,0,59920,1,2,3:3:0:0:
312,0,60064,1,8,0:0:0:0:
248,51,60209,6,0,L|404:60,1,130,2|2,3:0|3:0,0:0:0:0:
247,328,60786,2,0,L|238:255,1,65,2|10,3:0|0:0,0:0:0:0:
306,251,61075,2,0,L|310:161,1,65,10|4,3:3|0:3,0:0:0:0:
167,77,61363,6,0,L|11:81,1,130,4|2,1:0|0:0,0:0:0:0:
35,144,61796,1,8,0:0:0:0:
71,197,61940,1,0,0:0:0:0:
131,218,62084,1,2,0:0:0:0:
66,273,62228,2,0,L|64:365,1,65,0|8,1:0|0:0,0:0:0:0:
209,350,62517,6,0,P|264:315|236:239,1,130,4|2,1:2|0:0,0:0:0:0:
191,249,62950,1,10,0:0:0:0:
60,50,63238,2,0,L|54:185,1,130,2|10,1:2|0:0,0:0:0:0:
288,32,63815,5,4,1:2:0:0:
418,172,64103,1,4,3:0:0:0:
181,138,64392,1,4,1:2:0:0:
50,263,64680,1,10,0:3:0:0:
282,214,64969,5,6,1:2:0:0:
412,319,65257,1,8,0:0:0:0:
178,263,65546,1,4,1:2:0:0:
49,336,65834,1,12,3:0:0:0:
283,156,66123,6,0,L|426:174,2,130,4|10|2,1:0|0:0|3:2,0:0:0:0:
218,152,66844,1,2,3:0:0:0:
283,155,66988,1,10,0:0:0:0:
427,156,67132,6,0,L|439:301,1,130,4|0,1:2|1:2,0:0:0:0:
373,305,67565,1,10,0:0:0:0:
242,349,67853,2,0,L|233:276,1,65,8|0,1:3|3:3,0:0:0:0:
300,242,68142,1,2,3:0:0:0:
433,235,68286,6,0,P|469:219|479:130,1,130,4|0,1:2|1:0,0:0:0:0:
352,66,68863,2,0,L|276:69,1,65,0|2,3:0|1:2,0:0:0:0:
351,142,69152,2,0,L|440:149,1,65,0|10,1:2|1:2,0:0:0:0:
272,292,69440,6,0,L|129:292,1,130,4|0,1:2|1:2,0:0:0:0:
270,195,70017,1,0,0:0:0:0:
308,138,70161,1,2,1:2:0:0:
277,77,70305,1,2,1:2:0:0:
209,75,70449,1,10,0:0:0:0:
65,28,70594,6,0,L|61:171,1,130,6|0,1:2|1:0,0:0:0:0:
127,158,71027,2,0,L|200:158,2,65,10|2|2,0:0|0:3|1:2,0:0:0:0:
64,236,71459,2,0,L|136:233,1,65,2|10,1:3|0:0,0:0:0:0:
274,304,71748,6,0,L|417:307,1,130,4|0,1:2|1:0,0:0:0:0:
339,229,72180,1,10,0:0:0:0:
207,218,72469,2,0,P|168:171|220:116,1,130,0|10,1:0|0:0,0:0:0:0:
434,27,73046,6,0,L|438:163,1,130,2|10,1:3|0:0,0:0:0:0:
307,233,73623,2,0,L|451:232,1,130,2|10,0:3|0:0,0:0:0:0:
203,337,74200,6,0,L|192:191,1,130,2|10,1:3|0:0,0:0:0:0:
426,201,74777,2,0,L|433:56,1,130,2|10,0:3|0:0,0:0:0:0:
198,13,75353,5,0,1:0:0:0:
420,162,75930,2,0,P|464:208|402:248,1,130,2|10,0:2|0:0,0:0:0:0:
364,256,76363,1,2,0:0:0:0:
220,271,76507,6,0,L|215:343,1,65,8|0,1:3|0:0,0:0:0:0:
346,340,76940,2,0,L|207:333,1,130,4|0,0:3|0:0,0:0:0:0:
151,330,77373,1,8,3:0:0:0:
376,88,77661,6,0,P|417:137|379:187,1,130,4|0,1:0|3:0,0:0:0:0:
321,189,78094,1,0,3:0:0:0:
256,207,78238,1,8,0:0:0:0:
386,314,78527,1,0,3:0:0:0:
253,316,78815,6,0,L|403:330,1,130,8|0,1:3|1:0,0:0:0:0:
319,245,79248,2,0,L|190:230,2,130,0|0|0,3:0|3:0|3:0,0:0:0:0:
176,34,79969,6,0,P|131:68|142:139,1,130,0|0,1:3|3:0,0:0:0:0:
207,168,80402,1,0,3:0:0:0:
271,172,80546,1,8,3:2:0:0:
397,323,80834,1,0,3:0:0:0:
268,355,81123,6,0,L|193:348,1,65,8|0,1:3|0:0,0:0:0:0:
332,200,81555,2,0,P|393:221|447:276,2,130,0|0|0,3:0|3:0|3:0,0:0:0:0:
186,196,82277,6,0,L|46:182,1,130,0|2,1:3|1:2,0:0:0:0:
120,83,82709,1,0,3:0:0:0:
185,72,82853,1,8,0:0:0:0:
60,14,83142,1,0,1:2:0:0:
189,141,83430,6,0,L|39:148,1,130,10|0,1:3|1:2,0:0:0:0:
126,219,83863,2,0,L|264:234,2,130,0|0|0,3:0|3:0|3:0,0:0:0:0:
258,353,84584,6,0,P|293:309|250:250,1,130,0|2,1:3|1:3,0:0:0:0:
194,248,85017,1,2,3:0:0:0:
129,241,85161,1,0,1:0:0:0:
258,73,85450,1,2,3:0:0:0:
322,72,85594,1,2,3:0:0:0:
258,73,85738,5,10,1:3:0:0:
127,139,86027,2,0,L|207:155,1,65,8|0,0:0|3:3,0:0:0:0:
256,232,86315,2,0,L|117:227,1,130,0|10,1:3|0:0,0:0:0:0:
60,228,86748,5,10,0:0:0:0:
360,325,87902,2,0,L|518:310,1,130,4|8,1:2|0:0,0:0:0:0:
424,251,88334,1,8,0:0:0:0:
488,254,88478,2,0,P|500:206|475:118,1,130,2|2,1:0|0:0,0:0:0:0:
243,45,89055,5,4,1:0:0:0:
116,107,89344,1,2,0:0:0:0:
111,171,89488,1,10,0:0:0:0:
106,236,89632,1,2,0:0:0:0:
238,288,89921,2,0,L|316:287,2,65,0|0|2,1:2|0:0|1:2,0:0:0:0:
107,341,90498,6,0,P|89:310|120:218,1,130,2|2,0:0|0:0,0:0:0:0:
241,125,91075,2,0,L|108:123,1,130,0|0,1:2|3:0,0:0:0:0:
253,20,91507,5,6,1:2:0:0:
315,35,91651,1,0,0:0:0:0:
355,84,91795,1,10,0:0:0:0:
358,148,91939,1,0,0:0:0:0:
322,200,92083,1,2,0:0:0:0:
261,220,92228,1,2,1:2:0:0:
134,310,92517,6,0,L|278:311,1,130,6|0,1:2|0:0,0:0:0:0:
269,246,92949,1,10,0:0:0:0:
275,181,93093,1,0,0:0:0:0:
147,153,93382,2,0,L|144:74,1,65,0|10,1:0|0:0,0:0:0:0:
208,46,93671,1,0,3:0:0:0:
351,32,93815,6,0,L|507:25,1,130,0|10,1:2|0:0,0:0:0:0:
350,135,94392,2,0,L|346:212,1,65,2|0,0:0|1:0,0:0:0:0:
412,202,94680,2,0,L|419:272,1,65,10|2,0:0|1:2,0:0:0:0:
353,330,94969,6,0,L|197:317,1,130,0|10,0:0|0:0,0:0:0:0:
289,225,95402,2,0,L|362:227,2,65,2|2|2,0:0|1:2|1:2,0:0:0:0:
55,27,95978,5,4,1:0:0:0:
180,116,96267,1,0,0:0:0:0:
210,171,96411,1,10,0:0:0:0:
193,233,96555,1,0,0:0:0:0:
139,265,96699,1,0,1:0:0:0:
77,252,96843,1,0,3:0:0:0:
208,341,97132,6,0,L|358:344,1,130,0|0,1:0|1:0,0:0:0:0:
328,279,97565,1,10,0:0:0:0:
292,226,97709,1,10,3:2:0:0:
236,194,97853,1,2,1:2:0:0:
105,121,98142,1,10,0:0:0:0:
337,37,98430,6,0,L|430:47,1,65,2|0,1:2|0:0,0:0:0:0:
267,176,98863,2,0,L|132:230,2,130,2|2|2,3:0|0:0|0:0,0:0:0:0:
399,15,99728,6,0,L|404:106,1,65,0|10,0:0|0:0,0:0:0:0:
339,92,100017,1,10,3:2:0:0:
273,96,100161,2,0,L|418:107,1,130,2|10,1:2|0:0,0:0:0:0:
256,319,100594,5,6,1:2:0:0:
122,296,100882,2,0,L|110:220,1,65,0|8,3:0|0:0,0:0:0:0:
176,194,101171,2,0,L|257:193,2,65,2|0|2,3:0|1:0|0:0,0:0:0:0:
45,52,101748,6,0,L|182:52,1,130,2|0,1:2|0:0,0:0:0:0:
240,54,102180,1,10,0:0:0:0:
114,163,102469,2,0,L|27:164,2,65,2|0|10,1:2|1:2|0:0,0:0:0:0:
344,274,103046,6,0,L|427:276,2,65,2|0|10,1:2|0:0|0:0,0:0:0:0:
277,186,103478,2,0,L|429:187,1,130
473,188,103911,1,10,0:0:0:0:
409,192,104055,1,0,0:0:0:0:
344,192,104200,6,0,L|339:276,1,65,2|2,1:2|0:0,0:0:0:0:
407,302,104488,1,10,0:0:0:0:
471,365,104632,1,2,0:0:0:0:
336,368,104921,2,0,L|255:365,1,65,2|10,0:0|0:0,0:0:0:0:
265,362,105209,1,0,0:0:0:0:
409,234,105353,6,0,P|450:207|391:167,1,130,4|14,1:0|0:0,0:0:0:0:
340,159,105786,1,2,3:0:0:0:
276,76,105930,2,0,L|435:58,1,130,2|10,0:0|0:0,0:0:0:0:
276,34,106507,6,0,L|200:44,1,65
336,121,106940,2,0,L|347:259,1,130,0|0,0:0|1:0,0:0:0:0:
281,254,107373,1,10,0:0:0:0:
216,260,107517,1,2,0:0:0:0:
360,358,107661,5,6,1:2:0:0:
417,332,107805,1,0,3:0:0:0:
439,272,107949,1,10,0:0:0:0:
412,215,108093,1,2,3:0:0:0:
353,194,108237,1,2,0:0:0:0:
420,128,108382,2,0,L|498:128,2,65,0|10|2,1:2|0:0|1:2,0:0:0:0:
276,120,108815,6,0,P|224:129|168:266,1,195,0|2,0:0|0:0,0:0:0:0:
293,255,109536,1,0,1:0:0:0:
328,306,109680,1,14,0:0:0:0:
305,364,109824,1,0,0:0:0:0:
244,378,109968,5,6,0:0:0:0:
256,192,110257,12,2,111988,0:0:0:0:
145,11,112277,6,0,P|119:64|153:137,1,130,4|10,1:0|0:0,0:0:0:0:
273,229,112853,2,0,P|202:254|144:248,1,130,10|10,3:0|0:0,0:0:0:0:
383,53,113430,5,14,0:0:0:0:
254,98,113719,1,6,1:2:0:0:
383,53,114007,2,0,L|379:184,1,130,2|2,0:0|0:0,0:0:0:0:
251,214,114584,5,0,0:0:0:0:
194,290,122661,6,0,P|182:243|296:174,1,195,2|0,0:0|0:0,0:0:0:0:
430,159,123238,2,0,L|438:30,1,130,12|0,0:1|0:0,0:0:0:0:
199,33,123815,5,4,1:2:0:0:
134,33,123959,1,0,0:0:0:0:
128,97,124103,1,2,0:0:0:0:
122,162,124247,1,2,0:0:0:0:
251,272,124536,2,0,L|342:279,2,65,0|0|2,0:0|0:0|1:2,0:0:0:0:
125,141,125113,5,0,0:0:0:0:
259,39,125402,2,0,L|393:54,2,130,0|0|0,0:0|0:0|1:3,0:0:0:0:
112,39,126123,5,8,1:3:0:0:
96,99,126267,1,2,0:0:0:0:
128,154,126411,1,2,0:0:0:0:
190,168,126555,1,2,0:0:0:0:
66,293,126844,2,0,L|-1:306,2,65,0|2|0,0:0|0:0|1:0,0:0:0:0:
193,346,127421,5,0,0:0:0:0:
64,125,127709,2,0,L|216:145,2,130,0|0|0,0:0|3:0|3:0,0:0:0:0:
209,313,128430,5,8,1:3:0:0:
266,286,128574,1,0,0:0:0:0:
288,226,128718,1,2,0:0:0:0:
261,168,128862,1,0,3:0:0:0:
202,146,129006,1,10,0:0:0:0:
267,139,129152,1,2,0:0:0:0:
397,23,129440,6,0,L|403:171,1,130,0|0,1:0|0:0,0:0:0:0:
272,155,130017,1,0,0:0:0:0:
145,263,130305,2,0,L|291:263,1,130,0|8,0:0|0:3,0:0:0:0:
132,80,130738,5,0,1:2:0:0:
15,134,131027,1,2,0:0:0:0:
11,198,131171,1,2,0:0:0:0:
7,263,131315,1,10,0:0:0:0:
142,328,131603,2,0,L|56:326,1,65,2|8,0:0|1:3,0:0:0:0:
143,246,131892,6,0,L|221:239,1,65
338,247,132325,2,0,P|367:220|317:151,1,130,0|0,0:0|3:0,0:0:0:0:
267,163,132757,1,0,0:0:0:0:
495,25,133046,5,2,1:2:0:0:
256,192,133334,12,2,134200,0:0:0:0:
269,256,139969,6,0,L|255:109,1,130,6|0,1:2|3:0,0:0:0:0:
387,19,140546,2,0,L|407:168,1,130,2|0,1:2|3:0,0:0:0:0:
276,161,141123,6,0,L|130:181,1,130,2|0,1:2|3:0,0:0:0:0:
279,241,141700,2,0,L|430:264,1,130,0|0,1:0|3:0,0:0:0:0:
175,337,142277,6,0,L|30:319,2,130,4|4|4,1:2|1:2|1:0,0:0:0:0:
350,345,143286,1,0,0:0:0:0:
206,341,143430,6,0,L|200:262,1,65,8|0,0:0|3:0,0:0:0:0:
264,232,143719,2,0,L|181:221,1,65,8|0,0:0|3:0,0:0:0:0:
131,135,144007,2,0,L|273:120,1,130,10|8,0:0|3:0,0:0:0:0:
327,115,144440,1,2,3:0:0:0:
185,174,144584,5,0,0:0:0:0:
164,233,144728,1,0,3:0:0:0:
195,288,144872,1,8,3:0:0:0:
257,300,145016,1,8,3:0:0:0:
193,338,145161,1,2,0:0:0:0:
130,318,145305,1,2,0:0:0:0:
193,338,145450,1,2,0:0:0:0:
337,350,145594,6,0,L|492:338,1,130,4|0,1:0|1:0,0:0:0:0:
337,227,146171,2,0,L|329:141,1,65,0|0,0:0|1:0,0:0:0:0:
396,134,146459,2,0,L|400:59,1,65,2|10,1:2|0:0,0:0:0:0:
256,19,146748,6,0,P|211:45|257:96,1,130,0|2,1:0|1:2,0:0:0:0:
382,174,147325,1,0,0:0:0:0:
405,232,147469,1,2,1:2:0:0:
375,286,147613,1,0,1:2:0:0:
313,296,147757,1,10,0:0:0:0:
170,340,147902,6,0,L|29:331,1,130,4|0,1:2|1:0,0:0:0:0:
104,250,148334,1,10,0:0:0:0:
171,244,148478,1,2,0:0:0:0:
43,140,148767,2,0,L|33:67,1,65,2|10,1:2|0:0,0:0:0:0:
178,21,149055,6,0,L|318:27,1,130,4|0,1:2|1:0,0:0:0:0:
373,33,149488,1,10,0:0:0:0:
241,117,149777,2,0,L|229:255,1,130,2|10,1:2|0:0,0:0:0:0:
464,142,150353,5,2,1:2:0:0:
333,207,150642,1,10,0:0:0:0:
96,179,150930,1,2,0:0:0:0:
225,291,151219,1,10,0:0:0:0:
458,34,151507,5,2,1:2:0:0:
327,177,151796,1,10,0:0:0:0:
93,202,152084,1,2,1:2:0:0:
226,289,152373,1,10,0:0:0:0:
460,357,152661,6,0,L|320:344,2,130,4|10|6,1:3|0:0|1:2,0:0:0:0:
397,268,153382,1,0,1:0:0:0:
333,265,153527,1,10,0:0:0:0:
477,184,153671,6,0,P|506:146|463:82,1,130,4|0,1:2|1:0,0:0:0:0:
403,82,154103,1,10,0:0:0:0:
272,181,154392,1,4,3:3:0:0:
336,228,154536,1,8,0:3:0:0:
401,288,154680,1,8,0:0:0:0:
257,337,154825,6,0,P|192:349|103:345,1,130,4|0,1:2|0:0,0:0:0:0:
254,221,155402,2,0,L|178:212,1,65,0|10,0:0|0:0,0:0:0:0:
124,139,155690,2,0,L|191:130,1,65,0|10,1:0|0:0,0:0:0:0:
331,123,155978,6,0,P|367:103|367:16,1,130,0|0,1:0|1:0,1:0:0:0:
238,56,156555,2,0,L|222:134,1,65,0|10,0:0|0:0,0:0:0:0:
292,140,156844,2,0,L|304:205,1,65,2|10,1:2|0:0,0:0:0:0:
160,251,157132,6,0,L|27:268,1,130,4|0,1:2|1:0,0:0:0:0:
98,351,157565,2,0,L|105:279,1,65,10|0,0:0|0:0,0:0:0:0:
37,257,157853,1,10,0:0:0:0:
103,205,157998,2,0,L|185:197,1,65,0|10,1:2|0:0,0:0:0:0:
25,25,158286,6,0,L|20:159,1,130,6|0,1:2|1:2,0:0:0:0:
88,156,158719,1,10,0:0:0:0:
217,241,159007,1,10,0:0:0:0:
87,332,159296,1,10,0:0:0:0:
320,344,159584,6,0,L|452:354,2,130,6|0|10,1:2|3:0|0:0,0:0:0:0:
384,272,160305,1,0,2:0:0:0:
447,274,160450,1,2,0:0:0:0:
213,204,160738,6,0,L|203:64,1,130,10|2,0:0|0:0,0:0:0:0:
440,143,161315,2,0,L|305:143,1,130,10|2,0:0|1:2,0:0:0:0:
75,147,161892,5,6,1:2:0:0:
282,316,162469,2,0,P|321:280|271:241,1,130,10|2,0:0|0:0,0:0:0:0:
40,32,163046,6,0,L|192:32,1,130,6|2,1:2|0:0,0:0:0:0:
106,108,163478,1,8,3:0:0:0:
40,130,163623,2,0,P|33:179|49:263,1,130,2|2,0:0|0:0,0:0:0:0:
280,345,164200,6,0,L|434:349,1,130,4|2,1:2|0:3,0:0:0:0:
347,273,164632,1,0,0:0:0:0:
281,272,164777,1,8,0:0:0:0:
408,156,165065,1,2,0:3:0:0:
278,43,165353,6,0,L|143:43,1,130,0|2,1:2|0:3,0:0:0:0:
213,128,165786,2,0,L|344:132,2,130
69,118,166507,6,0,P|49:152|80:242,1,130,0|2,1:0|0:3,0:0:0:0:
135,231,166940,1,0,0:0:0:0:
200,235,167084,1,8,0:0:0:0:
71,336,167373,1,2,3:0:0:0:
201,348,167661,6,0,L|286:341,1,65,2|2,1:2|0:0,0:0:0:0:
133,233,168094,2,0,L|270:230,2,130,2|0|2,0:0|0:0|0:0,0:0:0:0:
276,118,168815,6,0,L|419:118,1,130,2|2,1:2|3:0,0:0:0:0:
339,39,169248,1,0,0:0:0:0:
276,35,169392,1,10,0:0:0:0:
149,165,169680,1,2,3:0:0:0:
280,322,169969,6,0,L|133:323,1,130,0|2,1:0|3:0,0:0:0:0:
86,254,170402,2,0,L|222:256,2,130,2|2|0,0:0|0:0|0:0,0:0:0:0:
231,20,171123,6,0,P|253:71|231:141,1,130,2|2,1:2|3:0,0:0:0:0:
167,131,171555,2,0,P|145:171|170:265,1,130,2|0,0:0|0:0,0:0:0:0:
224,252,171988,6,0,P|242:293|215:379,1,130,2|0,3:0|1:2,0:0:0:0:
154,356,172421,2,0,L|309:362,1,130,2|0,0:0|0:0,0:0:0:0:
220,272,172853,2,0,L|71:252,1,130,10|2,0:0|3:0,0:0:0:0:
154,178,173286,1,0,0:0:0:0:
298,29,173430,6,0,L|435:33,1,130,4|2,1:2|3:0,0:0:0:0:
362,121,173863,1,0,0:0:0:0:
295,137,174007,2,0,L|289:216,1,65,10|2,0:0|0:0,0:0:0:0:
356,233,174296,2,0,L|360:310,1,65,2|2,3:0|0:0,0:0:0:0:
216,349,174584,5,2,1:2:0:0:
149,275,174728,2,0,L|292:266,2,130,2|2|0,0:0|0:0|0:0,0:0:0:0:
383,22,175594,1,2,0:0:0:0:
451,89,175738,6,0,L|309:94,1,130,0|2,0:0|3:0,0:0:0:0:
260,115,176171,1,2,0:0:0:0:
225,168,176315,1,10,0:0:0:0:
228,231,176459,1,2,0:0:0:0:
268,281,176603,1,2,3:0:0:0:
329,297,176748,1,2,0:0:0:0:
473,342,176892,6,0,L|481:196,1,130,2|2,1:2|3:0,0:0:0:0:
351,96,177469,2,0,P|383:92|485:116,1,130,10|2,0:0|3:0,0:0:0:0:
237,172,178046,5,6,1:2:0:0:
453,162,178623,2,0,P|482:203|443:270,1,130,10|2,0:0|3:0,0:0:0:0:
213,333,179200,6,0,L|371:328,1,130,2|2,1:2|3:0,0:0:0:0:
211,192,179777,2,0,L|77:185,1,130,10|2,0:0|3:0,0:0:0:0:
317,34,180353,6,0,P|399:80|299:165,1,260,6|10,1:2|0:0,0:0:0:0:
103,203,181507,1,12,0:2:0:0:
338,196,181796,1,12,0:2:0:0:
181,44,183094,6,0,L|98:46,2,65,2|10|2,1:2|0:0|0:0,0:0:0:0:
315,37,183671,1,2,1:2:0:0:
140,119,184103,2,0,L|131:261,1,130,0|10,1:0|0:0,0:0:0:0:
329,205,184825,1,2,0:0:0:0:
396,203,184969,6,0,L|400:287,1,65,0|2,1:2|0:0,0:0:0:0:
265,331,185402,2,0,L|125:310,2,130,2|2|2,1:2|0:0|1:2,0:0:0:0:
398,342,186267,6,0,L|430:283,2,65,0|2|0,0:0|1:2|0:0,0:0:0:0:
334,191,186700,2,0,L|475:181,1,130,10|2,0:0|0:0,0:0:0:0:
226,39,187277,6,0,L|151:32,1,65,0|2,1:2|0:0,0:0:0:0:
291,209,187709,2,0,L|362:219,2,65,2|10|2,0:0|0:0|0:0,0:0:0:0:
163,205,188286,5,0,1:0:0:0:
338,227,188719,2,0,L|348:361,1,130,0|10,1:0|0:0,0:0:0:0:
215,352,189296,2,0,L|142:343,1,65,2|2,0:0|0:0,0:0:0:0:
216,247,189584,5,2,1:2:0:0:
282,152,189728,2,0,L|421:138,2,130,2|2|0,0:0|1:2|0:0,0:0:0:0:
152,45,190594,2,0,P|122:79|156:163,1,130,2|4,1:2|0:3,0:0:0:0:
287,192,191027,5,6,1:2:0:0:
