osu file format v14

[General]
AudioFilename: audio.ogg
AudioLeadIn: 0
PreviewTime: 58072
Countdown: 0
SampleSet: Soft
StackLeniency: 0.3
Mode: 0
LetterboxInBreaks: 0
WidescreenStoryboard: 1

[Editor]
Bookmarks: 380,9610,19995,29225,38456,47687,59225,77686,86917,96148,105378,114609,123841,133071,139995,145763,164225,173456,182687,191918
DistanceSpacing: 1
BeatDivisor: 4
GridSize: 32
TimelineZoom: 3.295999

[Metadata]
Title:Yuusha
TitleUnicode:勇者
Artist:YOASOBI
ArtistUnicode:YOASOBI
Creator:RiverKnowFarm
Version:My Angel Jeremy's Lasting Memories
Source:葬送のフリーレン
Tags:anime sousou no frieren brave op opening ayase lilas ikuta 幾田 りら japanese jpop j-pop pop my angel jeremy hinae hyokar fuxi66 wei_0921
BeatmapID:4329055
BeatmapSetID:2067581

[Difficulty]
HPDrainRate:6
CircleSize:4
OverallDifficulty:9.2
ApproachRate:9.6
SliderMultiplier:1.66
SliderTickRate:1

[Events]
//Background and Video events
0,0,"bg5.jpg",0,0
//Break Periods
2,114610,122755
2,135435,139486
//Storyboard Layer 0 (Background)
//Storyboard Layer 1 (Fail)
//Storyboard Layer 2 (Pass)
//Storyboard Layer 3 (Foreground)
//Storyboard Layer 4 (Overlay)
//Storyboard Sound Samples

[TimingPoints]
380,288.461538461538,4,2,1,60,1,0
380,-166.666666666667,4,2,1,60,0,0
1678,-500,4,2,1,60,0,0
2110,-166.666666666667,4,2,1,60,0,0
3841,-500,4,2,1,60,0,0
4418,-166.666666666667,4,2,1,60,0,0
9033,-125,4,2,1,60,0,0
9610,-83.3333333333333,4,2,3,70,0,0
9899,-125,4,2,3,70,0,0
10187,-125,4,2,1,70,0,0
11341,-83.3333333333333,4,2,1,70,0,0
11629,-125,4,2,1,70,0,0
12495,-83.3333333333333,4,2,1,70,0,0
12928,-125,4,2,1,70,0,0
13649,-83.3333333333333,4,2,1,70,0,0
14370,-125,4,2,1,70,0,0
14803,-83.3333333333333,4,2,1,70,0,0
15235,-125,4,2,1,70,0,0
15956,-83.3333333333333,4,2,1,70,0,0
16533,-125,4,2,1,70,0,0
17110,-83.3333333333333,4,2,1,70,0,0
19418,-500,4,2,1,70,0,0
19995,-71.4285714285714,4,2,2,80,0,0
20283,-71.4285714285714,4,2,1,80,0,0
20572,-100,4,2,1,80,0,0
24033,-76.9230769230769,4,2,1,80,0,0
24899,-100,4,2,1,80,0,0
28649,-71.4285714285714,4,2,1,80,0,0
29226,-250,4,2,4,60,0,0
29658,-250,4,2,1,60,0,0
31245,-111.111111111111,4,2,1,60,0,0
31822,-250,4,2,1,60,0,0
32399,-125,4,2,1,60,0,0
32976,-250,4,2,1,60,0,0
34706,-125,4,2,1,60,0,0
35283,-250,4,2,1,60,0,0
35860,-125,4,2,1,60,0,0
36726,-250,4,2,1,60,0,0
37879,-76.9230769230769,4,2,1,60,0,0
38024,-142.857142857143,4,2,1,60,0,0
38456,-100,4,2,2,70,0,0
38745,-100,4,2,1,70,0,0
42351,-83.3333333333333,4,2,1,70,0,0
42639,-100,4,2,1,70,0,0
44658,-83.3333333333333,4,2,1,70,0,0
45091,-100,4,2,1,70,0,0
47399,-76.9230769230769,4,2,1,70,0,0
47687,-250,4,2,1,70,0,0
48553,-125,4,2,1,70,0,0
51437,-250,4,2,1,70,0,0
52303,-83.3333333333333,4,2,4,80,0,0
52591,-83.3333333333333,4,2,1,80,0,0
54610,-100,4,2,1,80,0,0
54899,-125,4,2,1,80,0,0
58072,-333.333333333333,4,2,1,80,0,0
58144,-333.333333333333,4,2,1,5,0,0
58216,-200,4,2,1,80,0,0
58288,-200,4,2,1,5,0,0
58360,-142.857142857143,4,2,1,80,0,0
58432,-142.857142857143,4,2,1,5,0,0
58504,-111.111111111111,4,2,1,80,0,0
58577,-111.111111111111,4,2,1,5,0,0
58649,-57.1428571428571,4,2,1,80,0,0
59081,-50,4,2,3,90,0,0
61389,-50,4,2,3,90,0,0
61678,-66.6666666666667,4,2,3,90,0,0
63839,-44.4444444444445,4,2,2,90,0,0
64418,-50,4,2,2,90,0,0
65572,-40,4,2,4,90,0,0
65860,-250,4,2,4,90,0,0
66149,-50,4,2,3,90,0,0
67158,-66.6666666666667,4,2,1,90,0,0
67303,-66.6666666666667,4,2,3,90,0,0
68312,-66.6666666666667,4,2,4,90,0,0
73072,-76.9230769230769,4,2,4,90,0,0
74226,-62.5,4,2,4,90,0,0
75091,-76.9230769230769,4,2,4,90,0,0
75379,-62.5,4,2,4,90,0,0
75956,-71.4285714285714,4,2,4,90,0,0
76678,-125,4,2,4,90,0,0
76966,-250,4,2,4,90,0,0
77687,-83.3333333333333,4,2,3,80,0,0
77976,-100,4,2,2,80,0,0
78264,-76.9230769230769,4,2,2,80,0,0
79129,-100,4,2,2,80,0,0
79995,-76.9230769230769,4,2,2,80,0,0
80283,-100,4,2,2,80,0,0
82879,-83.3333333333333,4,2,2,80,0,0
83168,-100,4,2,2,80,0,0
83456,-83.3333333333333,4,2,2,80,0,0
83745,-100,4,2,2,80,0,0
84610,-83.3333333333333,4,2,2,80,0,0
84899,-100,4,2,2,80,0,0
85187,-83.3333333333333,4,2,2,80,0,0
85476,-100,4,2,2,80,0,0
85764,-83.3333333333333,4,2,2,80,0,0
86343,-66.6666666666667,4,2,2,80,0,0
86918,-66.6666666666667,4,2,2,60,0,0
87928,-100,4,2,2,60,0,0
89081,-111.111111111111,4,2,2,70,0,0
89947,-333.333333333333,4,2,2,70,0,0
90019,-333.333333333333,4,2,2,5,0,0
90091,-111.111111111111,4,2,2,70,0,0
91533,-250,4,2,2,70,0,0
91822,-71.4285714285714,4,2,2,70,0,0
92110,-111.111111111111,4,2,2,70,0,0
93264,-333.333333333333,4,2,2,70,0,0
93336,-333.333333333333,4,2,2,5,0,0
93408,-200,4,2,2,70,0,0
93480,-333.333333333333,4,2,2,5,0,0
93553,-250,4,2,2,70,0,0
93625,-333.333333333333,4,2,2,5,0,0
93697,-166.666666666667,4,2,2,70,0,0
93769,-333.333333333333,4,2,2,5,0,0
93841,-111.111111111111,4,2,2,70,0,0
94129,-100,4,2,2,70,0,0
95572,-250,4,2,2,70,0,0
95644,-333.333333333333,4,2,2,5,0,0
95716,-166.666666666667,4,2,2,70,0,0
95788,-333.333333333333,4,2,2,5,0,0
95860,-125,4,2,2,70,0,0
95932,-333.333333333333,4,2,2,5,0,0
96004,-100,4,2,3,70,0,0
100620,-100,4,2,4,70,0,0
105091,-71.4285714285714,4,2,4,70,0,0
105956,-83.3333333333333,4,2,4,70,0,0
109274,-100,4,2,4,70,0,0
109995,-333.333333333333,4,2,2,60,0,0
112303,-76.9230769230769,4,2,3,70,0,0
112879,-100,4,2,3,70,0,0
113456,-71.4285714285714,4,2,3,70,0,0
113745,-111.111111111111,4,2,3,70,0,0
114610,-111.111111111111,4,2,1,60,0,0
123264,-83.3333333333333,4,2,1,60,0,0
123841,-83.3333333333333,4,2,3,70,0,0
124130,-125,4,2,3,70,0,0
124418,-125,4,2,1,70,0,0
125572,-83.3333333333333,4,2,1,70,0,0
125860,-125,4,2,1,70,0,0
126726,-83.3333333333333,4,2,1,70,0,0
127159,-125,4,2,1,70,0,0
127880,-83.3333333333333,4,2,1,70,0,0
128601,-125,4,2,1,70,0,0
129034,-83.3333333333333,4,2,1,70,0,0
129466,-125,4,2,1,70,0,0
130187,-83.3333333333333,4,2,1,70,0,0
130764,-125,4,2,1,70,0,0
131341,-83.3333333333333,4,2,1,70,0,0
133072,-125,4,2,1,60,0,0
139995,-125,4,2,2,70,0,0
140572,-100,4,2,2,70,0,0
141149,-83.3333333333333,4,2,2,70,0,0
142303,-71.4285714285714,4,2,4,80,0,0
142591,-71.4285714285714,4,2,3,80,0,0
142879,-83.3333333333333,4,2,2,80,0,0
144754,-71.4285714285714,4,2,2,80,0,0
145187,-333.333333333333,4,2,2,80,0,0
145259,-333.333333333333,4,2,2,5,0,0
145331,-142.857142857143,4,2,2,80,0,0
145404,-333.333333333333,4,2,2,5,0,0
145476,-90.9090909090909,4,2,2,80,0,0
145548,-333.333333333333,4,2,2,5,0,0
145620,-45.4545454545455,4,2,2,90,0,0
146053,-71.4285714285714,4,2,2,90,0,0
152110,-71.4285714285714,4,2,2,90,0,0
153697,-71.4285714285714,4,2,1,90,0,0
153841,-71.4285714285714,4,2,3,90,0,0
154851,-71.4285714285714,4,2,4,90,0,0
157158,-71.4285714285714,4,2,3,90,0,0
159610,-71.4285714285714,4,2,2,90,0,0
159899,-100,4,2,2,90,0,0
160187,-83.3333333333333,4,2,2,90,0,0
161918,-71.4285714285714,4,2,3,90,0,0
163072,-71.4285714285714,4,2,4,90,0,0
163649,-250,4,2,4,90,0,0
164226,-100,4,2,3,80,0,0
182687,-100,4,2,2,60,0,0
183120,-200,4,2,2,60,0,0
190620,-142.857142857143,4,2,2,60,0,0

[Colours]
Combo1 : 229,229,229
Combo2 : 169,217,252
Combo3 : 255,242,181
Combo4 : 203,243,173
Combo5 : 255,206,162

[HitObjects]
0,0,380,5,2,0:0:0:0:
51,61,524,1,2,0:0:0:0:
167,201,812,5,2,0:0:0:0:
169,191,884,1,2,0:0:0:0:
174,180,956,2,0,L|275:152,1,99.5999969604493,10|0,0:0|0:0,0:0:0:0:
338,119,1389,1,2,0:0:0:0:
465,36,1678,6,0,L|471:14,2,16.6
416,97,2110,2,0,L|441:201,1,99.5999969604493,8|0,0:0|0:0,0:0:0:0:
439,193,2687,5,2,0:0:0:0:
394,255,2831,2,0,L|287:283,1,99.5999969604493,2|2,0:0|0:0,0:0:0:0:
204,375,3264,1,8,0:0:0:0:
134,343,3408,2,0,P|105:296|124:252,1,99.5999969604493,2|2,0:0|0:0,0:0:0:0:
180,209,3841,2,0,L|184:188,2,16.6
118,257,4418,6,0,L|12:238,1,99.5999969604493,10|0,0:0|0:0,0:0:0:0:
42,108,4995,6,0,L|50:43,2,49.7999984802247,2|2|0,0:0|0:0|0:0,0:0:0:0:
103,178,5428,1,2,0:0:0:0:
105,170,5500,1,2,0:0:0:0:
107,159,5572,1,10,0:0:0:0:
163,102,5716,2,0,L|269:116,1,99.5999969604493,2|2,0:0|0:0,0:0:0:0:
308,181,6149,2,0,P|356:166|367:107,1,99.5999969604493
371,122,6726,6,0,L|358:15,1,99.5999969604493,8|2,0:0|0:0,0:0:0:0:
287,5,7158,1,2,0:0:0:0:
287,5,7303,1,2,0:0:0:0:
226,71,7447,2,0,B|181:83|188:115|135:120,1,99.5999969604493,2|2,0:0|0:0,0:0:0:0:
18,43,7879,1,8,0:0:0:0:
58,112,8024,1,2,0:0:0:0:
190,233,8312,6,0,L|181:293,2,49.7999984802247,2|0|0,0:0|0:0|0:0,0:0:0:0:
190,233,8889,1,2,0:0:0:0:
188,135,9033,6,0,P|213:186|295:188,1,132.8,8|2,0:1|0:0,0:0:0:0:
337,136,9466,1,0,0:0:0:0:
319,277,9610,6,0,P|304:201|271:47,1,199.199993920899,4|2,1:2|0:0,0:0:0:0:
174,9,10043,5,2,0:0:0:0:
179,18,10115,1,2,0:0:0:0:
184,30,10187,1,10,0:0:0:0:
127,84,10331,1,2,0:0:0:0:
188,135,10476,1,2,0:0:0:0:
274,219,10620,6,0,B|204:223|235:289|147:291,1,132.8,2|2,1:2|0:0,0:0:0:0:
140,283,10980,1,2,0:0:0:0:
139,277,11053,2,0,L|95:271,1,33.2,2|0,1:2|0:0,0:0:0:0:
36,258,11197,1,2,0:0:0:0:
60,343,11341,6,0,P|69:305|89:179,1,149.399995440674,8|0,0:0|0:0,0:0:0:0:
107,177,11629,1,8,0:3:0:0:
107,177,11774,1,6,0:3:0:0:
44,19,11918,6,0,P|73:79|155:68,1,132.8,0|2,1:0|0:0,0:0:0:0:
191,34,12351,1,2,0:0:0:0:
331,123,12495,2,0,B|379:136|369:169|424:178,2,99.5999969604493,8|2|2,0:0|0:0|0:0,0:0:0:0:
252,90,12928,6,0,P|237:170|223:231,1,132.8,2|2,1:2|0:0,0:0:0:0:
240,247,13288,1,2,0:0:0:0:
246,260,13360,2,0,L|264:335,1,66.4,2|2,1:2|0:0,0:0:0:0:
339,384,13649,6,0,P|355:354|342:328,1,49.7999984802247,8|0,0:0|0:0,0:0:0:0:
310,197,13793,2,0,B|255:235|205:213|205:213|188:152|101:153,1,199.199993920899,2|4,1:2|0:3,0:0:0:0:
108,130,14154,1,4,0:3:0:0:
104,125,14226,1,0,1:0:0:0:
121,238,14370,6,0,P|101:303|43:303,1,132.8,2|2,0:0|0:0,0:0:0:0:
25,285,14730,1,2,0:0:0:0:
18,280,14803,2,0,L|224:317,1,199.199993920899,10|0,0:0|0:0,0:0:0:0:
295,258,15235,6,0,P|319:221|293:181,1,66.4,2|0,1:2|0:0,0:0:0:0:
218,104,15524,1,2,0:0:0:0:
205,110,15596,1,2,0:0:0:0:
196,118,15668,2,0,P|172:155|198:195,1,66.4,2|2,1:2|0:0,0:0:0:0:
414,186,15956,6,0,B|411:105|331:150|343:25,1,149.399995440674,8|0,0:0|0:0,0:0:0:0:
425,5,16245,2,0,L|414:81,1,49.7999984802247,8|0,0:3|0:0,0:0:0:0:
289,176,16389,5,4,0:3:0:0:
282,169,16461,1,4,0:3:0:0:
284,156,16533,2,0,P|345:169|421:188,1,132.8,2|0,1:2|0:0,0:0:0:0:
491,123,16966,1,2,0:0:0:0:
382,341,17110,2,0,B|376:290|340:302|334:227,2,99.5999969604493,10|2|2,0:0|0:0|0:0,0:0:0:0:
464,370,17543,1,2,1:2:0:0:
284,312,17687,1,2,0:0:0:0:
433,243,17831,1,2,0:0:0:0:
436,237,17904,1,2,0:0:0:0:
437,231,17976,1,2,1:2:0:0:
369,183,18120,5,2,0:0:0:0:
464,370,18264,1,8,0:0:0:0:
389,344,18408,1,2,1:2:0:0:
234,379,18553,1,2,0:0:0:0:
284,312,18697,1,2,1:2:0:0:
280,304,18769,1,2,1:2:0:0:
277,296,18841,1,6,1:2:0:0:
172,214,18985,5,2,0:0:0:0:
166,222,19057,1,2,0:0:0:0:
167,234,19129,1,2,0:0:0:0:
171,243,19202,1,2,0:0:0:0:
183,247,19274,2,0,P|214:243|225:211,1,49.7999984802247,10|2,0:0|0:0,0:0:0:0:
279,75,19418,6,0,L|303:80,1,24.9,2|0,0:0|0:0,0:0:0:0:
376,56,19706,1,8,0:0:0:0:
376,56,19851,1,8,0:0:0:0:
472,76,19995,6,0,B|381:97|381:97|355:155|355:155|229:181,1,232.399992907715,6|0,1:2|0:0,0:0:0:0:
281,170,20428,1,8,0:0:0:0:
136,127,20572,2,0,P|107:82|117:43,1,83,2|2,1:2|0:0,0:0:0:0:
266,0,20860,1,10,0:0:0:0:
204,76,21004,1,2,0:0:0:0:
288,183,21149,6,0,B|289:206|289:206|267:311,1,124.5,2|0,1:2|0:0,0:0:0:0:
289,331,21437,2,0,P|340:325|348:278,1,83,2|8,0:0|0:0,0:0:0:0:
134,138,21726,6,0,B|131:153|131:153|166:270,1,124.5,2|0,1:2|0:0,0:0:0:0:
138,284,22014,2,0,P|87:278|79:231,1,83,10|0,0:0|0:0,0:0:0:0:
104,27,22303,6,0,B|113:44|113:44|189:52|246:121,1,166,2|0,1:2|0:0,0:0:0:0:
238,112,22735,1,8,0:0:0:0:
407,22,22879,5,2,1:2:0:0:
360,105,23024,1,2,0:0:0:0:
272,16,23168,5,10,0:0:0:0:
443,95,23312,1,2,0:0:0:0:
378,191,23456,2,0,B|364:205|364:205|303:221|285:273,1,124.5,2|0,1:2|0:0,0:0:0:0:
282,282,23745,1,2,0:0:0:0:
282,282,23889,1,8,0:0:0:0:
467,349,24033,6,0,B|466:247|380:310|381:179,1,161.849992591095,2|0,1:2|0:0,0:0:0:0:
459,206,24322,2,0,B|488:188|488:188|461:217,1,53.9499975303651,8|0,0:0|0:0,0:0:0:0:
386,338,24466,5,2,0:0:0:0:
380,345,24538,1,2,0:0:0:0:
376,352,24610,2,0,P|272:324|154:311,1,215.79999012146,2|0,1:2|0:0,0:0:0:0:
164,311,25043,1,8,0:0:0:0:
20,185,25187,5,2,1:2:0:0:
124,228,25331,1,2,0:0:0:0:
118,103,25476,5,10,0:0:0:0:
44,270,25620,1,2,0:0:0:0:
259,372,25764,6,0,B|273:354|273:354|252:243,1,124.5,2|0,1:2|0:0,0:0:0:0:
240,240,26053,2,0,L|260:331,1,83,2|8,0:0|0:0,0:0:0:0:
385,125,26341,6,0,B|371:143|371:143|392:254,1,124.5,2|0,1:2|0:0,0:0:0:0:
404,257,26630,2,0,L|384:166,1,83,10|0,0:0|0:0,0:0:0:0:
329,20,26918,6,0,B|314:40|314:40|196:83|196:83|187:119,1,166,2|0,1:2|0:0,0:0:0:0:
192,97,27351,1,8,0:0:0:0:
301,202,27495,5,2,1:2:0:0:
261,139,27639,1,2,0:0:0:0:
154,12,27783,5,10,0:0:0:0:
334,113,27928,1,2,0:0:0:0:
188,222,28072,6,0,B|173:202|173:202|55:159|55:159|51:144,1,166,2|2,1:2|0:0,0:0:0:0:
51,144,28504,1,8,0:0:0:0:
145,353,28649,6,0,B|112:344|112:344|100:254|100:254|39:232,1,174.299994680786,8|0,0:1|0:0,0:0:0:0:
7,335,28937,6,0,B|10:345|10:345|155:289,1,116.199996453858,2|0,0:0|0:0,0:0:0:0:
256,191,29226,6,0,L|271:120,1,66.4,4|2,1:2|0:0,0:0:0:0:
358,24,29658,2,0,L|371:99,1,66.4,8|0,0:0|0:0,0:0:0:0:
463,133,30091,2,0,L|472:98,1,33.2,8|0,0:0|0:0,0:0:0:0:
409,194,30379,5,2,0:0:0:0:
412,202,30476,5,2,0:0:0:0:
416,211,30572,5,2,0:0:0:0:
421,222,30668,5,2,0:0:0:0:
326,190,30812,1,8,0:0:0:0:
326,190,31245,6,0,B|265:194|285:246|209:249,1,112.049996580505,0|0,1:0|0:0,0:0:0:0:
207,260,31533,2,0,B|163:258|191:220|125:209,1,74.699997720337,0|2,1:0|0:0,0:0:0:0:
103,221,31750,1,2,0:0:0:0:
94,231,31822,1,2,0:0:0:0:
20,277,31966,1,8,0:0:0:0:
37,179,32110,6,0,L|48:136,1,33.2,2|0,0:0|0:0,0:0:0:0:
121,123,32399,2,0,L|100:234,1,99.6,8|0,0:0|0:0,0:0:0:0:
129,294,32687,5,2,0:0:0:0:
134,300,32783,5,2,0:0:0:0:
140,305,32879,5,2,0:0:0:0:
145,312,32976,6,0,L|155:355,1,33.2,2|8,0:0|0:0,0:0:0:0:
224,373,33264,5,2,1:2:0:0:
244,377,33360,5,2,0:0:0:0:
268,364,33456,5,2,0:0:0:0:
281,332,33553,5,2,1:2:0:0:
310,294,33649,5,2,0:0:0:0:
360,279,33745,5,2,0:0:0:0:
403,312,33841,6,0,L|477:323,1,66.4,0|2,1:0|0:0,0:0:0:0:
512,255,34274,1,8,0:0:0:0:
439,178,34418,1,2,0:0:0:0:
439,178,34706,6,0,L|327:202,1,99.6,8|0,0:0|0:0,0:0:0:0:
276,162,34995,5,2,0:0:0:0:
267,156,35091,5,2,0:0:0:0:
258,150,35187,5,2,0:0:0:0:
244,141,35283,6,0,L|199:131,1,33.2,2|10,0:0|0:0,0:0:0:0:
156,78,35500,1,2,0:0:0:0:
149,83,35572,2,0,L|109:102,1,33.2
54,159,35860,6,0,B|50:215|100:195|99:265,1,99.6,0|0,1:0|0:0,0:0:0:0:
70,275,36149,2,0,L|217:323,1,132.8,0|2,1:0|0:0,0:0:0:0:
261,269,36581,1,8,0:0:0:0:
365,378,36726,2,0,L|377:309,1,66.4,2|8,0:0|0:0,0:0:0:0:
376,312,37303,5,0,1:0:0:0:
426,249,37447,1,0,1:0:0:0:
221,197,37735,5,0,1:0:0:0:
278,281,37879,2,0,L|297:215,1,53.9499975303651,8|0,0:1|0:0,0:0:0:0:
333,85,38024,6,0,L|339:60,3,19.3666660756429,0|0|0|4,0:0|0:0|0:0|0:3,0:0:0:0:
292,229,38312,1,4,0:3:0:0:
202,40,38456,6,0,B|120:44|157:126|41:106,1,166,4|2,1:2|0:0,0:0:0:0:
0,26,38889,1,10,0:0:0:0:
194,142,39033,1,2,1:2:0:0:
51,283,39178,2,0,L|26:190,1,83,2|10,0:0|0:0,0:0:0:0:
120,206,39394,5,2,0:0:0:0:
121,214,39466,2,0,L|145:308,1,83,2|2,0:0|1:2,0:0:0:0:
285,347,39754,1,2,0:0:0:0:
219,384,39899,1,2,0:0:0:0:
353,299,40043,2,0,L|373:205,1,83,10|2,0:0|1:2,0:0:0:0:
297,122,40331,5,2,0:0:0:0:
244,177,40476,2,0,L|260:229,1,41.5,10|0,0:0|0:0,0:0:0:0:
456,228,40620,6,0,P|460:178|411:156,1,83,2|2,0:0|1:2,0:0:0:0:
370,217,40908,1,2,0:0:0:0:
416,76,41053,5,2,0:0:0:0:
456,228,41197,1,10,0:0:0:0:
318,38,41341,1,0,1:0:0:0:
261,89,41485,2,0,L|172:63,1,83,2|8,0:0|0:0,0:0:0:0:
330,147,41774,6,0,L|341:108,3,27.6666666666667,2|0|0|2,0:0|0:0|0:0|1:2,0:0:0:0:
245,246,42062,2,0,P|204:210|212:176,1,83,2|0,0:0|0:0,0:0:0:0:
443,326,42351,6,0,L|456:228,2,99.5999969604493,10|0|2,0:0|1:0|0:0,0:0:0:0:
335,256,42783,2,0,L|353:321,1,41.5,10|0,0:0|0:0,0:0:0:0:
294,382,42928,5,2,0:0:0:0:
289,376,43000,1,2,0:0:0:0:
283,368,43072,1,2,1:2:0:0:
376,384,43216,1,2,0:0:0:0:
202,261,43360,1,2,0:0:0:0:
394,166,43504,1,10,0:0:0:0:
335,256,43649,5,2,1:2:0:0:
194,117,43793,2,0,L|281:143,1,83,2|8,0:0|0:0,0:0:0:0:
89,318,44081,2,0,L|64:227,1,83,2|0,0:0|1:0,0:0:0:0:
196,368,44370,1,2,0:0:0:0:
196,368,44514,1,0,0:0:0:0:
91,126,44658,6,0,B|44:137|49:170|-12:183,2,99.5999969604493,10|0|2,0:0|1:0|0:0,0:0:0:0:
216,265,45091,2,0,B|260:274|258:309|319:322,1,83,8|0,0:0|0:0,0:0:0:0:
115,377,45379,6,0,L|140:246,1,124.5,2|0,1:2|0:0,0:0:0:0:
147,229,45668,1,0,0:0:0:0:
0,285,45812,2,0,L|42:296,1,41.5,10|0,0:0|0:0,0:0:0:0:
234,363,45956,6,0,P|275:343|274:285,1,83,0|0,1:0|0:0,0:0:0:0:
59,216,46245,1,10,0:0:0:0:
59,216,46389,1,0,0:0:0:0:
225,169,46533,5,2,1:2:0:0:
115,377,46678,2,0,L|94:286,1,83,2|0,0:0|0:0,0:0:0:0:
166,64,46966,6,0,L|155:112,1,41.5,10|0,0:0|0:0,0:0:0:0:
317,235,47110,2,0,L|306:187,1,41.5,0|0,1:0|0:0,0:0:0:0:
225,169,47254,1,2,0:0:0:0:
292,352,47399,6,0,P|344:268|429:285,1,161.849992591095,10|0,0:0|0:0,0:0:0:0:
474,304,47687,6,0,L|486:233,1,66.4,6|0,1:2|0:0,0:0:0:0:
425,189,48120,1,10,0:0:0:0:
502,119,48264,1,2,0:0:0:0:
502,119,48553,2,0,L|486:15,1,99.6,10|0,0:0|0:0,0:0:0:0:
413,0,48841,5,2,0:0:0:0:
408,10,48937,5,2,0:0:0:0:
403,18,49033,5,2,0:0:0:0:
398,27,49129,5,2,0:0:0:0:
324,51,49274,1,8,0:0:0:0:
324,51,49706,6,0,B|274:54|290:107|213:101,1,99.6,2|0,1:2|0:0,0:0:0:0:
218,116,49995,2,0,P|151:90|79:84,1,132.8,2|0,1:2|0:0,0:0:0:0:
21,121,50428,1,10,0:0:0:0:
82,187,50572,1,2,0:0:0:0:
82,187,50860,2,0,L|62:305,1,99.6,10|0,0:0|0:0,0:0:0:0:
129,338,51149,5,2,0:0:0:0:
133,323,51245,5,2,0:0:0:0:
137,308,51341,5,2,0:0:0:0:
143,296,51437,6,0,L|149:253,1,33.2,2|8,0:0|0:0,0:0:0:0:
165,191,51726,5,2,0:0:0:0:
44,310,51870,1,2,0:0:0:0:
46,317,51942,1,2,0:0:0:0:
45,328,52014,1,2,0:0:0:0:
232,248,52158,1,2,0:0:0:0:
23,54,52303,6,0,P|71:114|158:92,1,149.399995440674,6|0,1:2|0:0,0:0:0:0:
199,73,52591,2,0,L|210:17,1,49.7999984802247,8|0,0:0|0:0,0:0:0:0:
142,0,52735,1,2,0:0:0:0:
317,107,52879,1,2,0:0:0:0:
317,107,53024,1,2,1:2:0:0:
107,224,53168,2,0,P|70:178|103:129,1,99.5999969604493,10|0,0:0|0:0,0:0:0:0:
372,217,53456,5,2,1:2:0:0:
183,159,53601,1,0,1:0:0:0:
291,349,53745,6,0,L|279:285,1,49.7999984802247,10|0,0:0|0:0,0:0:0:0:
266,228,53889,1,8,0:0:0:0:
433,143,54033,5,2,0:0:0:0:
383,309,54178,1,0,1:0:0:0:
233,98,54322,6,0,L|50:142,1,149.399995440674,10|0,0:0|0:0,0:0:0:0:
33,184,54610,6,0,P|9:217|12:256,2,55.3333333333333,2|2|2,1:2|0:0|0:0,0:0:0:0:
108,258,54899,6,0,P|124:295|159:312,2,44.2666666666667,10|2|2,0:0|0:0|0:0,0:0:0:0:
203,232,55187,5,2,0:0:0:0:
204,242,55283,5,2,0:0:0:0:
214,256,55379,5,2,0:0:0:0:
289,294,55476,5,10,0:0:0:0:
308,320,55572,5,2,0:0:0:0:
296,353,55668,5,2,0:0:0:0:
222,381,55764,6,0,L|164:372,3,33.2,2|2|2|2,1:2|0:0|0:0|0:0,0:0:0:0:
129,317,56053,5,10,0:0:0:0:
97,330,56125,1,2,0:0:0:0:
69,342,56197,1,10,0:0:0:0:
42,353,56269,1,2,0:0:0:0:
14,363,56341,1,2,0:0:0:0:
203,232,56485,1,0,1:0:0:0:
5,155,56629,2,0,L|31:240,1,66.4,8|0,0:0|0:0,0:0:0:0:
355,39,56918,5,2,1:2:0:0:
291,201,57206,5,8,0:0:0:0:
355,39,57351,1,8,0:0:0:0:
357,140,57495,5,0,1:0:0:0:
72,43,57783,1,8,0:0:0:0:
72,43,58072,6,0,P|81:46|88:51,1,12.4499996200562,2|0,0:0|0:0,0:0:0:0:
155,39,58216,6,0,P|160:57|153:69,1,20.75,2|0,0:0|0:0,0:0:0:0:
218,108,58360,6,0,P|204:121|182:123,1,29.0499991134644,2|0,0:0|0:0,0:0:0:0:
165,197,58504,6,0,P|146:192|132:166,1,37.3499988601685,2|0,0:0|0:0,0:0:0:0:
281,169,58649,6,0,B|290:232|217:218|244:317,2,145.250001385212,8|2|2,0:1|0:0|0:0,0:0:0:0:
36,129,59081,6,0,L|292:171,1,249,6|0,1:2|0:0,0:0:0:0:
356,141,59370,2,0,P|385:112|357:59,1,83,2|0,0:0|0:0,0:0:0:0:
193,28,59514,5,8,1:2:0:0:
198,40,59586,1,0,1:0:0:0:
203,51,59658,1,0,1:0:0:0:
207,61,59730,1,0,1:0:0:0:
214,76,59803,6,0,P|259:63|308:47,1,83,8|0,1:2|1:0,0:0:0:0:
147,278,59947,2,0,P|113:245|74:211,1,83,0|0,1:0|1:0,0:0:0:0:
353,243,60091,2,0,P|341:288|331:338,1,83,8|0,1:2|1:0,0:0:0:0:
239,181,60235,5,0,1:0:0:0:
235,192,60307,1,0,1:0:0:0:
231,203,60379,1,8,1:2:0:0:
226,212,60452,1,0,1:0:0:0:
223,222,60524,5,0,1:0:0:0:
245,254,60596,1,0,1:0:0:0:
295,271,60668,1,8,1:2:0:0:
353,243,60740,1,0,1:0:0:0:
377,189,60812,1,0,1:0:0:0:
438,140,60884,1,0,1:0:0:0:
499,187,60956,6,0,P|487:237|474:286,1,83,8|0,1:2|1:0,0:0:0:0:
323,120,61101,2,0,P|315:76|301:23,1,83,0|0,1:0|1:0,0:0:0:0:
173,285,61245,2,0,P|165:329|151:382,1,83,8|0,1:2|1:0,0:0:0:0:
82,96,61389,6,0,B|19:42|19:42|206:94,1,249,6|0,1:2|0:0,0:0:0:0:
207,72,61678,1,2,1:2:0:0:
89,237,61822,1,10,0:0:0:0:
84,226,61894,1,2,0:0:0:0:
77,213,61966,1,2,0:0:0:0:
133,150,62110,5,2,1:2:0:0:
56,336,62254,1,2,1:2:0:0:
258,263,62399,2,0,L|237:193,1,62.2500023746491,10|0,0:0|0:0,0:0:0:0:
155,252,62543,6,0,B|260:252|185:344|376:330,1,186.750007123947,2|0,1:2|0:0,0:0:0:0:
338,321,62831,1,2,1:2:0:0:
395,87,62976,6,0,L|368:172,1,62.2500023746491,10|0,0:0|0:0,0:0:0:0:
346,216,63120,1,0,0:0:0:0:
483,143,63264,5,2,1:2:0:0:
486,129,63408,1,0,1:0:0:0:
275,27,63553,5,10,0:0:0:0:
296,106,63697,1,0,0:0:0:0:
338,321,63841,6,0,B|374:272|331:213|277:237|277:237|223:260|178:218|200:152,1,280.125010685921,6|0,1:2|0:0,0:0:0:0:
224,366,64129,5,10,0:0:0:0:
232,363,64202,1,0,1:0:0:0:
241,358,64274,1,0,1:0:0:0:
250,354,64346,1,0,1:0:0:0:
257,349,64418,2,0,L|302:91,1,249,6|0,1:2|0:0,0:0:0:0:
174,56,64706,5,10,0:0:0:0:
166,71,64779,1,0,1:0:0:0:
158,85,64851,1,0,1:0:0:0:
150,99,64923,1,0,1:0:0:0:
145,110,64995,2,0,B|92:200|16:199|-53:120|47:61|102:98,1,249,6|0,1:2|0:0,0:0:0:0:
154,306,65283,5,10,0:0:0:0:
147,283,65355,1,0,1:0:0:0:
140,258,65428,1,0,1:0:0:0:
131,234,65500,1,0,1:0:0:0:
125,210,65572,2,0,P|115:153|74:-31,1,207.5,6|0,1:2|0:0,0:0:0:0:
9,247,65860,6,0,L|-1:304,1,49.8,2|0,1:2|0:0,0:0:0:0:
35,380,66149,6,0,B|123:352|123:352|145:287|145:287|254:253,1,249,6|0,1:2|0:0,0:0:0:0:
343,331,66437,5,10,0:0:0:0:
331,335,66509,1,2,0:0:0:0:
318,341,66581,1,2,0:0:0:0:
308,346,66654,1,2,0:0:0:0:
297,350,66726,2,0,L|190:382,1,83,2|0,0:0|0:0,0:0:0:0:
39,180,66870,5,2,1:2:0:0:
9,247,66942,1,2,1:2:0:0:
68,295,67014,1,10,0:0:0:0:
277,121,67158,6,0,B|399:153|399:153|353:86,1,186.750007123947,6|0,1:2|0:0,0:0:0:0:
313,47,67447,1,0,1:0:0:0:
491,144,67591,6,0,B|387:149|448:253|296:240,1,186.750007123947,10|0,0:0|0:0,0:0:0:0:
276,205,67879,2,0,L|200:181,1,62.2500023746491,10|8,0:0|0:0,0:0:0:0:
19,0,68024,5,10,0:0:0:0:
24,43,68096,1,8,0:0:0:0:
52,75,68168,1,10,0:0:0:0:
91,93,68240,1,8,0:0:0:0:
131,88,68312,2,0,P|224:64|342:42,1,186.750007123947,6|0,1:2|0:0,0:0:0:0:
377,1,68601,1,2,1:2:0:0:
276,205,68745,1,8,0:0:0:0:
276,205,68889,1,2,0:0:0:0:
510,126,69033,5,2,1:2:0:0:
397,99,69178,1,2,1:2:0:0:
255,61,69322,2,0,L|244:-6,1,62.2500023746491,10|0,0:0|0:0,0:0:0:0:
378,185,69466,6,0,B|359:288|460:233|453:371,1,186.750007123947,2|0,1:2|0:0,0:0:0:0:
471,373,69754,1,2,1:2:0:0:
307,281,69899,1,8,0:0:0:0:
307,281,70043,1,2,0:0:0:0:
494,209,70187,5,2,1:2:0:0:
294,154,70331,1,2,1:2:0:0:
378,355,70476,2,0,L|390:283,1,62.2500023746491,10|0,0:0|0:0,0:0:0:0:
351,87,70620,6,0,B|299:130|235:107|235:107|222:61|155:61,1,186.750007123947,2|0,1:2|0:0,0:0:0:0:
171,50,70908,1,2,1:2:0:0:
126,268,71053,6,0,L|145:204,1,62.2500023746491,10|0,0:0|0:0,0:0:0:0:
168,138,71197,1,2,0:0:0:0:
365,0,71341,5,2,1:2:0:0:
98,92,71485,1,2,1:2:0:0:
312,221,71629,2,0,L|297:151,1,62.2500023746491,10|0,0:0|0:0,0:0:0:0:
0,19,71774,6,0,L|46:225,1,186.750007123947,2|0,1:2|0:0,0:0:0:0:
40,224,72062,1,2,1:2:0:0:
199,347,72206,6,0,P|233:289|195:241,1,124.500004749298,10|0,0:0|0:0,0:0:0:0:
29,341,72495,1,2,1:2:0:0:
29,341,72639,1,0,1:0:0:0:
121,172,72783,5,10,0:0:0:0:
305,308,72928,1,2,0:0:0:0:
307,318,73000,1,2,0:0:0:0:
309,326,73072,2,0,L|426:310,1,107.89999506073,2|0,1:2|0:0,0:0:0:0:
148,345,73360,6,0,L|335:322,1,161.849992591095,10|0,0:0|0:0,0:0:0:0:
415,311,73649,5,2,0:0:0:0:
415,311,73793,1,0,1:0:0:0:
225,147,73937,6,0,P|214:179|252:215,1,53.9499975303651,10|0,0:0|0:0,0:0:0:0:
286,243,74081,1,0,0:0:0:0:
205,70,74226,6,0,L|63:89,1,132.8,2|0,1:2|0:0,0:0:0:0:
402,42,74514,2,0,L|198:70,1,199.2,10|0,0:0|0:0,0:0:0:0:
73,87,74803,5,2,0:0:0:0:
73,87,74947,1,0,1:0:0:0:
286,243,75091,6,0,P|297:211|259:175,1,53.9499975303651,10|0,0:0|0:0,0:0:0:0:
225,147,75235,1,0,0:0:0:0:
43,316,75379,6,0,B|25:353|25:353|95:326|95:326|117:256|117:256|236:217,1,265.6,2|8,1:2|0:0,0:0:0:0:
401,154,75812,1,0,0:0:0:0:
298,356,75956,2,0,L|164:325,1,116.199996453858,2|0,0:0|1:0,0:0:0:0:
132,171,76245,1,10,0:0:0:0:
42,242,76389,1,2,0:0:0:0:
22,133,76533,5,10,0:0:0:0:
184,329,76678,2,0,P|212:297|192:255,1,66.4,2|0,0:0|0:0,0:0:0:0:
138,163,76966,6,0,P|110:131|130:89,1,66.4,2|2,1:2|0:0,0:0:0:0:
170,3,77399,5,2,1:2:0:0:
177,10,77471,1,2,0:0:0:0:
185,17,77543,1,2,0:0:0:0:
191,28,77615,1,2,0:0:0:0:
202,37,77687,2,0,P|278:50|377:74,1,149.399995440674,4|0,1:2|0:0,0:0:0:0:
416,22,77976,2,0,L|454:7,3,41.5,0|0|0|0,1:0|1:0|1:0|1:0,0:0:0:0:
375,143,78264,6,0,B|378:202|434:183|427:259,1,107.89999506073,8|0,0:0|0:0,0:0:0:0:
362,354,78553,1,0,1:0:0:0:
268,282,78697,1,0,1:0:0:0:
478,165,78841,6,0,P|396:191|306:218,1,161.849992591095,0|0,1:0|0:0,0:0:0:0:
253,175,79129,2,0,L|243:123,3,41.5,8|0|0|0,1:2|1:0|1:0|1:0,0:0:0:0:
163,80,79418,5,8,0:0:0:0:
160,88,79490,1,0,1:0:0:0:
159,97,79562,2,0,L|144:167,3,41.5,0|0|8|0,1:0|1:0|0:0|1:0,0:0:0:0:
99,194,79851,1,0,1:0:0:0:
1,286,79995,6,0,P|65:290|96:353,1,107.89999506073,0|0,1:0|0:0,0:0:0:0:
152,365,80211,1,0,0:0:0:0:
161,371,80283,2,0,L|221:358,3,41.5,0|0|0|0,1:0|1:0|1:0|1:0,0:0:0:0:
283,384,80572,6,0,P|294:319|315:234,1,124.5,8|0,0:0|0:0,0:0:0:0:
343,238,80860,1,0,1:0:0:0:
248,175,81004,1,0,1:0:0:0:
242,187,81077,1,0,1:0:0:0:
238,200,81149,1,0,1:0:0:0:
377,142,81293,2,0,L|361:42,1,83,0|8,0:0|1:2,0:0:0:0:
275,0,81581,5,0,1:0:0:0:
207,82,81726,1,8,0:0:0:0:
197,74,81798,1,0,1:0:0:0:
190,66,81870,2,0,L|198:19,3,41.5,0|0|8|0,1:0|1:0|0:0|1:0,0:0:0:0:
100,118,82158,5,0,1:0:0:0:
105,129,82230,1,0,1:0:0:0:
111,138,82303,2,0,L|247:168,1,124.5,0|0,1:0|0:0,0:0:0:0:
286,220,82591,6,0,L|276:274,1,41.5,2|0,1:2|1:0,0:0:0:0:
356,252,82735,2,0,L|346:311,1,41.5,2|0,1:2|1:0,0:0:0:0:
294,375,82879,6,0,B|215:375|255:306|153:309,1,149.399995440674,10|0,0:0|0:0,0:0:0:0:
87,383,83168,6,0,L|97:329,1,41.5,2|0,1:2|1:0,0:0:0:0:
16,368,83312,2,0,L|26:309,1,41.5,2|0,1:2|1:0,0:0:0:0:
106,230,83456,6,0,B|185:230|145:161|247:164,1,149.399995440674,2|0,1:2|0:0,0:0:0:0:
292,100,83745,2,0,L|302:50,3,41.5,8|0|0|0,1:2|1:0|1:0|1:0,0:0:0:0:
195,6,84033,5,8,0:0:0:0:
196,16,84105,1,0,1:0:0:0:
198,30,84178,2,0,L|212:83,1,41.5,0|0,1:0|1:0,0:0:0:0:
106,144,84322,5,8,0:0:0:0:
109,133,84394,1,0,1:0:0:0:
113,120,84466,2,0,L|124:71,1,41.5,0|0,1:0|1:0,0:0:0:0:
203,177,84610,6,0,P|279:184|307:251,1,149.399995440674,0|0,1:0|0:0,0:0:0:0:
243,288,84899,2,0,L|228:245,1,41.5,2|0,1:2|1:0,0:0:0:0:
155,265,85043,2,0,L|168:309,1,41.5,2|0,1:2|1:0,0:0:0:0:
272,372,85187,6,0,P|346:343|421:324,1,149.399995440674,10|0,0:0|0:0,0:0:0:0:
485,228,85476,6,0,L|470:185,1,41.5,2|0,1:2|1:0,0:0:0:0:
397,205,85620,2,0,L|410:249,1,41.5,2|0,1:2|1:0,0:0:0:0:
336,108,85764,6,0,P|262:80|187:60,1,149.399995440674,2|0,1:2|0:0,0:0:0:0:
133,104,86053,1,8,1:2:0:0:
124,109,86125,1,0,1:0:0:0:
116,114,86197,1,0,1:0:0:0:
109,119,86269,1,0,1:0:0:0:
98,125,86341,1,8,0:0:0:0:
232,272,86485,1,0,1:0:0:0:
37,354,86629,6,0,L|120:332,1,62.2500023746491,10|0,0:0|0:0,0:0:0:0:
236,164,86774,2,0,L|311:181,1,62.2500023746491,10|0,0:0|0:0,0:0:0:0:
349,239,86918,5,2,0:0:0:0:
349,239,87928,6,0,L|363:181,1,41.5,2|0,1:2|0:0,0:0:0:0:
456,57,88216,5,10,0:0:0:0:
452,64,88288,1,8,0:0:0:0:
448,73,88360,1,8,0:0:0:0:
293,24,88504,1,10,0:3:0:0:
375,0,88649,5,4,0:3:0:0:
335,88,88793,1,6,0:3:0:0:
206,133,88937,1,8,0:0:0:0:
154,64,89081,6,0,B|71:58|113:144|-5:130,1,149.399995440674,2|2,1:2|0:0,0:0:0:0:
194,206,89514,2,0,L|207:122,1,74.699997720337,10|2,0:0|0:0,0:0:0:0:
36,302,89803,5,0,0:0:0:0:
108,275,89947,2,0,L|97:258,1,12.4499996200562,2|0,1:2|0:0,0:0:0:0:
41,221,90091,1,10,0:0:0:0:
195,315,90235,6,0,B|275:305|238:377|345:366,1,149.399995440674,2|2,1:2|0:0,0:0:0:0:
389,317,90596,1,2,0:0:0:0:
394,308,90668,2,0,L|407:221,1,74.699997720337,10|2,0:0|0:0,0:0:0:0:
360,75,90956,5,0,1:0:0:0:
320,139,91101,1,2,1:2:0:0:
493,212,91245,1,8,0:0:0:0:
464,141,91389,1,2,0:0:0:0:
405,235,91533,6,0,L|399:268,1,33.2,0|2,1:0|0:0,0:0:0:0:
443,23,91822,6,0,P|402:77|331:47,1,116.199996453858,10|2,0:0|0:0,0:0:0:0:
301,21,92038,1,2,0:0:0:0:
308,13,92110,1,2,0:0:0:0:
209,114,92254,2,0,L|221:36,1,74.699997720337,2|8,1:2|0:0,0:0:0:0:
365,174,92543,6,0,P|289:180|253:256,1,149.399995440674,2|2,1:2|0:0,0:0:0:0:
425,360,92976,2,0,L|437:281,1,74.699997720337,10|2,0:0|0:0,0:0:0:0:
339,251,93264,6,0,L|336:271,1,12.4499996200562,0|0,1:0|0:0,0:0:0:0:
315,323,93408,2,0,P|302:316|301:294,1,20.75,2|0,1:2|0:0,0:0:0:0:
347,282,93553,6,0,P|334:289|320:282,1,16.6,10|0,0:0|0:0,0:0:0:0:
220,340,93697,2,0,P|219:326|235:299,1,24.8999992401123,2|0,0:0|0:0,0:0:0:0:
164,257,93841,5,0,1:0:0:0:
164,257,93985,1,2,0:0:0:0:
270,156,94129,6,0,P|261:197|253:238,1,83,10|2,0:0|0:0,0:0:0:0:
251,260,94346,1,2,0:0:0:0:
255,266,94418,1,2,0:0:0:0:
65,305,94562,1,2,1:2:0:0:
185,153,94706,1,10,0:0:0:0:
164,257,94851,1,2,1:2:0:0:
93,170,94995,6,0,L|71:83,1,83,2|2,0:0|0:0,0:0:0:0:
164,257,95283,1,10,0:0:0:0:
164,257,95428,1,2,0:0:0:0:
51,313,95572,6,0,L|77:299,1,16.6,0|0,1:0|0:0,0:0:0:0:
185,153,95716,2,0,L|177:185,1,24.8999992401123,2|0,1:2|0:0,0:0:0:0:
258,346,95860,2,0,L|219:322,1,33.2,8|0,0:0|0:0,0:0:0:0:
167,257,96004,6,0,B|265:271|219:172|349:202,1,166,6|2,1:2|0:0,0:0:0:0:
511,134,96437,1,10,0:0:0:0:
406,312,96581,1,2,0:0:0:0:
400,303,96654,1,2,0:0:0:0:
395,292,96726,1,2,1:2:0:0:
312,196,96870,1,2,0:0:0:0:
511,303,97014,1,8,0:0:0:0:
399,161,97158,6,0,P|380:84|353:-8,1,166,2|2,1:2|1:2,0:0:0:0:
324,0,97519,1,2,0:0:0:0:
318,9,97591,1,10,0:0:0:0:
470,89,97735,1,2,0:0:0:0:
312,196,97879,2,0,P|266:168|263:128,1,83,2|2,1:2|1:2,0:0:0:0:
193,74,98096,5,2,0:0:0:0:
188,85,98168,2,0,L|147:243,1,124.5,10|0,0:0|0:0,0:0:0:0:
128,230,98456,5,2,1:2:0:0:
287,330,98601,2,0,P|236:352|228:407,1,83,2|8,0:0|0:0,0:0:0:0:
39,310,98889,1,2,0:0:0:0:
41,303,98961,1,2,0:0:0:0:
44,294,99033,1,2,1:2:0:0:
115,384,99178,1,2,0:0:0:0:
42,215,99322,1,8,0:0:0:0:
225,374,99466,6,0,P|310:357|400:339,1,166,2|2,0:0|0:0,0:0:0:0:
417,185,99899,1,10,0:0:0:0:
340,236,100043,1,2,0:0:0:0:
461,383,100187,2,0,P|493:351|467:298,1,83,2|0,1:2|0:0,0:0:0:0:
236,294,100476,6,0,L|289:286,1,41.5,8|0,0:0|0:0,0:0:0:0:
481,142,100620,6,0,B|435:172|393:136|393:136|378:94|326:79,1,166,6|2,1:2|0:0,0:0:0:0:
293,32,100980,1,2,0:0:0:0:
296,22,101053,1,10,0:0:0:0:
294,166,101197,5,2,0:0:0:0:
305,160,101269,1,2,0:0:0:0:
316,155,101341,1,2,1:2:0:0:
422,52,101485,1,2,0:0:0:0:
468,231,101629,1,8,0:0:0:0:
340,266,101774,6,0,P|293:208|184:216,1,166,2|2,1:2|1:2,0:0:0:0:
3,124,102206,1,10,0:0:0:0:
3,124,102351,1,0,0:0:0:0:
33,196,102495,1,2,1:2:0:0:
171,118,102639,1,2,1:2:0:0:
177,112,102711,1,2,0:0:0:0:
183,107,102783,2,0,L|210:8,1,83,10|2,0:0|0:0,0:0:0:0:
237,11,103000,1,2,0:0:0:0:
236,0,103072,1,2,1:2:0:0:
99,79,103216,5,2,0:0:0:0:
296,164,103360,1,10,0:0:0:0:
137,276,103504,2,0,P|123:229|107:177,1,83,2|0,0:0|1:0,0:0:0:0:
188,178,103793,5,2,0:0:0:0:
299,348,103937,2,0,P|313:301|329:249,1,83,10|2,0:0|0:0,0:0:0:0:
40,309,104226,5,2,1:2:0:0:
243,239,104370,1,2,0:0:0:0:
137,276,104514,1,10,0:0:0:0:
239,110,104658,5,2,0:0:0:0:
246,103,104730,1,2,0:0:0:0:
254,94,104803,1,2,1:2:0:0:
60,13,104947,5,2,0:0:0:0:
64,25,105019,1,2,0:0:0:0:
70,37,105091,2,0,L|144:18,1,58.0999982269288,10|0,0:0|0:0,0:0:0:0:
201,3,105235,1,2,0:0:0:0:
319,138,105379,6,0,B|380:159|380:159|397:200|397:200|495:240,1,174.299994680786,6|0,1:2|0:0,0:0:0:0:
512,114,105668,6,0,L|453:139,1,58.0999982269288,8|0,0:0|0:0,0:0:0:0:
318,219,105812,1,2,0:0:0:0:
492,384,105956,2,0,P|502:336|516:269,1,99.5999969604493,2|0,0:0|1:0,0:0:0:0:
335,28,106245,5,10,0:0:0:0:
512,114,106389,1,2,1:2:0:0:
479,13,106533,5,2,0:0:0:0:
324,128,106678,1,2,0:0:0:0:
319,138,106750,1,2,0:0:0:0:
316,149,106822,2,0,L|332:214,1,49.7999984802247,10|0,0:0|0:0,0:0:0:0:
354,272,106966,1,2,0:0:0:0:
258,348,107110,5,0,1:0:0:0:
181,371,107254,1,2,1:2:0:0:
327,197,107399,1,10,0:0:0:0:
89,144,107543,1,2,0:0:0:0:
185,239,107687,6,0,B|178:165|254:202|243:80,1,149.399995440674,2|0,1:2|0:0,0:0:0:0:
150,52,107976,2,0,L|164:115,1,49.7999984802247,10|0,0:0|0:0,0:0:0:0:
263,240,108120,1,2,0:0:0:0:
81,233,108264,5,2,0:0:0:0:
243,108,108408,2,0,L|271:-18,1,99.5999969604493,2|10,1:2|0:0,0:0:0:0:
264,10,108697,1,2,1:2:0:0:
263,240,108841,5,2,0:0:0:0:
436,296,108985,1,2,0:0:0:0:
349,268,109129,1,8,0:0:0:0:
160,366,109274,6,0,L|273:329,1,83,2|0,0:0|1:0,0:0:0:0:
354,185,109562,1,2,1:2:0:0:
359,383,109706,6,0,L|301:366,1,41.5,10|0,0:0|0:0,0:0:0:0:
263,240,109851,1,2,0:0:0:0:
344,294,109995,6,0,L|352:261,2,24.8999992401123,2|2|2,0:0|0:0|0:0,0:0:0:0:
428,248,110428,5,2,0:0:0:0:
428,248,110500,1,2,0:0:0:0:
428,248,110572,2,0,L|416:218,2,24.8999992401123,2|2|2,0:0|0:0|0:0,0:0:0:0:
500,283,111004,5,2,0:0:0:0:
500,283,111726,5,2,0:0:0:0:
428,248,111870,1,2,0:0:0:0:
344,294,112014,1,2,0:0:0:0:
263,240,112158,1,6,0:3:0:0:
162,361,112303,6,0,B|163:265|79:328|83:192,1,161.849992591095,6|0,1:2|0:0,0:0:0:0:
92,212,112591,5,8,0:0:0:0:
95,196,112663,1,4,0:3:0:0:
98,180,112735,1,4,0:3:0:0:
100,164,112807,1,4,0:3:0:0:
104,147,112879,2,0,L|199:170,1,83,6|4,0:3|0:3,0:0:0:0:
330,32,113168,6,0,L|267:52,1,41.5,8|0,0:0|0:0,0:0:0:0:
221,66,113312,1,4,0:3:0:0:
381,309,113456,6,0,P|342:229|236:257,1,174.299994680786,10|0,0:0|0:0,0:0:0:0:
213,290,113745,6,0,L|185:384,2,49.7999984802247,10|2|2,0:0|0:0|0:0,0:0:0:0:
265,228,114033,5,2,0:0:0:0:
189,286,123264,6,0,B|223:340|288:328|296:271|296:271|307:212|394:203|405:276,1,298.799990881348,8|0,0:1|0:0,0:0:0:0:
318,372,123841,6,0,P|303:293|270:142,1,199.199993920899,4|2,1:2|0:0,0:0:0:0:
177,68,124274,5,2,0:0:0:0:
182,77,124346,1,2,0:0:0:0:
187,89,124418,1,10,0:0:0:0:
260,105,124562,1,2,0:0:0:0:
310,47,124707,1,2,0:0:0:0:
343,177,124851,6,0,B|413:181|382:247|470:249,1,132.8,2|2,1:2|0:0,0:0:0:0:
491,242,125211,1,2,0:0:0:0:
492,235,125284,2,0,L|498:191,1,33.2,2|0,1:2|0:0,0:0:0:0:
448,138,125428,1,2,0:0:0:0:
331,252,125572,6,0,P|261:279|178:316,1,149.399995440674,8|0,0:0|0:0,0:0:0:0:
133,262,125860,1,8,0:3:0:0:
133,262,126005,1,6,0:3:0:0:
395,384,126149,6,0,P|437:330|388:271,1,132.8,0|2,1:0|0:0,0:0:0:0:
241,189,126582,1,2,0:0:0:0:
311,330,126726,2,0,B|263:343|273:376|218:385,2,99.5999969604493,8|2|2,0:0|0:0|0:0,0:0:0:0:
405,199,127159,6,0,L|428:67,1,132.8,2|2,1:2|0:0,0:0:0:0:
323,3,127519,1,2,0:0:0:0:
329,16,127591,2,0,L|347:91,1,66.4,2|2,1:2|0:0,0:0:0:0:
488,185,127880,6,0,P|504:155|491:129,1,49.7999984802247,8|0,0:0|0:0,0:0:0:0:
326,255,128024,2,0,B|196:292|196:292|253:213,1,199.199993920899,2|4,1:2|0:3,0:0:0:0:
278,181,128385,1,0,0:0:0:0:
274,176,128457,1,0,1:0:0:0:
123,158,128601,6,0,P|103:93|45:93,1,132.8,2|2,0:0|0:0,0:0:0:0:
13,133,128961,1,2,0:0:0:0:
21,139,129034,2,0,L|227:102,1,199.199993920899,10|0,0:0|0:0,0:0:0:0:
325,74,129466,6,0,L|338:-3,1,66.4,2|0,1:2|0:0,0:0:0:0:
217,103,129755,1,2,0:0:0:0:
207,111,129827,1,2,0:0:0:0:
195,117,129899,2,0,L|207:196,1,66.4,2|2,1:2|0:0,0:0:0:0:
327,246,130187,6,0,B|408:249|363:329|488:317,1,149.399995440674,8|0,0:0|0:0,0:0:0:0:
506,225,130476,2,0,L|435:243,1,49.7999984802247,8|0,0:3|0:0,0:0:0:0:
323,334,130620,5,4,0:3:0:0:
330,341,130692,1,4,0:3:0:0:
328,354,130764,2,0,P|267:341|191:322,1,132.8,2|2,1:2|0:0,0:0:0:0:
28,211,131197,1,2,0:0:0:0:
73,384,131341,2,0,B|79:333|115:345|121:270,2,99.5999969604493,10|0|2,0:0|0:0|0:0,0:0:0:0:
9,335,131774,1,2,1:2:0:0:
181,224,131918,5,2,0:0:0:0:
7,100,132062,1,2,0:0:0:0:
10,94,132135,1,2,0:0:0:0:
11,88,132207,1,2,1:2:0:0:
91,51,132351,5,2,0:0:0:0:
28,211,132495,1,8,0:0:0:0:
101,182,132639,1,2,1:2:0:0:
245,277,132784,5,2,0:0:0:0:
321,250,132928,1,2,0:0:0:0:
329,255,133000,1,2,0:0:0:0:
334,259,133072,2,0,B|340:345|423:406|478:354|475:277|409:271,2,265.6,10|0|0,0:0|0:0|0:0,0:0:0:0:
256,192,135235,5,2,0:0:0:0:
208,64,139995,6,0,L|81:93,1,99.6,4|0,1:2|0:0,0:0:0:0:
37,59,140283,2,0,L|28:21,3,33.2,2|0|0|0,1:2|1:0|1:0|1:0,0:0:0:0:
145,171,140572,6,0,L|291:207,1,124.5,10|0,0:0|0:0,0:0:0:0:
326,152,140860,2,0,L|336:104,3,41.5,2|0|0|0,1:2|1:0|1:0|1:0,0:0:0:0:
198,274,141149,6,0,L|35:308,1,149.399995440674,10|0,0:0|0:0,0:0:0:0:
26,305,141437,5,2,1:2:0:0:
26,314,141509,1,0,1:0:0:0:
28,323,141581,1,0,1:0:0:0:
29,332,141654,1,0,1:0:0:0:
29,343,141726,1,10,0:0:0:0:
198,274,141870,1,8,0:0:0:0:
45,178,142014,1,10,0:0:0:0:
92,266,142158,1,8,0:0:0:0:
218,107,142303,6,0,B|276:129|321:86|321:86|331:48|381:30,1,174.299994680786,6|0,1:2|0:0,0:0:0:0:
467,119,142591,2,0,L|384:92,1,58.0999982269288,6|0,1:2|0:0,0:0:0:0:
238,32,142735,1,0,0:0:0:0:
433,21,142879,6,0,B|318:104|356:216|468:242|488:128|456:87,1,298.799990881348,6|0,1:2|0:0,0:0:0:0:
411,101,143456,5,8,1:2:0:0:
383,89,143529,1,0,1:0:0:0:
353,89,143601,1,0,1:0:0:0:
327,104,143673,1,0,1:0:0:0:
312,129,143745,1,8,1:2:0:0:
289,148,143817,1,0,1:0:0:0:
260,155,143889,1,0,1:0:0:0:
231,146,143961,1,0,1:0:0:0:
215,120,144033,1,8,1:2:0:0:
382,273,144178,5,8,0:3:0:0:
385,282,144250,1,8,0:3:0:0:
388,291,144322,1,4,0:3:0:0:
390,300,144394,1,4,0:3:0:0:
394,308,144466,2,0,L|380:392,1,49.7999984802247,0|0,1:0|1:0,0:0:0:0:
410,206,144610,1,0,1:0:0:0:
311,316,144754,6,0,P|288:302|259:291,1,58.0999982269288,4|4,0:3|0:3,0:0:0:0:
410,206,144899,6,0,P|433:193|457:173,1,58.0999982269288,8|8,0:3|0:3,0:0:0:0:
478,326,145043,6,0,P|477:352|482:383,1,58.0999982269288,8|8,0:3|0:3,0:0:0:0:
299,188,145187,6,0,L|282:195,1,12.4499996200562,2|0,0:0|0:0,0:0:0:0:
219,218,145331,6,0,L|173:236,1,29.0499991134644,2|0,0:0|0:0,0:0:0:0:
116,256,145476,6,0,L|37:283,1,45.6500013931275,2|0,0:0|0:0,0:0:0:0:
166,349,145620,6,0,B|216:316|206:252|151:244|151:244|93:234|85:149|156:138,1,273.900008358765,6|0,1:2|0:0,0:0:0:0:
196,100,145909,1,2,1:2:0:0:
31,44,146053,1,8,0:0:0:0:
219,218,146197,1,2,0:0:0:0:
381,0,146341,5,2,1:2:0:0:
356,104,146486,1,2,1:2:0:0:
322,249,146630,2,0,L|400:232,1,58.0999982269288,10|0,0:0|0:0,0:0:0:0:
273,37,146774,6,0,L|91:99,1,174.299994680786,2|0,1:2|0:0,0:0:0:0:
83,116,147062,1,2,1:2:0:0:
225,223,147207,1,8,0:0:0:0:
225,223,147351,1,2,0:0:0:0:
145,3,147495,5,2,1:2:0:0:
49,232,147639,1,2,1:2:0:0:
262,98,147784,2,0,L|274:20,1,58.0999982269288,10|0,0:0|0:0,0:0:0:0:
149,293,147928,6,0,B|196:253|254:274|254:274|266:316|327:316,1,174.299994680786,2|0,1:2|0:0,0:0:0:0:
365,351,148216,1,2,1:2:0:0:
363,102,148361,6,0,L|351:163,1,58.0999982269288,10|0,0:0|0:0,0:0:0:0:
332,238,148505,1,2,0:0:0:0:
332,238,148649,1,0,1:0:0:0:
427,211,148793,5,2,1:2:0:0:
262,98,148937,2,0,L|249:33,1,58.0999982269288,10|0,0:0|0:0,0:0:0:0:
439,312,149082,6,0,P|405:236|303:248,1,174.299994680786,2|0,1:2|0:0,0:0:0:0:
300,255,149370,1,2,1:2:0:0:
442,133,149514,6,0,L|470:-5,1,116.199996453858,10|0,0:0|0:0,0:0:0:0:
361,100,149803,1,2,1:2:0:0:
361,100,149947,1,0,1:0:0:0:
505,214,150091,5,10,0:0:0:0:
301,32,150236,1,2,0:0:0:0:
293,23,150308,1,2,0:0:0:0:
285,17,150380,2,0,P|238:52|252:130,1,116.199996453858,2|0,1:2|0:0,0:0:0:0:
54,113,150668,6,0,P|71:192|171:215,1,174.299994680786,10|0,0:0|0:0,0:0:0:0:
224,183,150957,5,2,0:0:0:0:
224,183,151101,1,0,1:0:0:0:
422,283,151245,1,10,0:0:0:0:
275,355,151389,1,0,0:0:0:0:
325,83,151533,6,0,P|371:118|357:196,1,116.199996453858,2|0,1:2|0:0,0:0:0:0:
504,258,151821,6,0,P|486:337|386:360,1,174.299994680786,10|0,0:0|0:0,0:0:0:0:
346,313,152110,5,2,1:2:0:0:
152,220,152254,1,0,0:0:0:0:
123,378,152399,1,10,0:0:0:0:
296,241,152543,1,0,0:0:0:0:
496,383,152687,6,0,L|289:333,1,174.299994680786,2|0,1:2|0:0,0:0:0:0:
255,308,152976,2,0,P|215:257|242:194,1,116.199996453858,10|0,0:0|0:0,0:0:0:0:
434,106,153264,1,2,1:2:0:0:
188,46,153408,1,0,1:0:0:0:
316,240,153553,2,0,L|375:226,1,58.0999982269288,10|0,0:0|0:0,0:0:0:0:
181,40,153697,6,0,B|118:55|118:55|95:101|95:101|-1:127,1,174.299994680786,6|0,1:2|0:0,0:0:0:0:
19,102,153985,1,2,1:2:0:0:
155,237,154129,2,0,P|168:170|180:115,1,116.199996453858,10|0,0:0|0:0,0:0:0:0:
6,45,154418,2,0,L|20:110,1,58.0999982269288,8|8,0:0|0:0,0:0:0:0:
263,6,154562,5,8,0:0:0:0:
278,15,154634,1,8,0:0:0:0:
286,33,154706,1,8,0:0:0:0:
285,51,154779,1,8,0:0:0:0:
277,65,154851,2,0,B|437:108|437:108|395:50,1,232.399992907715,6|0,1:2|1:0,0:0:0:0:
155,237,155283,5,8,0:0:0:0:
194,95,155428,1,0,1:0:0:0:
451,294,155572,6,0,P|462:267|424:234,1,58.0999982269288,8|0,0:0|0:0,0:0:0:0:
235,209,155716,2,0,P|252:232|300:215,1,58.0999982269288,0|0,1:0|0:0,0:0:0:0:
397,53,155860,2,0,P|368:56|358:106,1,58.0999982269288,8|0,0:0|0:0,0:0:0:0:
367,157,156004,5,0,1:0:0:0:
113,51,156149,5,8,0:0:0:0:
262,4,156293,1,0,1:0:0:0:
44,120,156437,5,8,0:0:0:0:
235,209,156581,1,0,1:0:0:0:
33,222,156726,5,8,0:0:0:0:
265,111,156870,1,0,1:0:0:0:
7,30,157014,1,8,0:0:0:0:
144,272,157158,6,0,B|237:265|190:351|309:337,1,174.299994680786,6|0,1:2|0:0,0:0:0:0:
330,320,157447,1,0,1:0:0:0:
447,173,157591,6,0,L|430:252,1,58.0999982269288,8|0,0:0|0:0,0:0:0:0:
426,307,157735,1,0,1:0:0:0:
158,359,157879,5,8,0:0:0:0:
363,250,158024,1,0,1:0:0:0:
168,148,158168,1,8,0:0:0:0:
276,251,158312,6,0,P|284:185|298:122,1,116.199996453858,0|8,1:0|0:0,0:0:0:0:
190,41,158601,1,0,1:0:0:0:
441,25,158745,5,8,0:0:0:0:
371,51,158889,1,0,1:0:0:0:
363,250,159033,5,10,0:0:0:0:
272,66,159178,1,0,1:0:0:0:
441,25,159322,5,10,0:0:0:0:
288,151,159466,1,0,1:0:0:0:
286,162,159538,1,0,1:0:0:0:
284,174,159610,2,0,B|189:176|231:259|110:244,1,174.299994680786,6|0,1:2|0:0,0:0:0:0:
107,220,159899,2,0,L|88:117,1,83,2|0,0:0|1:0,0:0:0:0:
213,323,160187,6,0,P|313:307|264:254,1,199.199993920899,10|2,0:0|0:0,0:0:0:0:
286,260,160620,1,0,1:0:0:0:
461,70,160764,5,10,0:0:0:0:
410,211,160908,1,0,1:0:0:0:
361,61,161053,1,2,0:0:0:0:
480,168,161197,1,0,1:0:0:0:
333,165,161341,5,10,0:0:0:0:
333,165,161485,1,0,0:0:0:0:
432,291,161629,5,2,1:2:0:0:
480,168,161774,1,0,0:0:0:0:
351,366,161918,6,0,B|221:384|290:262|124:289,1,232.399992907715,6|0,1:2|0:0,0:0:0:0:
38,356,162351,1,0,1:0:0:0:
221,215,162495,5,10,0:0:0:0:
168,368,162639,1,0,1:0:0:0:
147,285,162783,5,2,0:0:0:0:
304,218,162928,1,0,1:0:0:0:
56,84,163072,6,0,B|-4:108|-4:108|167:137,1,232.399992907715,6|2,1:2|0:0,0:0:0:0:
219,90,163504,1,4,0:3:0:0:
225,83,163577,1,4,0:3:0:0:
231,76,163649,2,0,L|243:5,1,66.4,6|2,0:3|0:0,0:0:0:0:
490,116,164226,6,0,P|401:135|374:229,1,166,6|0,1:2|0:0,0:0:0:0:
426,258,164658,1,2,0:0:0:0:
315,366,164803,2,0,B|272:376|272:376|214:312|214:312|148:333,1,166,10|2,0:0|0:0,0:0:0:0:
103,281,165235,1,0,0:0:0:0:
191,162,165379,6,0,L|172:259,1,83,2|0,1:2|0:0,0:0:0:0:
11,298,165668,1,2,0:0:0:0:
91,204,165812,2,0,B|94:187|94:187|61:90,1,83,2|8,0:0|0:0,0:0:0:0:
108,25,166101,2,0,B|170:40|170:40|187:75|187:75|266:98,1,166,2|2,0:0|0:0,0:0:0:0:
365,166,166533,6,0,P|449:128|415:43,1,166,2|2,1:2|0:0,0:0:0:0:
372,25,166966,1,2,0:0:0:0:
273,141,167110,2,0,L|294:239,1,83,8|0,0:0|0:0,0:0:0:0:
148,121,167399,2,0,L|177:0,1,124.5,2|0,0:0|0:0,0:0:0:0:
186,5,167687,5,2,1:2:0:0:
60,91,167831,2,0,P|3:71|10:29,1,83,2|0,0:0|0:0,0:0:0:0:
202,189,168120,2,0,B|207:209|207:209|181:298,1,83,2|8,0:0|0:0,0:0:0:0:
29,380,168408,2,0,B|17:363|17:363|56:250|56:250|29:216,1,166,2|2,0:0|0:0,0:0:0:0:
148,121,168841,5,0,1:0:0:0:
98,180,168985,1,2,0:0:0:0:
243,326,169129,1,2,0:0:0:0:
189,268,169274,1,2,0:0:0:0:
312,170,169418,6,0,P|357:178|374:221,1,83,10|0,0:0|0:0,0:0:0:0:
448,192,169706,2,0,P|463:234|434:271,1,83,2|0,0:0|0:0,0:0:0:0:
401,373,169995,6,0,P|303:341|203:317,1,166,2|2,1:2|0:0,0:0:0:0:
168,356,170428,1,2,0:0:0:0:
280,259,170572,5,10,0:0:0:0:
179,200,170716,2,0,B|169:217|169:217|185:299,1,83,2|0,0:0|0:0,0:0:0:0:
264,159,171004,1,2,0:0:0:0:
93,324,171149,6,0,B|104:306|104:306|85:221|85:221|54:192,1,124.5,2|0,1:2|0:0,0:0:0:0:
9,173,171437,2,0,B|3:150|3:150|24:78,1,83,2|2,0:0|0:0,0:0:0:0:
220,16,171726,5,8,0:0:0:0:
161,66,171870,1,2,0:0:0:0:
19,93,172014,1,2,0:0:0:0:
103,10,172158,1,0,0:0:0:0:
228,112,172303,6,0,P|272:105|278:49,1,83,2|2,1:2|0:0,0:0:0:0:
298,48,172519,1,2,0:0:0:0:
306,44,172591,2,0,B|324:38|324:38|411:62,1,83,2|0,0:0|0:0,0:0:0:0:
498,194,172879,1,10,0:0:0:0:
375,142,173024,1,2,0:0:0:0:
508,24,173168,2,0,L|486:128,1,83,2|0,0:0|0:0,0:0:0:0:
298,216,173456,6,0,B|253:222|260:255|203:255,1,83,6|2,1:2|0:0,0:0:0:0:
426,331,173745,2,0,B|471:337|464:370|521:370,1,83,2|2,0:0|0:0,0:0:0:0:
386,221,174033,5,10,0:0:0:0:
352,300,174178,1,2,0:0:0:0:
202,171,174322,1,2,0:0:0:0:
285,134,174466,1,2,0:0:0:0:
233,340,174610,5,2,1:2:0:0:
123,261,174754,2,0,P|205:269|226:362,1,166,2|2,0:0|0:0,0:0:0:0:
16,207,175187,5,8,0:0:0:0:
115,254,175331,2,0,P|135:214|111:164,1,83,2|0,0:0|0:0,0:0:0:0:
26,131,175620,2,0,P|6:171|30:221,1,83,2|0,0:0|1:0,0:0:0:0:
242,110,175908,5,2,0:0:0:0:
161,87,176053,1,2,0:0:0:0:
85,62,176197,1,2,0:0:0:0:
296,35,176341,5,10,0:0:0:0:
185,161,176485,1,2,0:0:0:0:
348,102,176629,1,2,0:0:0:0:
198,28,176774,1,2,0:0:0:0:
312,206,176918,6,0,P|379:222|457:252,1,124.5,2|0,1:2|0:0,0:0:0:0:
466,234,177206,2,0,P|500:196|474:147,1,83,2|0,0:0|0:0,0:0:0:0:
358,317,177495,6,0,P|289:335|213:363,1,124.5,10|0,0:0|0:0,0:0:0:0:
204,345,177783,2,0,P|170:307|196:258,1,83,2|2,0:0|0:0,0:0:0:0:
227,220,178000,5,2,0:0:0:0:
230,212,178072,2,0,B|225:108|303:165|305:46,1,166,2|0,1:2|0:0,0:0:0:0:
149,2,178504,1,0,0:0:0:0:
219,70,178649,2,0,L|125:94,1,83,10|0,0:0|0:0,0:0:0:0:
314,200,178937,2,0,L|408:229,1,83,2|0,0:0|0:0,0:0:0:0:
109,211,179226,5,2,1:2:0:0:
178,172,179370,1,0,0:0:0:0:
321,307,179514,1,2,0:0:0:0:
236,272,179658,1,0,0:0:0:0:
388,138,179803,2,0,B|391:87|421:105|422:38,1,83,10|0,0:0|0:0,0:0:0:0:
178,0,180091,6,0,B|230:34|192:55|263:97,1,124.5,2|0,0:0|0:0,0:0:0:0:
283,113,180379,6,0,P|256:201|231:291,1,166,2|0,1:2|0:0,0:0:0:0:
115,338,180812,1,2,0:0:0:0:
112,329,180884,1,2,0:0:0:0:
107,320,180956,2,0,P|96:274|82:222,1,83,10|0,0:0|0:0,0:0:0:0:
281,351,181245,1,0,0:0:0:0:
166,214,181389,1,0,0:0:0:0:
372,384,181533,6,0,B|371:302|449:346|448:225,2,166,10|8|2,0:0|0:0|0:0,0:0:0:0:
253,193,183120,5,2,1:2:0:0:
252,199,183192,1,2,0:0:0:0:
251,208,183264,1,10,0:0:0:0:
182,242,183408,1,2,0:0:0:0:
14,74,183697,6,0,B|67:86|54:136|125:139,1,124.5,2|0,1:2|1:0,0:0:0:0:
251,208,184418,2,0,P|267:133|284:77,1,124.5,8|2,0:0|0:0,0:0:0:0:
300,66,184923,1,2,0:0:0:0:
306,62,184995,1,2,1:2:0:0:
371,17,185139,1,2,0:0:0:0:
471,202,185428,5,2,1:2:0:0:
408,159,185572,1,8,0:0:0:0:
408,159,185716,1,2,0:0:0:0:
328,304,186004,6,0,P|294:270|251:276,1,83,2|0,1:2|0:0,0:0:0:0:
210,326,186437,2,0,L|165:315,1,41.5,0|0,1:0|0:0,0:0:0:0:
2,218,186726,5,10,0:0:0:0:
39,281,186870,2,0,L|29:314,2,20.75
102,235,187158,1,0,0:0:0:0:
59,169,187303,5,2,1:2:0:0:
187,253,187447,2,0,L|174:163,1,83,2|2,0:0|0:0,0:0:0:0:
159,138,187807,1,2,0:0:0:0:
161,130,187879,1,10,0:0:0:0:
227,89,188024,1,2,0:0:0:0:
25,8,188312,6,0,P|45:52|90:58,1,83,2|0,1:2|0:0,0:0:0:0:
139,18,188745,1,0,1:0:0:0:
239,175,189033,6,0,P|284:187|334:201,1,83,8|2,0:0|0:0,0:0:0:0:
370,146,189466,1,2,0:0:0:0:
444,241,189610,5,2,1:2:0:0:
444,241,189754,1,2,0:0:0:0:
343,355,190043,5,2,1:2:0:0:
284,291,190187,2,0,L|376:274,1,83,8|0,0:0|0:0,0:0:0:0:
460,146,190620,6,0,B|469:74|406:112|415:19,1,116.199996453858,2|0,1:2|1:0,0:0:0:0:
426,16,190980,1,0,1:0:0:0:
432,9,191053,1,6,1:1:0:0:
