osu file format v14

[General]
AudioFilename: audio.ogg
AudioLeadIn: 0
PreviewTime: 58072
Countdown: 0
SampleSet: Soft
StackLeniency: 0.4
Mode: 0
LetterboxInBreaks: 0
WidescreenStoryboard: 1

[Editor]
DistanceSpacing: 0.3
BeatDivisor: 4
GridSize: 16
TimelineZoom: 3.295999

[Metadata]
Title:Yuusha
TitleUnicode:勇者
Artist:YOASOBI
ArtistUnicode:YOASOBI
Creator:RiverKnowFarm
Version:Hinae's Extra
Source:葬送のフリーレン
Tags:anime sousou no frieren brave op opening ayase lilas ikuta 幾田 りら japanese jpop j-pop pop my angel jeremy hinae hyokar fuxi66 wei_0921
BeatmapID:4407291
BeatmapSetID:2067581

[Difficulty]
HPDrainRate:5.5
CircleSize:4
OverallDifficulty:8.8
ApproachRate:9
SliderMultiplier:1.92
SliderTickRate:1

[Events]
//Background and Video events
0,0,"bg6.jpg",0,0
//Break Periods
2,114610,122664
2,135235,139395
//Storyboard Layer 0 (Background)
//Storyboard Layer 1 (Fail)
//Storyboard Layer 2 (Pass)
//Storyboard Layer 3 (Foreground)
//Storyboard Layer 4 (Overlay)
//Storyboard Sound Samples

[TimingPoints]
380,288.461538461538,4,2,10,80,1,0
380,-200,4,2,11,40,0,0
9033,-666.666666666667,4,2,10,50,0,0
9610,-125,4,2,11,50,0,0
18697,-166.666666666667,4,2,10,50,0,0
18841,-166.666666666667,4,2,16,50,0,0
18913,-166.666666666667,4,2,11,50,0,0
19706,-250,4,2,11,60,0,0
19779,-250,4,2,11,5,0,0
19851,-250,4,2,11,60,0,0
19923,-250,4,2,11,5,0,0
19995,-125,4,2,12,70,0,0
20572,-200,4,2,12,70,0,0
21149,-100,4,2,12,70,0,0
21437,-250,4,2,12,70,0,0
21509,-250,4,2,12,5,0,0
21581,-250,4,2,12,70,0,0
21654,-250,4,2,12,5,0,0
21726,-1000,4,2,12,70,0,0
22303,-125,4,2,12,70,0,0
22879,-166.666666666667,4,2,12,70,0,0
24033,-83.3333333333333,4,2,12,70,0,0
24538,-100,4,2,12,70,0,0
25476,-166.666666666667,4,2,12,70,0,0
25548,-166.666666666667,4,2,12,5,0,0
25620,-166.666666666667,4,2,12,70,0,0
25692,-166.666666666667,4,2,12,5,0,0
25764,-83.3333333333333,4,2,12,70,0,0
26053,-200,4,2,12,70,0,0
26125,-200,4,2,12,5,0,0
26197,-200,4,2,12,70,0,0
26269,-200,4,2,12,5,0,0
26341,-666.666666666667,4,2,12,70,0,0
26918,-125,4,2,12,70,0,0
28649,-200,4,2,10,70,0,0
28937,-100,4,2,12,70,0,0
29226,-200,4,2,11,50,0,0
30091,-200,4,2,12,50,0,0
30163,-200,4,2,11,50,0,0
30379,-200,4,2,10,50,0,0
30812,-200,4,2,12,50,0,0
30956,-200,4,2,11,50,0,0
31966,-200,4,2,12,50,0,0
32110,-200,4,2,11,50,0,0
32399,-200,4,2,12,50,0,0
32687,-200,4,2,10,50,0,0
33120,-200,4,2,12,50,0,0
33841,-125,4,2,10,50,0,0
34274,-200,4,2,12,50,0,0
34418,-200,4,2,11,50,0,0
34706,-200,4,2,12,50,0,0
34995,-200,4,2,10,50,0,0
35428,-200,4,2,12,50,0,0
35572,-500,4,2,11,50,0,0
36149,-200,4,2,10,50,0,0
36581,-200,4,2,12,50,0,0
36726,-200,4,2,11,50,0,0
37014,-200,4,2,12,50,0,0
37375,-200,4,2,10,5,0,0
37447,-769.230769230769,4,2,10,50,0,0
37879,-76.9230769230769,4,2,10,60,0,0
38456,-142.857142857143,4,2,12,60,0,0
39033,-142.857142857143,4,2,11,60,0,0
39105,-142.857142857143,4,2,12,60,0,0
40187,-142.857142857143,4,2,11,60,0,0
40259,-142.857142857143,4,2,12,60,0,0
41341,-142.857142857143,4,2,11,60,0,0
41413,-142.857142857143,4,2,12,60,0,0
43649,-142.857142857143,4,2,11,60,0,0
43721,-142.857142857143,4,2,12,60,0,0
44803,-142.857142857143,4,2,11,60,0,0
44875,-142.857142857143,4,2,12,60,0,0
45956,-142.857142857143,4,2,11,60,0,0
46029,-142.857142857143,4,2,12,60,0,0
47110,-142.857142857143,4,2,11,60,0,0
47182,-142.857142857143,4,2,12,60,0,0
47687,-333.333333333333,4,2,11,50,0,0
48841,-333.333333333333,4,2,10,50,0,0
49202,-333.333333333333,4,2,11,50,0,0
51149,-333.333333333333,4,2,10,50,0,0
51509,-333.333333333333,4,2,11,50,0,0
51726,-100,4,2,10,60,0,0
51870,-100,4,2,10,55,0,0
52014,-100,4,2,10,50,0,0
52158,-100,4,2,10,45,0,0
52303,-125,4,2,11,60,0,0
54610,-100,4,2,11,60,0,0
54899,-142.857142857143,4,2,11,60,0,0
55187,-142.857142857143,4,2,11,55,0,0
55476,-142.857142857143,4,2,11,50,0,0
55764,-142.857142857143,4,2,11,55,0,0
56053,-142.857142857143,4,2,11,60,0,0
56341,-142.857142857143,4,2,11,70,0,0
56918,-142.857142857143,4,2,11,60,0,0
57495,-333.333333333333,4,2,11,60,0,0
58649,-76.9230769230769,4,2,10,70,0,0
59081,-100,4,2,10,70,0,0
59658,-100,4,2,10,70,0,0
61389,-83.3333333333333,4,2,15,80,0,1
61461,-83.3333333333333,4,2,10,80,0,1
61678,-100,4,2,10,80,0,1
63841,-83.3333333333333,4,2,14,80,0,1
64129,-125,4,2,10,80,0,1
64418,-83.3333333333333,4,2,14,80,0,1
64706,-125,4,2,10,80,0,1
64995,-76.9230769230769,4,2,14,80,0,1
65283,-76.9230769230769,4,2,10,80,0,1
65572,-83.3333333333333,4,2,14,80,0,1
65860,-400,4,2,10,80,0,1
66149,-76.9230769230769,4,2,10,80,0,1
66437,-100,4,2,10,80,0,1
68312,-100,4,2,15,80,0,1
68384,-100,4,2,10,80,0,1
74226,-125,4,2,10,80,0,1
75379,-100,4,2,10,80,0,1
76678,-400,4,2,10,80,0,1
76966,-100,4,2,10,70,0,0
84899,-83.3333333333333,4,2,10,80,0,0
85187,-100,4,2,10,80,0,0
85476,-83.3333333333333,4,2,10,80,0,0
85764,-100,4,2,10,80,0,0
87928,-125,4,2,10,60,0,0
88649,-500,4,2,10,60,0,0
89081,-125,4,2,10,60,0,0
105379,-100,4,2,10,60,0,0
105812,-125,4,2,10,60,0,0
109995,-250,4,2,10,45,0,0
111870,-250,4,2,10,50,0,0
112014,-250,4,2,10,55,0,0
112303,-125,4,2,10,60,0,0
113456,-83.3333333333333,4,2,10,70,0,0
123264,-125,4,2,10,60,0,0
123985,-166.666666666667,4,2,11,60,0,0
130764,-100,4,2,11,60,0,0
133072,-1000,4,2,16,60,0,0
133649,-1000,4,2,16,50,0,0
134226,-1000,4,2,16,40,0,0
139995,-125,4,2,10,60,0,0
142303,-200,4,2,14,60,0,0
142591,-83.3333333333333,4,2,10,70,0,0
142879,-100,4,2,14,70,0,0
142952,-100,4,2,10,70,0,0
144538,-100,4,2,10,5,0,0
144610,-100,4,2,10,70,0,0
145187,-200,4,2,10,60,0,0
145620,-100,4,2,15,80,0,1
145692,-100,4,2,10,80,0,1
154851,-83.3333333333333,4,2,15,80,0,1
154923,-83.3333333333333,4,2,10,80,0,1
155139,-100,4,2,10,80,0,1
159610,-125,4,2,10,70,0,1
163649,-333.333333333333,4,2,10,70,0,0
164226,-125,4,2,15,70,0,0
164298,-125,4,2,10,70,0,0
171149,-166.666666666667,4,2,10,70,0,0
173456,-125,4,2,10,70,0,0
183120,-200,4,2,10,60,0,0

[Colours]
Combo1 : 204,228,197
Combo2 : 173,190,228
Combo3 : 165,207,233
Combo4 : 254,242,201

[HitObjects]
41,28,380,5,2,2:0:0:0:
100,82,524,2,0,P|128:75|158:59,1,48,2|0,2:0|2:0,2:0:0:0:
47,148,812,1,2,2:0:0:0:
47,148,884,1,2,2:0:0:0:
47,148,956,1,10,2:0:0:0:
107,201,1101,2,0,P|142:200|207:228,1,96,2|0,2:0|2:0,2:0:0:0:
466,369,2110,1,8,2:0:0:0:
466,369,2687,5,2,2:0:0:0:
390,321,2831,2,0,P|379:350|376:372,1,48,2|0,2:0|2:0,2:0:0:0:
468,273,3120,2,0,P|457:244|454:222,1,48,2|8,2:0|2:0,2:0:0:0:
382,322,3408,2,0,P|371:351|368:373,1,48,2|0,2:0|2:0,2:0:0:0:
500,148,3697,1,2,2:0:0:0:
256,13,4418,1,8,2:0:0:0:
256,13,4995,5,2,2:0:0:0:
207,80,5139,2,0,P|199:109|191:137,1,48,2|0,2:0|2:0,2:0:0:0:
298,213,5428,1,2,2:0:0:0:
295,205,5500,1,2,2:0:0:0:
293,195,5572,1,10,2:0:0:0:
187,124,5716,2,0,P|193:100|199:77,1,48,2|0,2:0|2:0,2:0:0:0:
256,13,6004,1,2,2:0:0:0:
255,305,6726,1,8,2:0:0:0:
255,305,7014,5,2,2:0:0:0:
195,363,7158,1,2,2:0:0:0:
113,337,7303,1,2,2:0:0:0:
113,337,7447,2,0,P|116:310|125:283,1,48,2|0,2:0|2:0,2:0:0:0:
0,338,7735,2,0,P|6:361|8:384,1,48,2|8,2:0|2:0,2:0:0:0:
44,233,8024,1,2,2:0:0:0:
69,197,8168,1,0,2:0:0:0:
55,154,8312,1,2,2:0:0:0:
79,37,8456,5,0,2:0:0:0:
79,37,8601,2,0,P|108:46|189:65,1,96,0|0,2:0|2:0,2:0:0:0:
13,142,9033,6,0,P|27:145|55:154,1,43.1999986816407,4|0,2:3|2:0,2:0:0:0:
301,79,9610,5,12,2:1:0:0:
456,18,9754,1,2,2:0:0:0:
500,81,9899,1,2,2:0:0:0:
459,149,10043,2,0,P|416:148|381:136,1,76.8,2|8,2:0|2:0,2:0:0:0:
485,339,10331,1,2,2:0:0:0:
479,355,10476,1,2,2:0:0:0:
401,258,10620,6,0,P|345:238|228:246,1,153.6,2|2,2:0|2:0,2:0:0:0:
240,242,10980,1,2,2:0:0:0:
229,247,11053,2,0,P|237:288|244:330,1,76.8,2|0,2:0|2:0,2:0:0:0:
72,379,11341,2,0,P|65:341|58:303,1,76.8,8|0,2:0|2:0,2:0:0:0:
131,216,11629,1,8,2:3:0:0:
127,197,11774,1,8,2:3:0:0:
35,5,11918,5,8,2:1:0:0:
4,121,12062,1,2,2:0:0:0:
82,121,12206,1,2,2:0:0:0:
143,72,12351,2,0,P|131:33|120:-9,1,76.8,2|8,2:0|2:0,2:0:0:0:
350,99,12639,1,2,2:0:0:0:
345,115,12783,1,2,2:0:0:0:
260,207,12928,6,0,P|241:153|249:43,1,153.6,10|2,2:1|2:0,2:0:0:0:
244,57,13288,1,2,2:0:0:0:
244,57,13360,1,10,2:1:0:0:
376,1,13504,1,0,2:0:0:0:
490,68,13649,2,0,P|479:110|467:158,1,76.8,8|8,2:0|2:1,2:0:0:0:
373,271,13937,2,0,P|362:229|350:181,1,76.8,0|2,2:0|2:0,2:0:0:0:
353,196,14154,1,2,2:0:0:0:
353,196,14226,1,8,2:3:0:0:
503,307,14370,5,2,2:0:0:0:
442,362,14514,1,2,2:0:0:0:
477,227,14658,1,2,2:0:0:0:
362,370,14803,1,10,2:0:0:0:
362,370,14947,2,0,P|312:367|285:352,1,76.8,2|0,2:0|2:0,2:0:0:0:
137,260,15235,6,0,P|90:264|7:335,1,153.6,10|2,2:1|2:0,2:0:0:0:
9,329,15596,1,2,2:0:0:0:
9,329,15668,1,10,2:1:0:0:
113,350,15812,1,0,2:0:0:0:
214,202,15956,2,0,P|225:164|229:110,1,76.8,8|0,2:0|2:0,2:0:0:0:
159,59,16245,1,8,2:3:0:0:
22,134,16389,1,8,2:3:0:0:
22,134,16461,1,8,2:3:0:0:
22,134,16533,2,0,P|85:130|156:69,1,153.6,8|0,2:1|2:0,2:0:0:0:
56,37,16966,5,2,2:0:0:0:
141,246,17110,1,8,2:0:0:0:
200,159,17254,1,2,2:0:0:0:
46,237,17399,1,2,2:0:0:0:
101,150,17543,1,8,2:3:0:0:
123,199,17687,1,10,2:1:0:0:
257,64,17831,2,0,P|275:68|313:80,2,38.4,2|2|8,2:0|2:0|2:3,2:0:0:0:
181,11,18120,1,0,2:0:0:0:
336,159,18264,2,0,P|396:156|469:91,1,153.6,8|0,2:0|2:0,2:0:0:0:
512,384,18697,5,2,2:0:0:0:
512,384,18769,1,2,2:0:0:0:
512,384,18841,2,0,P|461:337|337:341,1,172.799994726563,2|8,2:1|2:0,2:0:0:0:
361,329,19706,6,0,L|335:324,1,19.2,8|0,2:0|2:0,2:0:0:0:
269,302,19851,6,0,L|243:297,1,19.2,8|0,2:0|2:0,2:0:0:0:
17,384,19995,6,0,B|-26:355|7:249|124:264|125:342|55:375,1,230.4,14|8,2:1|2:0,2:0:0:0:
180,195,20572,2,0,P|152:204|115:216,1,48,10|0,2:1|2:0,2:0:0:0:
57,162,20860,1,10,2:0:0:0:
41,157,21004,1,2,2:0:0:0:
194,37,21149,6,0,B|245:25|245:25|248:16|248:16|370:-10,1,144,10|0,2:1|2:0,2:0:0:0:
332,2,21437,2,0,L|338:31,1,19.2,2|0,2:0|2:0,2:0:0:0:
376,90,21581,2,0,L|359:115,1,19.2,10|0,2:0|2:0,2:0:0:0:
342,184,21726,2,0,L|312:190,1,19.2,10|8,2:1|2:0,2:0:0:0:
400,384,22303,6,0,B|405:317|459:291|459:291|489:299|522:271,1,153.6,10|0,2:1|2:0,2:0:0:0:
465,211,22735,1,10,2:0:0:0:
237,299,22879,2,0,P|271:312|303:313,1,57.5999982421876,10|0,2:1|2:0,2:0:0:0:
359,264,23168,1,10,2:0:0:0:
165,374,23312,5,2,2:0:0:0:
156,373,23384,1,2,2:0:0:0:
149,370,23456,1,10,2:1:0:0:
82,326,23601,1,0,2:0:0:0:
72,247,23745,1,2,2:0:0:0:
128,183,23889,1,8,2:0:0:0:
31,52,24033,6,0,B|14:53|17:70|49:88|149:73|159:-37,1,172.799994726563,10|0,2:1|2:0,2:0:0:0:
276,94,24322,6,0,B|293:111|312:69|251:30|201:65,1,115.199996484375,10|2,2:0|2:0,2:0:0:0:
217,158,24538,1,2,2:0:0:0:
228,166,24610,6,0,B|316:84|480:86|480:86|504:52,1,288,14|8,2:1|2:0,2:0:0:0:
380,180,25187,1,10,2:1:0:0:
381,195,25331,1,0,2:0:0:0:
461,229,25476,2,0,P|464:211|461:185,1,28.7999991210938,10|0,2:0|2:0,2:0:0:0:
301,222,25620,2,0,P|301:236|303:250,1,28.7999991210938,2|0,2:0|2:0,2:0:0:0:
508,344,25764,6,0,B|518:356|510:377|510:377|491:329|438:296|389:311,1,172.799994726563,10|0,2:1|2:0,2:0:0:0:
401,308,26053,2,0,L|375:318,1,24,2|0,2:0|2:0,2:0:0:0:
312,361,26197,2,0,L|285:370,1,24,10|0,2:0|2:0,2:0:0:0:
212,337,26341,2,0,L|185:346,1,28.8,10|8,2:1|2:0,2:0:0:0:
4,16,26918,6,0,B|18:27|18:27|98:22|156:79,1,153.6,10|0,2:1|2:0,2:0:0:0:
57,112,27351,1,8,2:0:0:0:
210,180,27495,1,10,2:1:0:0:
249,112,27639,1,0,2:0:0:0:
229,37,27783,1,10,2:0:0:0:
11,185,27928,5,2,2:0:0:0:
11,185,28000,1,2,2:0:0:0:
11,185,28072,2,0,P|16:225|32:269,1,76.8,10|0,2:1|2:0,2:0:0:0:
114,184,28360,1,2,2:0:0:0:
116,168,28504,1,10,2:0:0:0:
271,266,28649,6,0,B|232:281|247:292|205:306,1,72,4|0,2:3|2:0,2:0:0:0:
109,298,28937,6,0,B|120:312|120:312|269:364|269:364|282:384,1,192,10|12,2:0|2:1,2:0:0:0:
492,26,29658,1,0,2:0:0:0:
492,26,29803,2,0,P|458:35|387:54,1,96,8|8,2:0|2:0,2:0:0:0:
255,194,30379,2,0,P|240:199|209:212,3,32,2|2|2|2,2:3|2:3|2:3|2:3,2:0:0:0:
328,233,30812,1,8,2:0:0:0:
167,135,30956,2,0,P|128:132|61:102,2,96,8|8|8,2:0|2:1|2:1,2:0:0:0:
480,370,31822,5,0,2:0:0:0:
480,370,31966,2,0,P|485:342|491:310,1,48,8|8,2:0|2:0,2:0:0:0:
507,243,32399,1,8,2:0:0:0:
255,194,32687,2,0,P|240:189|209:176,3,32,2|2|2|2,2:3|2:3|2:3|2:3,2:0:0:0:
328,155,33120,1,8,2:0:0:0:
254,368,33264,5,10,2:1:0:0:
202,379,33360,1,2,2:1:0:0:
220,329,33456,1,2,2:1:0:0:
236,357,33553,5,10,2:1:0:0:
218,363,33649,1,2,2:1:0:0:
223,348,33745,1,2,2:1:0:0:
226,355,33841,6,0,P|158:352|48:301,1,153.6,8|0,2:1|2:0,2:0:0:0:
12,189,34274,1,8,2:0:0:0:
12,189,34418,2,0,P|40:183|116:165,1,96,8|8,2:0|2:0,2:0:0:0:
255,194,34995,2,0,P|269:199|285:204,3,32,2|2|2|2,2:3|2:3|2:3|2:3,2:3:0:0:
196,133,35428,1,8,2:0:0:0:
135,72,35572,2,0,P|122:77|93:86,1,38.4,8|8,2:0|2:1,2:0:0:0:
255,333,36149,6,0,B|335:323|322:366|405:355,1,144,8|8,2:1|2:0,2:0:0:0:
498,253,36726,1,8,2:0:0:0:
498,253,37014,1,8,2:0:0:0:
498,253,37303,6,0,P|495:240|490:219,1,24,8|0,2:1|2:0,2:0:0:0:
442,176,37447,6,0,P|439:163|435:147,1,24.9599998476562,8|8,2:1|2:1,2:0:0:0:
502,0,37879,6,0,B|495:9|495:9|424:-5|372:52|372:52|372:87|352:102,1,187.199991430664,4|0,2:3|2:0,2:0:0:0:
362,95,38168,1,8,2:1:0:0:
144,0,38312,1,8,2:1:0:0:
1,186,38456,5,12,2:1:0:0:
1,186,38601,1,2,2:0:0:0:
74,214,38745,1,2,2:0:0:0:
131,156,38889,1,10,2:0:0:0:
58,127,39033,1,10,2:0:0:0:
137,159,39178,2,0,P|148:124|145:88,1,67.1999979492188,2|8,2:0|2:0,2:0:0:0:
3,272,39466,6,0,P|13:306|24:349,1,67.1999979492188,2|8,2:0|2:1,2:0:0:0:
108,203,39754,1,2,0:0:0:0:
102,186,39899,1,2,0:0:0:0:
231,186,40043,6,0,P|241:220|252:263,1,67.1999979492188,10|8,2:0|2:0,2:0:0:0:
151,371,40331,2,0,P|142:338|132:306,1,67.1999979492188,2|8,2:0|2:0,2:0:0:0:
340,292,40620,6,0,B|416:313|481:261|481:261,1,134.399995898438,2|0,2:0|2:0,2:0:0:0:
388,208,41053,1,2,2:0:0:0:
278,355,41197,2,0,P|240:353|204:337,1,67.1999979492188,10|8,2:0|2:0,2:0:0:0:
387,207,41485,2,0,P|381:174|366:145,1,67.1999979492188,2|8,2:0|2:0,2:0:0:0:
297,68,41774,1,2,2:0:0:0:
292,60,41846,1,2,2:0:0:0:
292,52,41918,1,2,2:0:0:0:
444,25,42062,2,0,P|414:50|377:59,1,67.1999979492188,2|0,2:0|2:0,2:0:0:0:
276,172,42351,6,0,P|228:145|138:143,1,134.399995898438,10|0,2:0|2:0,2:0:0:0:
3,12,42783,2,0,P|34:25|76:33,1,67.1999979492188,10|2,2:0|2:0,2:0:0:0:
66,32,43000,1,2,2:0:0:0:
66,32,43072,1,2,2:0:0:0:
34,109,43216,5,2,2:0:0:0:
0,198,43360,1,2,2:0:0:0:
67,256,43504,1,10,2:0:0:0:
5,190,43649,1,10,2:0:0:0:
35,340,43793,1,2,2:0:0:0:
35,340,44081,6,0,P|75:340|114:328,1,67.1999979492188,2|0,2:0|2:0,2:0:0:0:
152,201,44370,2,0,P|132:166|102:138,1,67.1999979492188,2|0,2:0|2:0,2:0:0:0:
121,140,44658,6,0,P|143:164|159:194,1,67.1999979492188,10|8,2:0|2:0,2:0:0:0:
35,354,44947,2,0,P|75:354|114:342,1,67.1999979492188,2|8,2:0|2:0,2:0:0:0:
241,297,45235,5,2,2:0:0:0:
251,291,45307,1,2,2:0:0:0:
263,292,45379,2,0,B|339:305|403:255|403:255,1,134.399995898438,2|0,2:0|2:0,2:0:0:0:
344,377,45812,1,8,2:0:0:0:
391,262,45956,2,0,P|430:260|469:278,1,67.1999979492188,8|0,2:0|2:0,2:0:0:0:
512,383,46245,2,0,P|473:385|434:367,1,67.1999979492188,10|0,2:0|2:0,2:0:0:0:
309,200,46533,5,2,2:0:0:0:
309,200,46678,2,0,P|301:167|290:124,1,67.1999979492188,2|0,2:0|2:0,2:0:0:0:
491,26,46966,2,0,P|499:58|507:91,1,67.1999979492188,10|8,2:0|2:0,2:0:0:0:
412,150,47254,1,2,2:0:0:0:
372,81,47399,1,10,2:0:0:0:
387,5,47543,1,0,2:0:0:0:
186,106,47687,5,10,2:1:0:0:
186,106,47831,2,0,P|161:113|128:123,1,57.5999982421876,2|8,2:0|2:0,2:0:0:0:
193,9,48264,2,0,P|168:16|135:26,1,57.5999982421876,2|8,2:0|2:0,2:0:0:0:
61,71,48697,1,2,2:0:0:0:
115,207,48841,6,0,L|141:201,2,19.1999994140625,2|2|2,2:3|2:3|2:3,2:0:0:0:
36,163,49129,1,2,2:3:0:0:
36,163,49274,1,8,2:0:0:0:
31,250,49418,1,0,2:0:0:0:
31,250,49706,1,8,2:3:0:0:
81,320,49851,1,0,2:0:0:0:
218,257,49995,5,10,2:1:0:0:
218,257,50139,2,0,P|239:262|285:273,1,57.5999982421876,2|8,2:0|2:0,2:0:0:0:
360,373,50572,2,0,P|353:352|340:306,1,57.5999982421876,2|8,2:0|2:0,2:0:0:0:
393,197,51004,2,0,P|378:213|344:247,1,57.5999982421876,2|0,2:0|2:0,2:0:0:0:
449,368,51437,2,0,P|444:348|440:327,1,28.7999991210938,2|0,0:0|0:0,0:0:0:0:
485,231,51726,6,0,P|501:209|503:173,1,48,2|2,2:0|2:0,2:0:0:0:
444,132,51870,2,0,P|439:105|415:78,1,48,2|2,2:0|2:0,2:0:0:0:
475,225,52014,6,0,P|491:203|493:167,1,48,2|2,2:0|2:0,2:0:0:0:
434,126,52158,2,0,P|429:99|405:72,1,48,2|2,2:0|2:0,2:0:0:0:
254,16,52303,5,14,2:1:0:0:
254,16,52447,2,0,P|230:52|224:172,1,153.6,2|8,2:0|2:0,2:0:0:0:
307,106,52879,1,2,2:0:0:0:
307,106,53024,1,8,2:1:0:0:
129,24,53168,2,0,P|92:36|50:47,1,76.8,10|0,2:0|2:0,2:0:0:0:
3,240,53456,6,0,P|45:228|104:216,1,76.8,10|8,2:1|2:1,2:0:0:0:
159,132,53745,1,10,2:0:0:0:
159,132,53889,1,8,2:0:0:0:
233,294,54033,2,0,P|195:302|158:313,1,76.8,2|8,2:0|2:1,2:0:0:0:
0,159,54322,2,0,P|36:148|74:139,1,76.8,10|0,2:0|2:0,2:0:0:0:
345,367,54610,6,0,P|367:345|370:311,2,64,10|2|2,2:1|2:0|2:0,2:0:0:0:
417,242,54899,6,0,P|408:211|385:200,2,44.7999986328125,10|2|2,2:0|2:0|2:0,2:0:0:0:
337,116,55187,5,2,2:0:0:0:
293,147,55283,1,2,2:0:0:0:
243,134,55379,1,2,2:0:0:0:
183,77,55476,5,10,2:0:0:0:
192,63,55572,1,2,2:0:0:0:
206,60,55668,1,2,2:0:0:0:
276,11,55764,6,0,P|295:18|320:23,3,33.5999989746094,10|2|2|2,2:1|2:0|2:0|2:0,2:0:0:0:
399,49,56053,6,0,P|418:56|441:60,3,33.5999989746094,10|2|10|2,2:0|2:0|2:0|2:0,2:0:0:0:
346,137,56341,6,0,B|283:152|278:220|296:248|149:199|232:171|224:84|266:131|327:116,1,268.799991796875,2|10,2:0|2:1,2:0:0:0:
482,371,57206,5,8,2:0:0:0:
411,332,57351,1,8,2:0:0:0:
488,374,57495,2,0,P|494:341|499:305,2,57.5999982421876,8|8|8,2:1|2:0|2:1,2:0:0:0:
54,46,58649,6,0,B|49:30|28:22|28:22|79:-4|143:27|135:83|135:83|88:100|80:145,1,249.599988574219,4|0,2:3|2:0,2:0:0:0:
6,141,59081,6,0,P|91:142|175:217,1,192,12|8,2:1|2:1,2:0:0:0:
204,280,59442,1,8,2:1:0:0:
204,292,59514,1,8,2:0:0:0:
106,370,59658,5,8,2:1:0:0:
86,337,59730,1,8,2:1:0:0:
92,298,59803,1,8,2:0:0:0:
308,214,59947,5,8,2:1:0:0:
328,247,60019,1,8,2:1:0:0:
322,286,60092,1,8,2:0:0:0:
490,381,60235,5,8,2:1:0:0:
490,381,60307,1,8,2:1:0:0:
490,381,60379,2,0,P|499:352|501:316,3,48,8|8|8|8,2:0|2:1|2:1|2:1,2:0:0:0:
476,230,60668,2,0,P|461:203|437:176,3,48,8|8|8|8,2:0|2:1|2:1|2:1,2:0:0:0:
496,6,60956,5,8,2:0:0:0:
476,55,61029,1,8,2:0:0:0:
432,84,61101,1,8,2:0:0:0:
379,81,61173,1,8,2:0:0:0:
367,74,61245,2,0,P|361:51|348:20,1,48,8|8,2:0|2:0,2:0:0:0:
72,132,61389,6,0,B|140:213|250:176|250:176,1,172.799994726563,14|0,2:1|2:0,2:0:0:0:
241,176,61678,1,0,2:0:0:0:
137,346,61822,1,10,2:0:0:0:
67,384,61966,1,0,2:0:0:0:
49,303,62110,1,10,2:1:0:0:
123,262,62254,1,10,2:1:0:0:
258,362,62399,1,10,2:0:0:0:
393,249,62543,2,0,P|407:210|406:136,1,96,10|0,2:1|2:0,2:0:0:0:
255,71,62831,1,2,2:0:0:0:
512,1,62976,6,0,P|465:47|377:56,1,144,10|0,2:0|2:0,2:0:0:0:
382,54,63264,1,10,2:1:0:0:
256,193,63408,1,8,2:1:0:0:
394,331,63553,2,0,P|444:318|496:307,1,96,10|0,2:0|2:0,2:0:0:0:
339,143,63841,6,0,B|247:130|271:182|151:160,1,172.799994726563,14|0,2:1|2:0,2:0:0:0:
109,106,64129,2,0,P|106:92|98:66,2,38.4,10|8|8,2:0|2:0|2:0,2:0:0:0:
16,267,64418,6,0,B|108:254|84:306|204:284,1,172.799994726563,14|0,2:1|2:0,2:0:0:0:
246,230,64706,2,0,P|249:216|257:190,2,38.4,10|8|8,2:0|2:0|2:0,2:0:0:0:
491,378,64995,6,0,B|510:311|447:256|447:256|412:259|384:236,1,187.199991430664,14|0,2:1|2:0,2:0:0:0:
433,174,65283,5,10,2:0:0:0:
457,175,65355,1,8,2:0:0:0:
478,162,65428,1,8,2:0:0:0:
487,138,65500,1,8,2:0:0:0:
484,117,65572,2,0,P|420:104|299:46,1,172.799994726563,14|0,2:1|2:0,2:0:0:0:
255,9,65860,6,0,L|210:18,1,36,8|0,2:3|2:0,2:0:0:0:
27,142,66149,6,0,B|109:122|169:160|169:160|219:143,1,187.199991430664,6|0,2:0|2:0,2:0:0:0:
221,142,66437,2,0,P|246:181|241:241,1,96,10|2,2:0|2:0,2:0:0:0:
210,298,66654,1,2,2:0:0:0:
203,307,66726,1,2,2:0:0:0:
102,219,66870,1,8,2:1:0:0:
328,109,67014,1,10,2:0:0:0:
99,224,67158,2,0,P|59:247|0:254,1,96,8|0,2:1|2:0,2:0:0:0:
92,334,67447,1,8,2:1:0:0:
321,288,67591,6,0,P|384:285|473:326,1,144,10|0,2:0|2:0,2:0:0:0:
468,321,67879,2,0,P|461:351|452:392,1,48,10|8,2:0|2:0,2:0:0:0:
345,191,68024,1,10,2:0:0:0:
367,154,68096,1,8,2:0:0:0:
376,111,68168,1,10,2:0:0:0:
375,67,68240,1,8,2:0:0:0:
364,25,68312,6,0,P|316:17|258:8,1,96,14|0,2:1|2:0,2:0:0:0:
0,37,68601,2,0,P|47:44|94:52,1,96,2|8,2:0|2:0,2:0:0:0:
205,104,68889,1,2,2:0:0:0:
242,174,69033,1,10,2:1:0:0:
203,243,69178,1,10,2:1:0:0:
277,379,69322,1,10,2:0:0:0:
98,237,69466,2,0,P|102:286|128:341,1,96,10|0,2:1|2:0,2:0:0:0:
382,260,69754,2,0,P|378:211|352:156,1,96,10|8,2:1|2:0,2:0:0:0:
512,5,70043,5,2,2:0:0:0:
447,77,70187,1,10,2:1:0:0:
354,37,70331,1,10,2:1:0:0:
461,169,70476,1,10,2:0:0:0:
482,331,70620,6,0,B|430:375|342:382|295:344,1,192,10|8,2:1|2:1,2:0:0:0:
141,249,71053,2,0,P|190:236|251:219,1,96,10|0,2:0|2:0,2:0:0:0:
63,371,71341,1,10,2:1:0:0:
25,231,71485,1,10,2:1:0:0:
0,312,71629,1,10,2:0:0:0:
83,102,71774,6,0,P|96:62|96:-3,1,96,10|0,2:1|2:0,2:0:0:0:
0,48,72062,1,10,2:1:0:0:
233,223,72206,2,0,P|282:194|380:203,1,144,10|0,2:0|2:0,2:0:0:0:
372,201,72495,1,10,2:1:0:0:
257,74,72639,1,8,2:1:0:0:
462,6,72783,2,0,P|447:61|432:111,1,96,10|0,2:0|2:0,2:0:0:0:
325,311,73072,5,10,2:1:0:0:
103,373,73360,1,10,2:0:0:0:
37,151,73649,1,10,2:1:0:0:
257,74,73937,1,10,2:0:0:0:
255,339,74226,6,0,P|305:323|346:292,1,76.8,10|0,2:1|2:0,2:0:0:0:
75,299,74514,2,0,P|90:349|121:390,1,76.8,10|0,2:0|2:0,2:0:0:0:
106,124,74803,2,0,P|55:139|14:170,1,76.8,10|8,2:1|2:1,2:0:0:0:
287,147,75091,2,0,P|271:96|240:55,1,76.8,10|0,2:0|2:0,2:0:0:0:
0,55,75379,6,0,B|107:67|180:-3,1,192,10|8,2:1|2:0,2:0:0:0:
512,214,75956,2,0,B|405:202|331:271,1,192,10|8,2:1|2:0,2:0:0:0:
383,138,76389,1,0,2:0:0:0:
444,319,76533,1,10,2:1:0:0:
444,319,76678,2,0,L|457:372,1,48,10|8,2:1|2:1,2:0:0:0:
411,225,77399,1,8,2:1:0:0:
507,11,77687,6,0,B|492:24|492:24|413:22|327:96,1,192,12|8,2:1|2:0,2:0:0:0:
253,192,78120,1,8,2:0:0:0:
253,192,78192,1,8,2:0:0:0:
253,192,78264,2,0,P|199:190|130:178,1,96,10|0,2:1|2:0,2:0:0:0:
14,44,78553,2,0,P|68:46|137:58,1,96,10|8,2:0|2:0,2:0:0:0:
189,23,78769,1,8,2:0:0:0:
204,31,78841,6,0,P|205:82|159:172,1,144,10|0,2:1|2:0,2:0:0:0:
157,184,79129,1,10,2:0:0:0:
9,278,79274,1,8,2:0:0:0:
9,278,79346,1,8,2:0:0:0:
9,278,79418,2,0,P|16:302|23:340,3,48,8|8|8|8,2:0|2:0|2:0|2:0,2:0:0:0:
112,377,79706,2,0,P|128:328|123:280,1,96,8|8,2:0|2:0,2:0:0:0:
73,207,79923,1,8,2:0:0:0:
61,197,79995,2,0,P|48:163|57:103,1,96,10|0,2:1|2:0,2:0:0:0:
224,261,80283,5,10,2:0:0:0:
224,261,80355,1,8,2:0:0:0:
224,261,80428,2,0,P|254:255|300:243,1,48,8|8,2:0|2:0,2:0:0:0:
385,368,80572,2,0,P|337:370|272:339,1,96,10|0,2:1|2:0,2:0:0:0:
478,277,80860,1,8,2:0:0:0:
495,254,80932,1,8,2:0:0:0:
502,226,81004,1,8,2:0:0:0:
498,197,81077,1,8,2:0:0:0:
483,171,81149,2,0,B|406:158|423:204|322:189,1,144,10|0,2:1|2:0,2:0:0:0:
277,139,81437,6,0,P|273:122|263:87,3,48,8|8|8|8,2:0|2:0|2:0|2:0,2:0:0:0:
360,2,81726,2,0,P|347:13|321:40,3,48,8|8|8|8,2:0|2:0|2:0|2:0,2:0:0:0:
153,26,82014,2,0,P|169:31|205:39,3,48,8|8|8|8,2:0|2:0|2:0|2:0,2:0:0:0:
0,164,82303,2,0,P|56:125|147:124,1,144,8|0,2:1|2:0,2:0:0:0:
129,119,82591,6,0,P|121:152|117:184,1,48,10|8,2:0|2:0,2:0:0:0:
62,240,82735,2,0,P|53:272|49:304,1,48,10|8,2:0|2:0,2:0:0:0:
107,357,82879,1,10,2:1:0:0:
291,287,83168,6,0,P|282:254|278:222,1,48,10|8,2:0|2:0,2:0:0:0:
223,166,83312,2,0,P|214:133|210:101,1,48,10|8,2:0|2:0,2:0:0:0:
268,49,83456,1,10,2:1:0:0:
485,97,83745,6,0,P|479:114|470:151,3,48,8|8|8|8,2:0|2:0|2:0|2:0,2:0:0:0:
411,196,84033,2,0,P|405:213|396:250,3,48,8|8|8|8,2:0|2:0|2:0|2:0,2:0:0:0:
497,348,84322,1,8,2:0:0:0:
465,336,84394,1,8,2:0:0:0:
431,337,84466,1,8,2:0:0:0:
402,355,84538,1,8,2:0:0:0:
385,384,84610,2,0,P|335:370|217:344,1,144,8|0,2:1|2:0,2:0:0:0:
245,349,84899,6,0,P|256:320|266:278,1,57.5999982421876,10|8,2:0|2:0,2:0:0:0:
64,256,85043,2,0,P|53:285|43:327,1,57.5999982421876,10|8,2:0|2:0,2:0:0:0:
156,295,85187,2,0,P|171:239|186:189,1,96,10|0,2:1|2:0,2:0:0:0:
6,20,85476,6,0,P|2:40|26:78,1,57.5999982421876,10|8,2:0|2:0,2:0:0:0:
111,52,85620,2,0,P|115:24|101:0,1,57.5999982421876,10|8,2:0|2:0,2:0:0:0:
27,155,85764,2,0,P|81:167|129:185,1,96,10|0,2:1|2:0,2:0:0:0:
359,114,86053,5,8,2:0:0:0:
245,21,86197,1,8,2:0:0:0:
245,21,86269,1,8,2:0:0:0:
245,21,86341,1,8,2:0:0:0:
325,245,86485,1,8,2:0:0:0:
512,94,86629,2,0,P|502:44|488:-17,1,96,8|8,2:0|2:0,2:0:0:0:
13,379,87928,5,8,2:1:0:0:
13,379,88216,2,0,P|42:370|68:360,1,38.4,8|8,2:0|2:0,2:0:0:0:
140,331,88360,1,8,2:0:0:0:
68,281,88504,1,8,2:3:0:0:
217,377,88649,2,0,P|246:368|272:358,1,38.4,8|8,2:3|2:0,2:0:0:0:
474,315,89081,6,0,B|511:239|468:160|468:160,1,153.6,14|0,2:1|2:0,2:0:0:0:
320,60,89514,1,10,2:0:0:0:
413,2,89658,2,0,P|436:39|436:87,1,76.8,2|0,2:0|2:0,2:0:0:0:
332,160,89947,5,10,2:1:0:0:
241,140,90091,1,10,2:0:0:0:
146,118,90235,2,0,B|98:108|42:138|22:203,1,153.6,10|2,2:1|2:0,2:0:0:0:
25,192,90596,1,2,2:0:0:0:
25,192,90668,1,10,2:0:0:0:
63,104,90812,2,0,P|53:62|44:21,1,76.8,2|8,2:0|2:1,2:0:0:0:
172,207,91101,2,0,P|163:244|154:281,1,76.8,10|8,2:1|2:0,2:0:0:0:
37,374,91389,2,0,P|25:377|-6:386,2,38.4,2|2|10,2:0|2:0|2:1,2:0:0:0:
73,293,91678,5,2,2:0:0:0:
221,351,91822,1,10,2:0:0:0:
331,247,91966,1,2,2:0:0:0:
331,247,92038,1,2,2:0:0:0:
331,247,92110,2,0,P|338:202|334:152,1,76.8,2|8,2:0|2:1,2:0:0:0:
255,125,92399,1,10,2:0:0:0:
331,362,92543,6,0,P|385:368|475:305,1,153.6,10|0,2:1|2:0,2:0:0:0:
379,277,92976,1,10,2:0:0:0:
483,163,93120,2,0,P|510:102|510:7,1,153.6,2|8,2:0|2:1,2:0:0:0:
416,80,93553,1,10,2:0:0:0:
341,29,93697,2,0,P|324:67|324:118,1,76.8,2|8,2:0|2:1,2:0:0:0:
224,222,93985,5,2,2:0:0:0:
154,263,94129,1,10,2:0:0:0:
7,118,94346,1,2,2:0:0:0:
11,108,94418,1,2,2:0:0:0:
89,148,94562,1,10,2:1:0:0:
152,84,94706,2,0,P|148:42|133:4,1,76.8,10|8,2:0|2:1,2:0:0:0:
14,213,94995,5,2,2:0:0:0:
70,279,95139,1,2,2:0:0:0:
34,357,95283,1,10,2:0:0:0:
230,304,95428,2,0,P|291:276|397:266,1,153.6,2|10,2:0|2:1,2:0:0:0:
331,355,95860,1,8,2:0:0:0:
485,236,96004,6,0,P|511:308|505:384,1,153.6,14|0,2:1|2:0,2:0:0:0:
376,264,96437,1,10,2:0:0:0:
410,168,96581,1,2,2:0:0:0:
410,168,96654,1,2,2:0:0:0:
410,168,96726,1,10,2:1:0:0:
485,236,96870,2,0,P|500:191|498:152,1,76.8,2|8,2:0|2:0,2:0:0:0:
373,56,97158,6,0,B|315:52|273:81|273:81|211:62,1,153.6,10|10,2:1|2:1,2:0:0:0:
226,66,97519,1,8,2:1:0:0:
226,66,97591,1,10,2:0:0:0:
29,37,97735,1,2,2:0:0:0:
136,8,97879,2,0,P|135:42|120:98,1,76.8,10|8,2:1|2:1,2:0:0:0:
40,166,98168,1,10,2:0:0:0:
40,166,98456,5,10,2:1:0:0:
133,253,98601,2,0,P|170:243|226:228,1,76.8,2|8,2:0|2:0,2:0:0:0:
87,365,98889,1,2,2:0:0:0:
87,365,98961,1,2,2:0:0:0:
87,365,99033,2,0,P|49:374|12:384,1,76.8,10|2,2:1|2:0,2:0:0:0:
37,266,99322,1,8,2:0:0:0:
209,338,99466,6,0,P|263:364|369:366,1,153.6,2|0,2:0|2:0,2:0:0:0:
444,272,99899,1,10,2:0:0:0:
444,272,100043,1,2,2:0:0:0:
489,366,100187,1,10,2:1:0:0:
347,277,100331,1,0,2:0:0:0:
506,188,100476,1,8,2:0:0:0:
341,279,100620,6,0,P|315:222|323:113,1,153.6,14|0,2:1|2:0,2:0:0:0:
456,9,101053,2,0,P|473:42|473:91,1,76.8,10|2,2:0|2:0,2:0:0:0:
475,81,101269,1,2,2:0:0:0:
475,81,101341,1,10,2:1:0:0:
386,66,101485,1,2,2:0:0:0:
316,132,101629,1,10,2:0:0:0:
158,26,101774,6,0,B|66:23|92:57|-22:49,1,153.6,10|8,2:1|2:1,2:0:0:0:
111,194,102206,2,0,P|127:157|124:112,1,76.8,10|0,2:0|2:0,2:0:0:0:
13,209,102495,1,10,2:1:0:0:
13,209,102639,1,10,2:1:0:0:
166,289,102783,2,0,P|156:326|145:372,1,76.8,10|2,2:0|2:0,2:0:0:0:
146,363,103000,1,2,2:0:0:0:
146,363,103072,1,10,2:1:0:0:
60,297,103216,5,2,2:0:0:0:
256,193,103360,1,10,2:0:0:0:
401,347,103504,1,2,2:0:0:0:
401,347,103793,5,2,2:0:0:0:
485,368,103937,1,10,2:0:0:0:
463,284,104081,1,2,2:0:0:0:
319,375,104226,6,0,P|304:326|310:285,1,76.8,10|0,2:1|2:0,2:0:0:0:
373,235,104514,1,10,2:0:0:0:
481,142,104658,2,0,P|512:92|504:13,1,115.2,2|0,2:0|2:0,2:0:0:0:
506,27,104947,1,2,2:0:0:0:
257,147,105091,1,10,2:0:0:0:
463,284,105235,1,2,2:0:0:0:
250,143,105379,6,0,B|201:131|201:131|144:181|57:157,1,192,14|8,2:1|2:0,2:0:0:0:
122,72,105812,1,2,2:0:0:0:
215,220,105956,2,0,P|229:261|224:303,1,76.8,2|8,2:0|2:1,2:0:0:0:
20,371,106245,2,0,P|6:330|11:288,1,76.8,10|8,2:0|2:1,2:0:0:0:
104,245,106533,5,2,2:0:0:0:
104,245,106678,2,0,P|111:291|118:332,1,76.8,2|8,2:0|2:0,2:0:0:0:
349,368,106966,2,0,P|342:330|336:292,1,76.8,2|8,2:0|2:1,2:0:0:0:
445,199,107254,1,10,2:1:0:0:
499,260,107399,1,10,2:0:0:0:
479,334,107543,1,2,2:0:0:0:
465,107,107687,6,0,P|424:107|374:126,1,76.8,10|0,2:1|2:0,2:0:0:0:
255,12,107976,2,0,P|216:11|179:22,1,76.8,10|0,2:0|2:0,2:0:0:0:
9,200,108264,1,2,2:0:0:0:
135,117,108408,1,10,2:1:0:0:
19,0,108553,2,0,P|27:43|34:83,1,76.8,10|8,2:0|2:1,2:0:0:0:
99,270,108841,5,2,2:0:0:0:
0,379,108985,2,0,P|51:372|92:348,1,76.8,2|8,2:0|2:0,2:0:0:0:
171,186,109274,2,0,P|135:171|97:168,1,76.8,2|8,2:0|2:1,2:0:0:0:
9,244,109562,1,10,2:1:0:0:
99,270,109706,1,10,2:0:0:0:
186,300,109851,1,2,2:0:0:0:
379,384,109995,6,0,P|401:380|428:376,2,38.4,2|0|0,2:0|2:0|2:0,2:0:0:0:
406,296,110428,2,0,P|428:292|455:288,2,38.4,2|0|0,2:0|2:0|2:0,2:0:0:0:
429,208,110860,2,0,P|451:204|478:200,1,38.4,2|0,2:0|2:0,2:0:0:0:
456,120,111293,2,0,P|478:116|505:112,1,38.4,2|0,2:0|2:0,2:0:0:0:
493,113,111726,5,8,2:3:0:0:
426,31,111870,5,8,2:3:0:0:
290,7,112014,5,8,2:3:0:0:
147,106,112158,5,8,2:3:0:0:
147,106,112230,1,8,2:3:0:0:
147,106,112303,2,0,B|91:131|23:98|13:34,1,153.6,12|8,2:1|2:0,2:0:0:0:
257,190,112879,1,8,2:3:0:0:
240,274,113024,1,8,2:3:0:0:
218,356,113168,1,8,2:0:0:0:
412,243,113312,5,8,2:1:0:0:
412,243,113384,1,8,2:1:0:0:
412,243,113456,2,0,P|400:183|388:110,1,115.199996484375,8|0,2:0|2:0,2:0:0:0:
91,104,113745,2,0,P|100:160|112:217,1,115.199996484375,8|0,2:0|2:0,2:0:0:0:
257,190,114033,5,2,2:0:0:0:
376,147,123264,6,0,B|315:132|294:-44|455:-54|547:155|400:60|399:110,1,307.2,4|12,2:3|2:1,2:0:0:0:
459,189,123985,5,2,2:0:0:0:
501,260,124129,1,2,2:0:0:0:
461,333,124274,2,0,P|429:328|390:315,1,57.5999982421876,2|8,2:0|2:0,2:0:0:0:
299,256,124562,1,2,2:0:0:0:
286,259,124706,1,2,2:0:0:0:
171,362,124851,6,0,P|122:364|57:317,1,115.199996484375,10|2,2:1|2:0,2:0:0:0:
66,330,125211,1,2,2:0:0:0:
66,330,125283,1,10,2:1:0:0:
146,263,125428,1,0,2:0:0:0:
75,196,125572,2,0,P|44:207|11:217,1,57.5999982421876,8|0,2:0|2:0,2:0:0:0:
103,6,125860,5,8,2:3:0:0:
114,13,126004,1,8,2:3:0:0:
103,19,126149,1,8,2:3:0:0:
28,77,126293,5,2,2:0:0:0:
99,115,126437,1,2,2:0:0:0:
179,97,126581,2,0,P|193:62|195:24,1,57.5999982421876,2|8,2:0|2:0,2:0:0:0:
308,126,126870,1,2,2:0:0:0:
411,29,127014,1,2,2:0:0:0:
302,131,127158,6,0,P|295:176|318:261,1,115.199996484375,10|2,2:1|2:0,2:0:0:0:
308,243,127519,1,2,2:0:0:0:
308,243,127591,1,10,2:1:0:0:
447,189,127735,2,0,P|408:183|371:175,1,57.5999982421876,2|8,2:0|2:0,2:0:0:0:
455,352,128024,2,0,P|416:358|379:366,1,57.5999982421876,2|0,2:0|2:0,2:0:0:0:
411,271,128312,1,2,2:0:0:0:
411,271,128384,1,2,2:0:0:0:
411,271,128456,1,10,2:1:0:0:
257,358,128601,5,2,2:0:0:0:
257,358,128745,2,0,P|244:321|243:286,1,57.5999982421876,2|0,2:0|2:0,2:0:0:0:
125,251,129033,1,10,2:0:0:0:
125,251,129178,2,0,P|128:280|135:308,1,57.5999982421876,2|0,2:0|2:0,2:0:0:0:
257,191,129466,6,0,P|280:152|280:72,1,115.199996484375,10|2,2:1|2:0,2:0:0:0:
283,83,129827,1,2,2:0:0:0:
283,83,129899,1,10,2:1:0:0:
188,20,130043,1,2,2:0:0:0:
114,97,130187,2,0,P|84:89|38:78,1,57.5999982421876,8|2,2:0|2:0,2:0:0:0:
7,1,130476,1,8,2:3:0:0:
58,200,130620,5,8,2:3:0:0:
58,200,130692,1,8,2:3:0:0:
58,200,130764,2,0,P|66:254|36:347,1,144,8|0,2:3|2:0,2:0:0:0:
35,346,131053,1,2,2:0:0:0:
250,276,131197,1,2,2:0:0:0:
171,336,131341,2,0,P|154:277|159:223,1,96,10|0,2:0|2:0,2:0:0:0:
327,218,131629,2,0,P|344:277|339:331,1,96,2|8,2:0|2:1,2:0:0:0:
503,381,131918,5,2,2:0:0:0:
461,298,132062,1,2,2:0:0:0:
461,298,132134,1,2,2:0:0:0:
461,298,132206,1,10,2:1:0:0:
495,203,132351,1,2,2:0:0:0:
445,112,132495,2,0,P|397:122|338:138,1,96,8|0,2:0|2:0,2:0:0:0:
400,19,132783,1,2,2:0:0:0:
251,194,132928,5,2,2:0:0:0:
208,206,133000,1,2,2:0:0:0:
168,186,133072,2,0,P|145:180|127:178,2,38.4,2|0|0,2:1|2:0|2:0,2:0:0:0:
22,194,139995,6,0,P|94:202|172:164,1,153.6,8|8,2:1|2:1,2:0:0:0:
166,169,140355,1,8,2:1:0:0:
166,169,140428,1,8,2:1:0:0:
204,52,140572,6,0,P|276:44|354:82,1,153.6,8|8,2:1|2:1,2:0:0:0:
348,76,140932,1,8,2:1:0:0:
348,76,141005,1,8,2:1:0:0:
511,213,141149,6,0,P|439:221|361:183,1,153.6,8|8,2:1|2:1,2:0:0:0:
367,189,141509,1,8,2:1:0:0:
367,189,141582,1,8,2:1:0:0:
256,281,141726,6,0,P|255:324|270:378,1,76.8,8|8,2:1|2:1,2:0:0:0:
388,384,142014,2,0,P|395:346|393:308,1,76.8,8|8,2:1|2:1,2:0:0:0:
258,141,142303,6,0,P|229:139|182:161,1,72,4|0,2:1|2:0,2:0:0:0:
86,60,142591,6,0,P|205:57|312:5,1,230.39999296875,4|4,2:2|2:1,2:0:0:0:
20,354,143456,6,0,P|60:329|123:321,1,96,8|8,2:0|2:0,2:0:0:0:
172,364,143673,1,8,2:0:0:0:
183,369,143745,2,0,P|231:381|287:378,1,96,8|8,2:0|2:0,2:0:0:0:
433,302,144033,5,8,2:0:0:0:
457,272,144105,1,8,2:0:0:0:
464,233,144178,1,8,2:3:0:0:
456,195,144250,1,8,2:3:0:0:
426,170,144322,2,0,P|400:178|371:182,1,48,8|8,2:3|2:3,2:0:0:0:
318,247,144466,2,0,P|292:255|263:259,1,48,8|0,2:1|2:3,2:0:0:0:
47,83,144754,5,8,2:3:0:0:
57,103,144827,1,8,2:3:0:0:
75,118,144899,1,8,2:3:0:0:
97,124,144971,1,8,2:3:0:0:
120,121,145043,2,0,P|135:105|152:66,1,48,8|8,2:3|2:3,2:0:0:0:
255,11,145187,6,0,P|286:22|315:31,2,48,2|2|2,2:0|2:0|2:0,2:0:0:0:
96,273,145620,6,0,P|49:298|-14:302,1,96,14|0,2:1|2:0,2:0:0:0:
30,200,145908,1,10,2:1:0:0:
171,349,146053,2,0,P|217:323|281:319,1,96,8|0,2:0|2:0,2:0:0:0:
365,352,146341,1,10,2:1:0:0:
392,158,146485,1,10,2:1:0:0:
259,230,146629,1,10,2:0:0:0:
490,264,146774,2,0,P|503:209|519:147,1,96,10|0,2:1|2:0,2:0:0:0:
296,29,147062,2,0,P|283:84|267:146,1,96,10|8,2:1|2:0,2:0:0:0:
505,73,147351,5,2,2:0:0:0:
449,10,147495,1,10,2:1:0:0:
379,58,147639,1,10,2:1:0:0:
434,123,147783,1,10,2:0:0:0:
259,230,147928,6,0,B|179:321|70:253|70:253,1,192,10|8,2:1|2:1,2:0:0:0:
171,184,148360,1,10,2:0:0:0:
32,6,148504,2,0,B|11:96|55:65|25:167,1,144,2|0,2:0|2:0,2:0:0:0:
28,154,148793,1,10,2:1:0:0:
146,62,148937,1,10,2:0:0:0:
259,230,149081,6,0,P|257:280|235:327,1,96,10|0,2:1|2:0,2:0:0:0:
7,378,149370,1,10,2:1:0:0:
7,378,149514,2,0,P|54:332|144:333,1,144,10|0,2:0|2:0,2:0:0:0:
138,332,149803,1,10,2:1:0:0:
19,237,149947,1,8,2:1:0:0:
210,126,150091,2,0,P|263:136|339:152,1,96,10|2,2:0|2:0,2:0:0:0:
383,188,150307,1,2,2:0:0:0:
397,184,150379,6,0,P|423:125|406:38,1,144,10|0,2:1|2:0,2:0:0:0:
405,41,150668,2,0,P|358:47|303:54,1,96,10|0,2:0|2:0,2:0:0:0:
251,272,150956,2,0,B|333:258|308:308|400:293,1,144,10|0,2:1|2:0,2:0:0:0:
401,291,151245,1,10,2:0:0:0:
274,377,151389,1,0,2:0:0:0:
149,280,151533,6,0,P|93:278|25:361,1,144,10|0,2:1|2:0,2:0:0:0:
19,346,151822,2,0,P|8:297|-2:240,1,96,10|0,2:0|2:0,2:0:0:0:
128,26,152110,2,0,P|129:83|86:184,1,144,10|0,2:1|2:0,2:0:0:0:
93,175,152399,1,10,2:0:0:0:
12,81,152543,1,0,2:0:0:0:
253,14,152687,6,0,P|303:15|367:37,1,96,10|0,2:1|2:0,2:0:0:0:
471,217,152976,2,0,P|421:216|357:194,1,96,10|2,2:0|2:0,2:0:0:0:
311,162,153192,1,2,2:0:0:0:
302,153,153264,1,10,2:1:0:0:
428,98,153408,1,8,2:1:0:0:
301,297,153553,1,10,2:0:0:0:
489,368,153697,6,0,B|542:292|465:202|465:202,1,144,8|0,2:1|2:0,2:0:0:0:
471,217,153985,1,10,2:1:0:0:
233,350,154129,2,0,B|155:332|166:382|76:363,1,144,10|0,2:0|2:0,2:0:0:0:
20,305,154418,1,10,2:0:0:0:
55,290,154490,1,8,2:0:0:0:
79,258,154562,1,10,2:0:0:0:
95,223,154634,1,8,2:0:0:0:
99,184,154706,1,10,2:0:0:0:
86,146,154779,1,8,2:0:0:0:
63,114,154851,6,0,B|71:28|144:25|144:25|155:54|200:73,1,172.799994726563,14|0,2:1|2:0,2:0:0:0:
174,59,155139,2,0,P|208:52|255:44,1,48,10|0,2:1|2:0,2:0:0:0:
457,195,155283,2,0,P|408:190|358:167,1,96,8|2,2:0|2:0,2:0:0:0:
300,127,155500,1,2,2:0:0:0:
291,118,155572,1,10,2:0:0:0:
419,62,155716,1,10,2:1:0:0:
286,260,155860,1,10,2:0:0:0:
482,380,156004,2,0,P|494:332|499:277,1,96,10|8,2:1|2:0,2:0:0:0:
210,201,156293,2,0,P|198:249|193:304,1,96,10|8,2:1|2:0,2:0:0:0:
394,291,156581,5,2,2:0:0:0:
394,291,156654,1,2,2:0:0:0:
394,291,156726,1,10,2:0:0:0:
353,189,156870,1,10,2:1:0:0:
454,210,157014,1,10,2:0:0:0:
265,377,157158,6,0,B|191:390|101:368|65:298,1,192,6|0,2:1|2:1,2:0:0:0:
0,168,157591,2,0,P|57:155|116:140,1,96,10|0,2:0|2:0,2:0:0:0:
63,243,157879,1,10,2:0:0:0:
213,119,158024,2,0,P|200:62|185:3,1,96,10|8,2:1|2:0,2:0:0:0:
11,7,158312,5,10,2:1:0:0:
11,7,158384,1,2,2:0:0:0:
11,7,158456,1,10,2:0:0:0:
93,145,158601,1,10,2:1:0:0:
308,37,158745,2,0,P|370:32|455:78,1,144,10|0,2:0|2:0,2:0:0:0:
450,70,159033,5,10,2:0:0:0:
420,150,159178,1,8,2:1:0:0:
496,270,159322,5,10,2:0:0:0:
282,180,159466,1,8,2:1:0:0:
348,381,159610,6,0,B|398:310|381:232|381:232,1,153.6,14|2,2:1|2:0,2:0:0:0:
381,234,160043,1,8,2:1:0:0:
161,286,160187,1,10,2:0:0:0:
161,286,160331,2,0,P|198:295|253:310,1,76.8,8|2,2:1|2:0,2:0:0:0:
304,259,160620,1,8,2:1:0:0:
76,372,160764,5,10,2:0:0:0:
76,372,160908,2,0,B|22:295|55:215|55:215,1,153.6,8|8,2:1|2:1,2:0:0:0:
151,99,161341,2,0,P|162:139|161:183,1,76.8,10|0,2:0|2:0,2:0:0:0:
11,84,161629,2,0,P|0:44|1:0,1,76.8,10|0,2:1|2:0,2:0:0:0:
162,174,161918,6,0,B|255:163|231:206|343:190,1,153.6,14|0,2:1|2:0,2:0:0:0:
249,88,162351,1,8,2:1:0:0:
481,11,162495,2,0,P|479:54|470:89,1,76.8,10|8,2:0|2:1,2:0:0:0:
400,137,162783,1,2,2:0:0:0:
337,77,162928,1,8,2:1:0:0:
470,197,163072,5,14,2:0:0:0:
260,374,163504,1,8,2:3:0:0:
260,374,163577,1,8,2:3:0:0:
260,374,163649,2,0,B|228:370|231:380|197:378,1,57.5999982421876,8|8,2:3|0:1,2:0:0:0:
0,249,164226,6,0,B|87:230|72:285|167:258,1,153.6,12|0,2:1|2:0,2:0:0:0:
34,332,164658,1,2,2:0:0:0:
151,263,164803,2,0,P|166:217|157:174,1,76.8,10|0,2:0|2:0,2:0:0:0:
73,126,165091,2,0,P|70:87|84:52,1,76.8,2|0,2:0|2:0,2:0:0:0:
235,14,165379,6,0,P|257:51|270:164,1,153.6,10|0,2:1|2:0,2:0:0:0:
479,43,165812,2,0,P|443:39|399:21,1,76.8,2|8,2:0|2:0,2:0:0:0:
493,162,166101,2,0,P|457:175|419:180,1,76.8,2|0,2:0|2:0,2:0:0:0:
352,110,166389,2,0,P|316:96|278:91,1,76.8,2|8,2:0|2:1,2:0:0:0:
158,249,166678,5,2,2:0:0:0:
184,326,166822,1,2,2:0:0:0:
264,359,166966,1,2,2:0:0:0:
341,331,167110,1,10,2:0:0:0:
508,371,167399,1,2,2:0:0:0:
241,175,167687,5,10,2:1:0:0:
241,175,167831,2,0,P|200:168|163:160,1,76.8,2|0,2:0|2:0,2:0:0:0:
86,32,168120,2,0,P|123:39|161:46,1,76.8,2|8,2:0|2:0,2:0:0:0:
32,147,168408,2,0,P|-1:196|3:296,1,153.6,2|2,2:0|2:0,2:0:0:0:
76,357,168841,1,8,2:1:0:0:
179,235,168985,5,2,2:0:0:0:
179,235,169129,2,0,P|174:188|159:146,1,76.8,2|0,2:0|2:0,2:0:0:0:
255,328,169418,2,0,P|303:343|385:340,1,115.2,10|0,2:0|2:0,2:0:0:0:
378,337,169706,2,0,P|369:293|363:244,1,76.8,2|0,2:0|2:0,2:0:0:0:
446,101,169995,6,0,P|471:133|477:187,1,76.8,10|0,2:1|2:0,2:0:0:0:
295,63,170283,1,2,2:0:0:0:
295,63,170428,2,0,P|310:25|353:-6,1,76.8,2|8,2:0|2:0,2:0:0:0:
323,198,170716,2,0,P|282:203|233:181,1,76.8,2|0,2:0|2:0,2:0:0:0:
364,123,171004,5,2,2:0:0:0:
364,123,171077,1,2,2:0:0:0:
364,123,171149,1,10,2:1:0:0:
203,22,171293,6,0,P|170:30|134:38,1,57.5999982421876,2|0,2:0|2:0,2:0:0:0:
193,107,171581,1,2,2:0:0:0:
62,150,171726,6,0,P|29:142|-7:134,1,57.5999982421876,10|0,2:0|2:0,2:0:0:0:
52,65,172014,1,2,2:0:0:0:
183,209,172158,6,0,P|150:217|114:225,1,57.5999982421876,2|8,2:0|2:1,2:0:0:0:
1,345,172447,6,0,P|28:351|57:358,2,57.5999982421876,2|0|0,2:0|2:0|2:0,2:0:0:0:
51,271,172879,1,10,2:0:0:0:
157,381,173024,1,2,2:0:0:0:
271,255,173168,1,2,2:0:0:0:
422,372,173312,1,2,2:0:0:0:
422,372,173384,1,2,2:0:0:0:
422,372,173456,5,14,2:1:0:0:
481,315,173601,1,0,2:0:0:0:
412,272,173745,1,2,2:0:0:0:
346,321,173889,1,0,2:0:0:0:
420,138,174033,5,10,2:0:0:0:
433,166,174178,1,0,2:0:0:0:
467,151,174322,1,2,2:0:0:0:
451,121,174466,1,0,2:0:0:0:
266,22,174610,5,10,2:1:0:0:
266,22,174754,2,0,P|253:59|255:113,1,76.8,2|0,2:0|2:0,2:0:0:0:
307,157,175043,1,2,2:0:0:0:
172,59,175187,2,0,P|127:54|38:110,1,153.6,8|0,2:0|2:0,2:0:0:0:
0,323,175764,6,0,P|60:326|159:383,1,153.6,8|2,2:1|2:0,2:0:0:0:
93,244,176197,1,0,2:0:0:0:
170,287,176341,1,10,2:0:0:0:
94,232,176485,1,0,2:0:0:0:
175,193,176629,1,2,2:0:0:0:
253,242,176774,1,0,2:0:0:0:
372,365,176918,6,0,P|438:372|520:321,2,153.6,10|2|10,2:1|2:0|2:0,2:0:0:0:
433,279,177639,1,0,2:0:0:0:
383,206,177783,1,2,2:0:0:0:
503,103,177928,5,2,2:0:0:0:
503,103,178000,1,2,2:0:0:0:
503,103,178072,2,0,B|487:141|487:141|419:148|370:217,1,153.6,10|0,2:1|2:0,2:0:0:0:
257,76,178504,1,0,2:0:0:0:
328,13,178649,2,0,P|352:47|354:103,1,76.8,10|0,2:0|2:0,2:0:0:0:
210,162,178937,2,0,P|177:118|173:11,2,153.6,2|10|2,2:0|2:1|2:0,2:0:0:0:
304,212,179658,5,0,2:0:0:0:
304,212,179803,2,0,P|293:254|283:294,1,76.8,10|0,2:0|2:0,2:0:0:0:
88,366,180091,2,0,P|99:324|109:284,1,76.8,2|2,2:0|2:0,2:0:0:0:
15,229,180307,1,2,2:0:0:0:
25,219,180379,6,0,B|94:171|179:208|179:208,1,153.6,10|0,2:1|2:0,2:0:0:0:
107,291,180812,1,0,2:0:0:0:
35,117,180956,2,0,P|26:69|20:31,1,76.8,10|0,2:0|2:0,2:0:0:0:
142,18,181245,2,0,P|151:66|157:104,1,76.8,0|0,2:0|2:0,2:0:0:0:
254,280,181533,5,10,2:0:0:0:
512,130,181822,1,10,2:0:0:0:
512,130,183120,5,10,2:1:0:0:
512,130,183192,1,10,2:1:0:0:
512,130,183264,1,10,2:0:0:0:
438,74,183408,2,0,P|425:102|426:136,1,48,2|0,2:0|2:0,2:0:0:0:
460,199,183697,2,0,P|460:232|429:305,1,96,10|0,2:1|2:0,2:0:0:0:
362,350,184129,1,8,2:1:0:0:
205,239,184418,6,0,B|125:233|147:284|55:275,1,144,8|2,2:0|2:0,2:0:0:0:
69,275,184923,1,2,2:0:0:0:
69,275,184995,1,10,2:1:0:0:
19,163,185139,6,0,P|47:174|79:183,1,48,2|0,2:0|2:0,2:0:0:0:
178,84,185428,2,0,P|173:54|165:22,1,48,10|8,2:1|2:0,2:0:0:0:
36,6,185716,2,0,P|12:24|-11:47,1,48,10|0,2:1|2:0,2:0:0:0:
82,87,186004,2,0,P|126:93|227:139,1,144,10|8,2:1|2:1,2:0:0:0:
501,18,186726,2,0,P|473:29|447:37,1,48,8|0,2:0|2:0,2:0:0:0:
402,103,187014,1,0,2:0:0:0:
328,57,187158,2,0,P|326:45|321:24,2,24,2|2|10,2:0|2:0|2:1,2:0:0:0:
459,182,187447,5,2,2:0:0:0:
459,182,187735,1,2,2:0:0:0:
459,182,187807,1,2,2:0:0:0:
459,182,187879,1,10,2:0:0:0:
408,257,188024,2,0,P|384:253|359:240,1,48,2|0,2:0|2:0,2:0:0:0:
510,344,188312,2,0,P|476:341|413:378,1,96,10|0,2:1|2:0,2:0:0:0:
284,310,188745,1,8,2:1:0:0:
73,372,189033,6,0,P|67:319|87:267,1,96,8|2,2:0|2:0,2:0:0:0:
148,220,189466,1,2,2:0:0:0:
16,135,189610,5,10,2:1:0:0:
16,135,189754,2,0,P|23:178|27:203,1,48,2|0,2:0|2:0,2:0:0:0:
105,93,190043,2,0,P|101:69|97:45,1,48,10|8,2:1|2:0,2:0:0:0:
199,142,190331,2,0,P|233:159|309:156,1,96,2|10,2:0|2:1,2:0:0:0:
491,22,190908,5,8,2:1:0:0:
491,22,190980,1,8,2:1:0:0:
491,22,191053,1,14,2:0:0:0:
