osu file format v14

[General]
AudioFilename: audio.mp3
AudioLeadIn: 0
PreviewTime: 75053
Countdown: 0
SampleSet: None
StackLeniency: 0.7
Mode: 3
LetterboxInBreaks: 0
SpecialStyle: 0
WidescreenStoryboard: 0

[Editor]
DistanceSpacing: 0.3
BeatDivisor: 4
GridSize: 8
TimelineZoom: 1.8

[Metadata]
Title:Yoru ni Kakeru
TitleUnicode:夜に駆ける
Artist:YOASOBI
ArtistUnicode:YOASOBI
Creator:arcwinolivirus
Version:7K Hard
Source:
Tags:bms 7k 4k rice training chord comfy spoon feed patterns rice
BeatmapID:2696457
BeatmapSetID:1299810

[Difficulty]
HPDrainRate:7.5
CircleSize:7
OverallDifficulty:7.5
ApproachRate:5
SliderMultiplier:1.4
SliderTickRate:1

[Events]
//Background and Video events
0,0,"yoruni.png",0,0
//Break Periods
//Storyboard Layer 0 (Background)
//Storyboard Layer 1 (Fail)
//Storyboard Layer 2 (Pass)
//Storyboard Layer 3 (Foreground)
//Storyboard Layer 4 (Overlay)
//Storyboard Sound Samples

[TimingPoints]
2130,461.538461538462,4,2,1,7,1,0
75976,-100,4,2,1,7,0,1
89362,-100,4,2,1,7,0,0
90745,-100,4,2,1,7,0,1
100899,-100,4,2,1,7,0,0

[HitObjects]
64,192,2130,5,0,0:0:0:0:
256,192,2130,1,0,0:0:0:0:
320,192,2476,1,0,0:0:0:0:
109,192,2476,1,0,0:0:0:0:
192,192,2822,1,0,0:0:0:0:
402,192,2822,1,0,0:0:0:0:
448,192,3053,1,0,0:0:0:0:
256,192,3053,1,0,0:0:0:0:
64,192,3514,1,0,0:0:0:0:
329,192,3514,1,0,0:0:0:0:
448,192,3976,1,0,0:0:0:0:
256,192,3976,1,0,0:0:0:0:
192,192,4322,1,0,0:0:0:0:
402,192,4322,1,0,0:0:0:0:
320,192,4668,1,0,0:0:0:0:
109,192,4668,1,0,0:0:0:0:
64,192,4899,1,0,0:0:0:0:
256,192,4899,1,0,0:0:0:0:
192,192,5360,1,0,0:0:0:0:
402,192,5360,1,0,0:0:0:0:
320,192,5591,1,0,0:0:0:0:
109,192,5591,1,0,0:0:0:0:
448,192,5822,1,0,0:0:0:0:
256,192,5822,1,0,0:0:0:0:
109,192,6168,1,0,0:0:0:0:
182,192,6168,1,0,0:0:0:0:
320,192,6514,1,0,0:0:0:0:
402,192,6514,1,0,0:0:0:0:
192,192,6745,1,0,0:0:0:0:
36,192,6745,1,0,0:0:0:0:
448,192,6976,1,0,0:0:0:0:
256,192,6976,1,0,0:0:0:0:
320,192,7206,1,0,0:0:0:0:
109,192,7206,1,0,0:0:0:0:
192,192,7437,1,0,0:0:0:0:
402,192,7437,1,0,0:0:0:0:
64,192,7668,1,0,0:0:0:0:
256,192,7668,1,0,0:0:0:0:
448,192,8014,1,0,0:0:0:0:
109,192,8014,1,0,0:0:0:0:
192,192,8360,1,0,0:0:0:0:
402,192,8360,1,0,0:0:0:0:
64,192,8591,1,0,0:0:0:0:
256,192,8591,1,0,0:0:0:0:
192,192,8822,1,0,0:0:0:0:
402,192,8822,1,0,0:0:0:0:
320,192,9053,1,0,0:0:0:0:
109,192,9053,1,0,0:0:0:0:
448,192,9283,1,0,0:0:0:0:
256,192,9283,1,0,0:0:0:0:
64,192,9514,1,0,0:0:0:0:
192,192,9514,1,0,0:0:0:0:
402,192,9745,1,0,0:0:0:0:
256,192,9976,1,0,0:0:0:0:
109,192,9976,1,0,0:0:0:0:
182,192,10206,1,0,0:0:0:0:
320,192,10437,1,0,0:0:0:0:
448,192,10437,1,0,0:0:0:0:
109,192,10668,1,0,0:0:0:0:
402,192,10899,1,0,0:0:0:0:
256,192,10899,1,0,0:0:0:0:
36,192,11130,1,0,0:0:0:0:
329,192,11360,1,0,0:0:0:0:
192,192,11360,1,0,0:0:0:0:
448,192,11591,1,0,0:0:0:0:
36,192,11822,1,0,0:0:0:0:
109,192,11822,1,0,0:0:0:0:
182,192,12053,1,0,0:0:0:0:
448,192,12283,1,0,0:0:0:0:
402,192,12283,1,0,0:0:0:0:
256,192,12514,1,0,0:0:0:0:
109,192,12745,1,0,0:0:0:0:
329,192,12745,1,0,0:0:0:0:
182,192,12976,1,0,0:0:0:0:
448,192,13206,1,0,0:0:0:0:
256,192,13206,1,0,0:0:0:0:
192,192,13437,1,0,0:0:0:0:
320,192,13668,1,0,0:0:0:0:
109,192,13668,1,0,0:0:0:0:
475,192,13899,1,0,0:0:0:0:
402,192,14130,1,0,0:0:0:0:
192,192,14130,1,0,0:0:0:0:
256,192,14360,1,0,0:0:0:0:
109,192,14591,1,0,0:0:0:0:
320,192,14591,1,0,0:0:0:0:
448,192,14822,1,0,0:0:0:0:
64,192,15053,1,0,0:0:0:0:
192,192,15168,1,0,0:0:0:0:
320,192,15283,1,0,0:0:0:0:
402,192,15283,1,0,0:0:0:0:
192,192,15514,1,0,0:0:0:0:
109,192,15514,1,0,0:0:0:0:
448,192,15745,1,0,0:0:0:0:
320,192,15860,1,0,0:0:0:0:
192,192,15976,1,0,0:0:0:0:
109,192,15976,1,0,0:0:0:0:
320,192,16206,1,0,0:0:0:0:
109,192,16322,1,0,0:0:0:0:
182,192,16322,1,0,0:0:0:0:
402,192,16437,1,0,0:0:0:0:
256,192,16553,1,0,0:0:0:0:
182,192,16668,1,0,0:0:0:0:
109,192,16668,1,0,0:0:0:0:
475,192,16783,1,0,0:0:0:0:
329,192,16899,1,0,0:0:0:0:
256,192,16899,1,0,0:0:0:0:
36,192,16899,1,0,0:0:0:0:
402,192,17014,1,0,0:0:0:0:
109,192,17130,1,0,0:0:0:0:
182,192,17130,1,0,0:0:0:0:
329,192,17245,1,0,0:0:0:0:
256,192,17360,1,0,0:0:0:0:
36,192,17360,1,0,0:0:0:0:
402,192,17591,1,0,0:0:0:0:
182,192,17591,1,0,0:0:0:0:
109,192,17822,1,0,0:0:0:0:
475,192,17822,1,0,0:0:0:0:
329,192,18053,1,0,0:0:0:0:
182,192,18053,1,0,0:0:0:0:
109,192,18283,1,0,0:0:0:0:
329,192,18283,1,0,0:0:0:0:
256,192,18514,1,0,0:0:0:0:
402,192,18514,1,0,0:0:0:0:
109,192,18630,1,0,0:0:0:0:
475,192,18745,1,0,0:0:0:0:
329,192,18745,1,0,0:0:0:0:
182,192,18860,1,0,0:0:0:0:
256,192,18976,1,0,0:0:0:0:
36,192,18976,1,0,0:0:0:0:
402,192,19091,1,0,0:0:0:0:
109,192,19206,1,0,0:0:0:0:
329,192,19206,1,0,0:0:0:0:
402,192,19437,1,0,0:0:0:0:
182,192,19437,1,0,0:0:0:0:
109,192,19668,1,0,0:0:0:0:
329,192,19668,1,0,0:0:0:0:
329,192,19899,1,0,0:0:0:0:
182,192,19899,1,0,0:0:0:0:
109,192,20130,1,0,0:0:0:0:
402,192,20130,1,0,0:0:0:0:
109,192,20360,1,0,0:0:0:0:
329,192,20360,1,0,0:0:0:0:
256,192,20591,1,0,0:0:0:0:
475,192,20591,1,0,0:0:0:0:
36,192,20706,1,0,0:0:0:0:
182,192,20822,1,0,0:0:0:0:
402,192,20822,1,0,0:0:0:0:
256,192,20937,1,0,0:0:0:0:
329,192,21053,1,0,0:0:0:0:
109,192,21053,1,0,0:0:0:0:
182,192,21283,1,0,0:0:0:0:
402,192,21283,1,0,0:0:0:0:
256,192,21514,1,0,0:0:0:0:
402,192,21514,1,0,0:0:0:0:
109,192,21745,1,0,0:0:0:0:
329,192,21745,1,0,0:0:0:0:
182,192,21976,1,0,0:0:0:0:
402,192,21976,1,0,0:0:0:0:
329,192,22206,1,0,0:0:0:0:
109,192,22206,1,0,0:0:0:0:
256,192,22437,1,0,0:0:0:0:
36,192,22437,1,0,0:0:0:0:
329,192,22668,1,0,0:0:0:0:
109,192,22668,1,0,0:0:0:0:
182,192,22783,1,0,0:0:0:0:
402,192,22783,1,0,0:0:0:0:
256,192,22899,1,0,0:0:0:0:
475,192,22899,1,0,0:0:0:0:
402,192,23130,1,0,0:0:0:0:
182,192,23130,1,0,0:0:0:0:
109,192,23360,1,0,0:0:0:0:
402,192,23360,1,0,0:0:0:0:
182,192,23591,1,0,0:0:0:0:
329,192,23591,1,0,0:0:0:0:
36,192,23822,1,0,0:0:0:0:
256,192,23822,1,0,0:0:0:0:
182,192,23937,1,0,0:0:0:0:
109,192,24053,1,0,0:0:0:0:
329,192,24053,1,0,0:0:0:0:
256,192,24168,1,0,0:0:0:0:
182,192,24283,1,0,0:0:0:0:
402,192,24283,1,0,0:0:0:0:
36,192,24399,1,0,0:0:0:0:
475,192,24514,1,0,0:0:0:0:
256,192,24514,1,0,0:0:0:0:
329,192,24630,1,0,0:0:0:0:
402,192,24745,1,0,0:0:0:0:
109,192,24745,1,0,0:0:0:0:
329,192,24976,1,0,0:0:0:0:
182,192,24976,1,0,0:0:0:0:
109,192,25206,1,0,0:0:0:0:
329,192,25206,1,0,0:0:0:0:
402,192,25437,1,0,0:0:0:0:
182,192,25437,1,0,0:0:0:0:
109,192,25668,1,0,0:0:0:0:
256,192,25668,1,0,0:0:0:0:
109,192,25899,1,0,0:0:0:0:
329,192,25899,1,0,0:0:0:0:
256,192,26014,1,0,0:0:0:0:
402,192,26130,1,0,0:0:0:0:
182,192,26130,1,0,0:0:0:0:
329,192,26245,1,0,0:0:0:0:
256,192,26360,1,0,0:0:0:0:
475,192,26360,1,0,0:0:0:0:
109,192,26476,1,0,0:0:0:0:
329,192,26591,1,0,0:0:0:0:
182,192,26591,1,0,0:0:0:0:
182,192,26822,1,0,0:0:0:0:
402,192,26822,1,0,0:0:0:0:
109,192,27053,1,0,0:0:0:0:
402,192,27053,1,0,0:0:0:0:
329,192,27283,1,0,0:0:0:0:
109,192,27283,1,0,0:0:0:0:
256,192,27514,1,0,0:0:0:0:
475,192,27514,1,0,0:0:0:0:
402,192,27630,1,0,0:0:0:0:
109,192,27745,1,0,0:0:0:0:
329,192,27745,1,0,0:0:0:0:
182,192,27860,1,0,0:0:0:0:
36,192,27976,1,0,0:0:0:0:
256,192,27976,1,0,0:0:0:0:
402,192,28091,1,0,0:0:0:0:
109,192,28206,1,0,0:0:0:0:
329,192,28206,1,0,0:0:0:0:
256,192,28322,1,0,0:0:0:0:
182,192,28437,1,0,0:0:0:0:
402,192,28437,1,0,0:0:0:0:
329,192,28668,1,0,0:0:0:0:
182,192,28668,1,0,0:0:0:0:
109,192,28899,1,0,0:0:0:0:
329,192,28899,1,0,0:0:0:0:
402,192,29130,1,0,0:0:0:0:
109,192,29130,1,0,0:0:0:0:
329,192,29360,1,0,0:0:0:0:
182,192,29360,1,0,0:0:0:0:
475,192,29591,1,0,0:0:0:0:
256,192,29591,1,0,0:0:0:0:
402,192,29822,1,0,0:0:0:0:
109,192,29822,1,0,0:0:0:0:
182,192,30053,1,0,0:0:0:0:
36,192,30053,1,0,0:0:0:0:
402,192,30168,1,0,0:0:0:0:
109,192,30283,1,0,0:0:0:0:
256,192,30283,1,0,0:0:0:0:
475,192,30399,1,0,0:0:0:0:
329,192,30514,1,0,0:0:0:0:
182,192,30514,1,0,0:0:0:0:
36,192,30630,1,0,0:0:0:0:
256,192,30745,1,0,0:0:0:0:
402,192,30745,1,0,0:0:0:0:
109,192,30860,1,0,0:0:0:0:
329,192,30976,1,0,0:0:0:0:
475,192,30976,1,0,0:0:0:0:
182,192,31091,1,0,0:0:0:0:
402,192,31206,1,0,0:0:0:0:
256,192,31206,1,0,0:0:0:0:
182,192,31437,1,0,0:0:0:0:
329,192,31437,1,0,0:0:0:0:
36,192,31668,1,0,0:0:0:0:
475,192,31668,1,0,0:0:0:0:
256,192,31668,1,0,0:0:0:0:
109,192,31899,1,0,0:0:0:0:
329,192,31899,1,0,0:0:0:0:
402,192,32130,1,0,0:0:0:0:
182,192,32130,1,0,0:0:0:0:
256,192,32360,1,0,0:0:0:0:
475,192,32360,1,0,0:0:0:0:
182,192,32591,1,0,0:0:0:0:
329,192,32822,1,0,0:0:0:0:
109,192,32822,1,0,0:0:0:0:
182,192,33053,1,0,0:0:0:0:
402,192,33053,1,0,0:0:0:0:
329,192,33283,1,0,0:0:0:0:
109,192,33283,1,0,0:0:0:0:
256,192,33514,1,0,0:0:0:0:
475,192,33745,1,0,0:0:0:0:
36,192,33745,1,0,0:0:0:0:
256,192,33976,1,0,0:0:0:0:
402,192,34206,1,0,0:0:0:0:
109,192,34206,1,0,0:0:0:0:
320,192,34437,1,0,0:0:0:0:
192,192,34437,1,0,0:0:0:0:
256,192,34668,1,0,0:0:0:0:
448,192,34668,1,0,0:0:0:0:
192,192,34899,1,0,0:0:0:0:
402,192,34899,1,0,0:0:0:0:
320,192,35130,1,0,0:0:0:0:
109,192,35130,1,0,0:0:0:0:
256,192,35360,1,0,0:0:0:0:
64,192,35360,1,0,0:0:0:0:
192,192,35591,1,0,0:0:0:0:
402,192,35591,1,0,0:0:0:0:
256,192,35822,1,0,0:0:0:0:
109,192,35822,1,0,0:0:0:0:
329,192,36053,1,0,0:0:0:0:
448,192,36053,1,0,0:0:0:0:
182,192,36283,1,0,0:0:0:0:
64,192,36283,1,0,0:0:0:0:
256,192,36514,1,0,0:0:0:0:
402,192,36514,1,0,0:0:0:0:
329,192,36745,1,0,0:0:0:0:
109,192,36745,1,0,0:0:0:0:
402,192,36976,1,0,0:0:0:0:
182,192,36976,1,0,0:0:0:0:
256,192,37206,1,0,0:0:0:0:
320,192,37437,1,0,0:0:0:0:
448,192,37437,1,0,0:0:0:0:
109,192,37668,1,0,0:0:0:0:
256,192,37899,1,0,0:0:0:0:
402,192,37899,1,0,0:0:0:0:
182,192,38130,1,0,0:0:0:0:
64,192,38130,1,0,0:0:0:0:
320,192,38360,1,0,0:0:0:0:
109,192,38360,1,0,0:0:0:0:
192,192,38591,1,0,0:0:0:0:
402,192,38591,1,0,0:0:0:0:
64,192,38822,1,0,0:0:0:0:
256,192,38822,1,0,0:0:0:0:
329,192,39053,1,0,0:0:0:0:
109,192,39053,1,0,0:0:0:0:
192,192,39283,1,0,0:0:0:0:
402,192,39283,1,0,0:0:0:0:
256,192,39514,1,0,0:0:0:0:
448,192,39514,1,0,0:0:0:0:
320,192,39745,1,0,0:0:0:0:
64,192,39745,1,0,0:0:0:0:
192,192,39976,1,0,0:0:0:0:
448,192,39976,1,0,0:0:0:0:
256,192,40206,1,0,0:0:0:0:
402,192,40437,1,0,0:0:0:0:
109,192,40437,1,0,0:0:0:0:
192,192,40668,1,0,0:0:0:0:
320,192,40668,1,0,0:0:0:0:
448,192,40899,1,0,0:0:0:0:
256,192,40899,1,0,0:0:0:0:
109,192,41130,1,0,0:0:0:0:
402,192,41130,1,0,0:0:0:0:
192,192,41360,1,0,0:0:0:0:
320,192,41360,1,0,0:0:0:0:
256,192,41591,1,0,0:0:0:0:
109,192,41822,1,0,0:0:0:0:
329,192,41822,1,0,0:0:0:0:
256,192,42053,1,0,0:0:0:0:
475,192,42283,1,0,0:0:0:0:
64,192,42283,1,0,0:0:0:0:
109,192,42514,1,0,0:0:0:0:
402,192,42514,1,0,0:0:0:0:
329,192,42745,1,0,0:0:0:0:
192,192,42745,1,0,0:0:0:0:
402,192,42976,1,0,0:0:0:0:
256,192,42976,1,0,0:0:0:0:
192,192,43206,1,0,0:0:0:0:
64,192,43206,1,0,0:0:0:0:
448,192,43437,1,0,0:0:0:0:
320,192,43437,1,0,0:0:0:0:
192,192,43668,1,0,0:0:0:0:
320,192,43899,1,0,0:0:0:0:
109,192,43899,1,0,0:0:0:0:
256,192,44130,1,0,0:0:0:0:
448,192,44130,1,0,0:0:0:0:
192,192,44360,1,0,0:0:0:0:
402,192,44360,1,0,0:0:0:0:
256,192,44591,1,0,0:0:0:0:
36,192,44822,1,0,0:0:0:0:
448,192,44822,1,0,0:0:0:0:
329,192,45053,1,0,0:0:0:0:
182,192,45053,1,0,0:0:0:0:
475,192,45283,1,0,0:0:0:0:
64,192,45283,1,0,0:0:0:0:
109,192,45514,1,0,0:0:0:0:
402,192,45514,1,0,0:0:0:0:
402,192,45860,1,0,0:0:0:0:
109,192,45860,1,0,0:0:0:0:
109,192,46206,1,0,0:0:0:0:
402,192,46206,1,0,0:0:0:0:
64,192,46437,1,0,0:0:0:0:
448,192,46437,1,0,0:0:0:0:
256,192,46437,1,0,0:0:0:0:
402,192,46668,1,0,0:0:0:0:
192,192,46668,1,0,0:0:0:0:
256,192,46899,1,0,0:0:0:0:
64,192,46899,1,0,0:0:0:0:
448,192,47130,1,0,0:0:0:0:
320,192,47130,1,0,0:0:0:0:
109,192,47360,1,0,0:0:0:0:
256,192,47591,1,0,0:0:0:0:
402,192,47591,1,0,0:0:0:0:
109,192,47822,1,0,0:0:0:0:
329,192,47822,1,0,0:0:0:0:
192,192,48053,1,0,0:0:0:0:
402,192,48053,1,0,0:0:0:0:
256,192,48283,1,0,0:0:0:0:
475,192,48514,1,0,0:0:0:0:
320,192,48514,1,0,0:0:0:0:
402,192,48745,1,0,0:0:0:0:
256,192,48745,1,0,0:0:0:0:
182,192,48976,1,0,0:0:0:0:
64,192,48976,1,0,0:0:0:0:
109,192,49206,1,0,0:0:0:0:
256,192,49206,1,0,0:0:0:0:
192,192,49437,1,0,0:0:0:0:
320,192,49437,1,0,0:0:0:0:
448,192,49668,1,0,0:0:0:0:
64,192,49668,1,0,0:0:0:0:
320,192,49899,1,0,0:0:0:0:
192,192,49899,1,0,0:0:0:0:
64,192,50130,1,0,0:0:0:0:
475,192,50130,1,0,0:0:0:0:
192,192,50360,1,0,0:0:0:0:
402,192,50360,1,0,0:0:0:0:
256,192,50591,1,0,0:0:0:0:
448,192,50591,1,0,0:0:0:0:
109,192,50822,1,0,0:0:0:0:
329,192,50822,1,0,0:0:0:0:
256,192,51053,1,0,0:0:0:0:
64,192,51053,1,0,0:0:0:0:
192,192,51283,1,0,0:0:0:0:
320,192,51283,1,0,0:0:0:0:
448,192,51514,1,0,0:0:0:0:
256,192,51514,1,0,0:0:0:0:
402,192,51745,1,0,0:0:0:0:
182,192,51745,1,0,0:0:0:0:
256,192,51976,1,0,0:0:0:0:
36,192,52206,1,0,0:0:0:0:
182,192,52206,1,0,0:0:0:0:
402,192,52437,1,0,0:0:0:0:
256,192,52668,1,0,0:0:0:0:
36,192,52668,1,0,0:0:0:0:
329,192,52899,1,0,0:0:0:0:
109,192,52899,1,0,0:0:0:0:
192,192,53130,1,0,0:0:0:0:
402,192,53130,1,0,0:0:0:0:
256,192,53360,1,0,0:0:0:0:
475,192,53360,1,0,0:0:0:0:
402,192,53591,1,0,0:0:0:0:
192,192,53591,1,0,0:0:0:0:
109,192,53822,1,0,0:0:0:0:
329,192,53822,1,0,0:0:0:0:
36,192,53822,1,0,0:0:0:0:
182,192,54053,1,0,0:0:0:0:
402,192,54053,1,0,0:0:0:0:
256,192,54283,1,0,0:0:0:0:
109,192,54283,1,0,0:0:0:0:
402,192,54514,1,0,0:0:0:0:
192,192,54514,1,0,0:0:0:0:
64,192,54745,1,0,0:0:0:0:
448,192,54745,1,0,0:0:0:0:
256,192,54976,1,0,0:0:0:0:
109,192,55206,1,0,0:0:0:0:
402,192,55206,1,0,0:0:0:0:
192,192,55437,1,0,0:0:0:0:
329,192,55437,1,0,0:0:0:0:
402,192,55668,1,0,0:0:0:0:
256,192,55668,1,0,0:0:0:0:
64,192,55899,1,0,0:0:0:0:
109,192,55899,1,0,0:0:0:0:
256,192,56014,1,0,0:0:0:0:
402,192,56130,1,0,0:0:0:0:
475,192,56130,1,0,0:0:0:0:
329,192,56360,1,0,0:0:0:0:
192,192,56360,1,0,0:0:0:0:
109,192,56591,1,0,0:0:0:0:
402,192,56591,1,0,0:0:0:0:
320,192,56822,1,0,0:0:0:0:
36,192,57053,1,0,0:0:0:0:
256,192,57053,1,0,0:0:0:0:
402,192,57283,1,0,0:0:0:0:
192,192,57283,1,0,0:0:0:0:
320,192,57514,1,0,0:0:0:0:
109,192,57514,1,0,0:0:0:0:
256,192,57745,1,0,0:0:0:0:
475,192,57745,1,0,0:0:0:0:
192,192,57976,1,0,0:0:0:0:
402,192,57976,1,0,0:0:0:0:
320,192,58206,1,0,0:0:0:0:
64,192,58206,1,0,0:0:0:0:
256,192,58437,1,0,0:0:0:0:
448,192,58668,1,0,0:0:0:0:
182,192,58668,1,0,0:0:0:0:
109,192,58899,1,0,0:0:0:0:
402,192,58899,1,0,0:0:0:0:
64,192,59130,1,0,0:0:0:0:
329,192,59130,1,0,0:0:0:0:
256,192,59360,1,0,0:0:0:0:
320,192,59591,1,0,0:0:0:0:
192,192,59591,1,0,0:0:0:0:
402,192,59822,1,0,0:0:0:0:
109,192,60053,1,0,0:0:0:0:
192,192,60283,1,0,0:0:0:0:
320,192,60283,1,0,0:0:0:0:
64,192,60514,1,0,0:0:0:0:
109,192,60514,1,0,0:0:0:0:
192,192,60630,1,0,0:0:0:0:
448,192,60745,1,0,0:0:0:0:
402,192,60745,1,0,0:0:0:0:
320,192,60860,1,0,0:0:0:0:
64,192,60976,1,0,0:0:0:0:
109,192,60976,1,0,0:0:0:0:
192,192,61091,1,0,0:0:0:0:
448,192,61206,1,0,0:0:0:0:
402,192,61206,1,0,0:0:0:0:
256,192,61206,1,0,0:0:0:0:
109,192,61437,1,0,0:0:0:0:
256,192,61553,1,0,0:0:0:0:
448,192,61668,1,0,0:0:0:0:
402,192,61668,1,0,0:0:0:0:
320,192,61783,1,0,0:0:0:0:
192,192,61899,1,0,0:0:0:0:
448,192,62130,1,0,0:0:0:0:
402,192,62130,1,0,0:0:0:0:
109,192,62245,1,0,0:0:0:0:
256,192,62360,1,0,0:0:0:0:
192,192,62476,1,0,0:0:0:0:
448,192,62591,1,0,0:0:0:0:
402,192,62591,1,0,0:0:0:0:
64,192,62706,1,0,0:0:0:0:
329,192,62822,1,0,0:0:0:0:
182,192,62937,1,0,0:0:0:0:
64,192,63053,1,0,0:0:0:0:
109,192,63053,1,0,0:0:0:0:
402,192,63283,1,0,0:0:0:0:
256,192,63399,1,0,0:0:0:0:
64,192,63514,1,0,0:0:0:0:
109,192,63514,1,0,0:0:0:0:
448,192,63630,1,0,0:0:0:0:
320,192,63745,1,0,0:0:0:0:
64,192,63976,1,0,0:0:0:0:
109,192,63976,1,0,0:0:0:0:
448,192,64091,1,0,0:0:0:0:
320,192,64206,1,0,0:0:0:0:
192,192,64322,1,0,0:0:0:0:
64,192,64437,1,0,0:0:0:0:
109,192,64437,1,0,0:0:0:0:
402,192,64553,1,0,0:0:0:0:
329,192,64668,1,0,0:0:0:0:
256,192,64783,1,0,0:0:0:0:
448,192,64899,1,0,0:0:0:0:
182,192,64899,1,0,0:0:0:0:
320,192,65130,1,0,0:0:0:0:
256,192,65360,1,0,0:0:0:0:
109,192,65360,1,0,0:0:0:0:
475,192,65476,1,0,0:0:0:0:
329,192,65591,1,0,0:0:0:0:
36,192,65706,1,0,0:0:0:0:
182,192,65822,1,0,0:0:0:0:
402,192,66053,1,0,0:0:0:0:
256,192,66168,1,0,0:0:0:0:
64,192,66283,1,0,0:0:0:0:
109,192,66283,1,0,0:0:0:0:
448,192,66399,1,0,0:0:0:0:
256,192,66514,1,0,0:0:0:0:
402,192,66630,1,0,0:0:0:0:
182,192,66745,1,0,0:0:0:0:
329,192,66860,1,0,0:0:0:0:
109,192,66976,1,0,0:0:0:0:
256,192,67091,1,0,0:0:0:0:
64,192,67206,1,0,0:0:0:0:
402,192,67206,1,0,0:0:0:0:
192,192,67322,1,0,0:0:0:0:
320,192,67437,1,0,0:0:0:0:
448,192,67553,1,0,0:0:0:0:
109,192,67668,1,0,0:0:0:0:
36,192,67668,128,0,68130:0:0:0:0:
182,192,67783,1,0,0:0:0:0:
256,192,67899,1,0,0:0:0:0:
329,192,68014,1,0,0:0:0:0:
402,192,68130,1,0,0:0:0:0:
475,192,68130,128,0,68591:0:0:0:0:
256,192,68245,1,0,0:0:0:0:
109,192,68360,1,0,0:0:0:0:
329,192,68476,1,0,0:0:0:0:
64,192,68591,1,0,0:0:0:0:
192,192,68591,1,0,0:0:0:0:
109,192,68822,1,0,0:0:0:0:
329,192,68822,1,0,0:0:0:0:
182,192,69053,1,0,0:0:0:0:
402,192,69053,1,0,0:0:0:0:
109,192,69283,1,0,0:0:0:0:
402,192,69283,1,0,0:0:0:0:
320,192,69514,1,0,0:0:0:0:
182,192,69514,1,0,0:0:0:0:
109,192,69745,1,0,0:0:0:0:
256,192,69745,1,0,0:0:0:0:
402,192,69976,1,0,0:0:0:0:
182,192,69976,1,0,0:0:0:0:
256,192,70206,1,0,0:0:0:0:
402,192,70206,1,0,0:0:0:0:
329,192,70437,1,0,0:0:0:0:
109,192,70437,1,0,0:0:0:0:
402,192,70668,1,0,0:0:0:0:
192,192,70668,1,0,0:0:0:0:
448,192,70899,1,0,0:0:0:0:
256,192,70899,1,0,0:0:0:0:
320,192,71130,1,0,0:0:0:0:
64,192,71130,1,0,0:0:0:0:
256,192,71360,1,0,0:0:0:0:
329,192,71591,1,0,0:0:0:0:
109,192,71591,1,0,0:0:0:0:
192,192,71822,1,0,0:0:0:0:
402,192,71822,1,0,0:0:0:0:
256,192,72053,1,0,0:0:0:0:
475,192,72053,1,0,0:0:0:0:
402,192,72283,1,0,0:0:0:0:
109,192,72283,1,0,0:0:0:0:
320,192,72514,1,0,0:0:0:0:
192,192,72514,1,0,0:0:0:0:
64,192,72745,1,0,0:0:0:0:
448,192,72745,1,0,0:0:0:0:
192,192,72976,1,0,0:0:0:0:
329,192,72976,1,0,0:0:0:0:
256,192,73206,1,0,0:0:0:0:
64,192,73437,1,0,0:0:0:0:
192,192,73437,1,0,0:0:0:0:
448,192,73668,1,0,0:0:0:0:
320,192,73668,1,0,0:0:0:0:
109,192,73783,1,0,0:0:0:0:
256,192,73899,1,0,0:0:0:0:
402,192,73899,1,0,0:0:0:0:
36,192,74014,1,0,0:0:0:0:
192,192,74130,1,0,0:0:0:0:
329,192,74130,1,0,0:0:0:0:
475,192,74245,1,0,0:0:0:0:
402,192,74245,1,0,0:0:0:0:
256,192,74360,1,0,0:0:0:0:
64,192,74476,1,0,0:0:0:0:
109,192,74476,1,0,0:0:0:0:
320,192,74706,1,0,0:0:0:0:
402,192,74706,1,0,0:0:0:0:
192,192,74822,1,0,0:0:0:0:
109,192,74822,1,0,0:0:0:0:
320,192,74937,1,0,0:0:0:0:
402,192,74937,1,0,0:0:0:0:
448,192,75053,1,0,0:0:0:0:
64,192,75053,1,0,0:0:0:0:
256,192,75053,1,0,0:0:0:0:
448,192,75976,1,0,0:0:0:0:
64,192,75976,1,0,0:0:0:0:
256,192,75976,1,0,0:0:0:0:
329,192,76206,1,0,0:0:0:0:
402,192,76206,1,0,0:0:0:0:
256,192,76322,1,0,0:0:0:0:
182,192,76437,1,0,0:0:0:0:
109,192,76437,1,0,0:0:0:0:
402,192,76553,1,0,0:0:0:0:
36,192,76668,1,0,0:0:0:0:
256,192,76668,1,0,0:0:0:0:
182,192,76899,1,0,0:0:0:0:
329,192,76899,1,0,0:0:0:0:
402,192,77130,1,0,0:0:0:0:
109,192,77130,1,0,0:0:0:0:
256,192,77360,1,0,0:0:0:0:
475,192,77360,1,0,0:0:0:0:
402,192,77591,1,0,0:0:0:0:
182,192,77591,1,0,0:0:0:0:
329,192,77822,1,0,0:0:0:0:
109,192,77822,1,0,0:0:0:0:
182,192,78053,1,0,0:0:0:0:
329,192,78053,1,0,0:0:0:0:
402,192,78283,1,0,0:0:0:0:
475,192,78283,1,0,0:0:0:0:
256,192,78399,1,0,0:0:0:0:
36,192,78514,1,0,0:0:0:0:
109,192,78514,1,0,0:0:0:0:
402,192,78630,1,0,0:0:0:0:
475,192,78630,1,0,0:0:0:0:
329,192,78745,1,0,0:0:0:0:
182,192,78745,1,0,0:0:0:0:
256,192,78976,1,0,0:0:0:0:
109,192,79206,1,0,0:0:0:0:
402,192,79206,1,0,0:0:0:0:
36,192,79437,1,0,0:0:0:0:
329,192,79437,1,0,0:0:0:0:
475,192,79668,1,0,0:0:0:0:
182,192,79668,1,0,0:0:0:0:
256,192,79668,1,0,0:0:0:0:
402,192,79899,1,0,0:0:0:0:
109,192,79899,1,0,0:0:0:0:
109,192,80130,1,0,0:0:0:0:
329,192,80130,1,0,0:0:0:0:
182,192,80360,1,0,0:0:0:0:
402,192,80360,1,0,0:0:0:0:
329,192,80591,1,0,0:0:0:0:
36,192,80591,1,0,0:0:0:0:
256,192,80591,1,0,0:0:0:0:
402,192,80822,1,0,0:0:0:0:
182,192,80822,1,0,0:0:0:0:
109,192,81053,1,0,0:0:0:0:
402,192,81053,1,0,0:0:0:0:
329,192,81283,1,0,0:0:0:0:
182,192,81283,1,0,0:0:0:0:
256,192,81514,1,0,0:0:0:0:
475,192,81514,1,0,0:0:0:0:
36,192,81514,1,0,0:0:0:0:
182,192,81745,1,0,0:0:0:0:
402,192,81745,1,0,0:0:0:0:
329,192,81860,1,0,0:0:0:0:
109,192,81860,1,0,0:0:0:0:
256,192,81976,1,0,0:0:0:0:
36,192,81976,1,0,0:0:0:0:
329,192,82206,1,0,0:0:0:0:
182,192,82206,1,0,0:0:0:0:
475,192,82437,1,0,0:0:0:0:
256,192,82437,1,0,0:0:0:0:
329,192,82668,1,0,0:0:0:0:
109,192,82668,1,0,0:0:0:0:
182,192,82899,1,0,0:0:0:0:
402,192,82899,1,0,0:0:0:0:
402,192,83130,1,0,0:0:0:0:
109,192,83130,1,0,0:0:0:0:
329,192,83360,1,0,0:0:0:0:
182,192,83360,1,0,0:0:0:0:
475,192,83360,1,0,0:0:0:0:
36,192,83591,1,0,0:0:0:0:
256,192,83591,1,0,0:0:0:0:
109,192,83706,1,0,0:0:0:0:
329,192,83706,1,0,0:0:0:0:
182,192,83822,1,0,0:0:0:0:
402,192,83822,1,0,0:0:0:0:
256,192,84053,1,0,0:0:0:0:
475,192,84053,1,0,0:0:0:0:
402,192,84283,1,0,0:0:0:0:
182,192,84283,1,0,0:0:0:0:
36,192,84514,1,0,0:0:0:0:
256,192,84514,1,0,0:0:0:0:
109,192,84745,1,0,0:0:0:0:
402,192,84745,1,0,0:0:0:0:
475,192,84976,1,0,0:0:0:0:
256,192,84976,1,0,0:0:0:0:
182,192,85206,1,0,0:0:0:0:
329,192,85206,1,0,0:0:0:0:
256,192,85437,1,0,0:0:0:0:
402,192,85437,1,0,0:0:0:0:
36,192,85553,1,0,0:0:0:0:
329,192,85668,1,0,0:0:0:0:
182,192,85668,1,0,0:0:0:0:
475,192,85783,1,0,0:0:0:0:
256,192,85899,1,0,0:0:0:0:
109,192,85899,1,0,0:0:0:0:
182,192,86130,1,0,0:0:0:0:
402,192,86130,1,0,0:0:0:0:
256,192,86360,1,0,0:0:0:0:
109,192,86591,1,0,0:0:0:0:
402,192,86591,1,0,0:0:0:0:
329,192,86822,1,0,0:0:0:0:
182,192,86822,1,0,0:0:0:0:
109,192,87053,1,0,0:0:0:0:
402,192,87053,1,0,0:0:0:0:
256,192,87053,1,0,0:0:0:0:
109,192,87283,1,0,0:0:0:0:
402,192,87283,1,0,0:0:0:0:
182,192,87514,1,0,0:0:0:0:
475,192,87514,1,0,0:0:0:0:
256,192,87514,1,0,0:0:0:0:
475,192,87745,1,0,0:0:0:0:
182,192,87745,1,0,0:0:0:0:
109,192,87976,1,0,0:0:0:0:
402,192,87976,1,0,0:0:0:0:
256,192,87976,1,0,0:0:0:0:
109,192,88206,1,0,0:0:0:0:
402,192,88206,1,0,0:0:0:0:
329,192,88437,1,0,0:0:0:0:
36,192,88437,1,0,0:0:0:0:
256,192,88437,1,0,0:0:0:0:
329,192,88668,1,0,0:0:0:0:
36,192,88668,1,0,0:0:0:0:
182,192,88899,1,0,0:0:0:0:
402,192,88899,1,0,0:0:0:0:
475,192,89130,1,0,0:0:0:0:
256,192,89130,1,0,0:0:0:0:
329,192,89360,1,0,0:0:0:0:
109,192,89360,1,0,0:0:0:0:
256,192,89591,5,0,0:0:0:0:
36,192,89591,1,0,0:0:0:0:
329,192,89822,1,0,0:0:0:0:
402,192,89822,1,0,0:0:0:0:
182,192,89937,1,0,0:0:0:0:
109,192,89937,1,0,0:0:0:0:
329,192,90053,1,0,0:0:0:0:
402,192,90053,1,0,0:0:0:0:
182,192,90168,1,0,0:0:0:0:
109,192,90168,1,0,0:0:0:0:
329,192,90283,1,0,0:0:0:0:
402,192,90283,1,0,0:0:0:0:
182,192,90399,1,0,0:0:0:0:
109,192,90399,1,0,0:0:0:0:
329,192,90514,1,0,0:0:0:0:
402,192,90514,1,0,0:0:0:0:
182,192,90630,1,0,0:0:0:0:
109,192,90630,1,0,0:0:0:0:
475,192,90745,5,0,0:0:0:0:
256,192,90745,1,0,0:0:0:0:
36,192,90745,1,0,0:0:0:0:
182,192,90976,1,0,0:0:0:0:
109,192,90976,1,0,0:0:0:0:
256,192,91091,1,0,0:0:0:0:
329,192,91206,1,0,0:0:0:0:
402,192,91206,1,0,0:0:0:0:
109,192,91322,1,0,0:0:0:0:
475,192,91437,1,0,0:0:0:0:
256,192,91437,1,0,0:0:0:0:
329,192,91668,1,0,0:0:0:0:
182,192,91668,1,0,0:0:0:0:
109,192,91899,1,0,0:0:0:0:
402,192,91899,1,0,0:0:0:0:
256,192,92130,1,0,0:0:0:0:
36,192,92130,1,0,0:0:0:0:
109,192,92360,1,0,0:0:0:0:
329,192,92360,1,0,0:0:0:0:
182,192,92591,1,0,0:0:0:0:
402,192,92591,1,0,0:0:0:0:
329,192,92822,1,0,0:0:0:0:
182,192,92822,1,0,0:0:0:0:
109,192,93053,1,0,0:0:0:0:
36,192,93053,1,0,0:0:0:0:
256,192,93168,1,0,0:0:0:0:
475,192,93283,1,0,0:0:0:0:
402,192,93283,1,0,0:0:0:0:
109,192,93399,1,0,0:0:0:0:
36,192,93399,1,0,0:0:0:0:
182,192,93514,1,0,0:0:0:0:
329,192,93514,1,0,0:0:0:0:
256,192,93745,1,0,0:0:0:0:
402,192,93976,1,0,0:0:0:0:
109,192,93976,1,0,0:0:0:0:
475,192,94206,1,0,0:0:0:0:
182,192,94206,1,0,0:0:0:0:
36,192,94437,1,0,0:0:0:0:
329,192,94437,1,0,0:0:0:0:
256,192,94437,1,0,0:0:0:0:
109,192,94668,1,0,0:0:0:0:
402,192,94668,1,0,0:0:0:0:
402,192,94899,1,0,0:0:0:0:
182,192,94899,1,0,0:0:0:0:
329,192,95130,1,0,0:0:0:0:
109,192,95130,1,0,0:0:0:0:
182,192,95360,1,0,0:0:0:0:
475,192,95360,1,0,0:0:0:0:
256,192,95360,1,0,0:0:0:0:
109,192,95591,1,0,0:0:0:0:
329,192,95591,1,0,0:0:0:0:
402,192,95822,1,0,0:0:0:0:
109,192,95822,1,0,0:0:0:0:
182,192,96053,1,0,0:0:0:0:
329,192,96053,1,0,0:0:0:0:
256,192,96283,1,0,0:0:0:0:
36,192,96283,1,0,0:0:0:0:
475,192,96283,1,0,0:0:0:0:
329,192,96514,1,0,0:0:0:0:
109,192,96514,1,0,0:0:0:0:
182,192,96630,1,0,0:0:0:0:
402,192,96630,1,0,0:0:0:0:
256,192,96745,1,0,0:0:0:0:
475,192,96745,1,0,0:0:0:0:
182,192,96976,1,0,0:0:0:0:
329,192,96976,1,0,0:0:0:0:
36,192,97206,1,0,0:0:0:0:
256,192,97206,1,0,0:0:0:0:
182,192,97437,1,0,0:0:0:0:
402,192,97437,1,0,0:0:0:0:
329,192,97668,1,0,0:0:0:0:
109,192,97668,1,0,0:0:0:0:
109,192,97899,1,0,0:0:0:0:
402,192,97899,1,0,0:0:0:0:
182,192,98130,1,0,0:0:0:0:
329,192,98130,1,0,0:0:0:0:
36,192,98130,1,0,0:0:0:0:
475,192,98360,1,0,0:0:0:0:
256,192,98360,1,0,0:0:0:0:
402,192,98476,1,0,0:0:0:0:
182,192,98476,1,0,0:0:0:0:
329,192,98591,1,0,0:0:0:0:
109,192,98591,1,0,0:0:0:0:
256,192,98822,1,0,0:0:0:0:
36,192,98822,1,0,0:0:0:0:
109,192,99053,1,0,0:0:0:0:
329,192,99053,1,0,0:0:0:0:
475,192,99283,1,0,0:0:0:0:
256,192,99283,1,0,0:0:0:0:
402,192,99514,1,0,0:0:0:0:
109,192,99514,1,0,0:0:0:0:
36,192,99745,1,0,0:0:0:0:
256,192,99745,1,0,0:0:0:0:
329,192,99976,1,0,0:0:0:0:
182,192,99976,1,0,0:0:0:0:
256,192,100206,1,0,0:0:0:0:
109,192,100206,1,0,0:0:0:0:
475,192,100322,1,0,0:0:0:0:
182,192,100437,1,0,0:0:0:0:
329,192,100437,1,0,0:0:0:0:
36,192,100553,1,0,0:0:0:0:
256,192,100668,1,0,0:0:0:0:
402,192,100668,1,0,0:0:0:0:
329,192,100899,1,0,0:0:0:0:
109,192,100899,1,0,0:0:0:0:
256,192,101130,1,0,0:0:0:0:
402,192,101360,1,0,0:0:0:0:
109,192,101360,1,0,0:0:0:0:
182,192,101591,1,0,0:0:0:0:
329,192,101591,1,0,0:0:0:0:
402,192,101822,1,0,0:0:0:0:
475,192,101822,1,0,0:0:0:0:
36,192,101937,1,0,0:0:0:0:
109,192,101937,1,0,0:0:0:0:
402,192,102053,1,0,0:0:0:0:
475,192,102053,1,0,0:0:0:0:
109,192,102168,1,0,0:0:0:0:
36,192,102168,1,0,0:0:0:0:
402,192,102283,1,0,0:0:0:0:
475,192,102283,1,0,0:0:0:0:
109,192,102399,1,0,0:0:0:0:
36,192,102399,1,0,0:0:0:0:
402,192,102514,1,0,0:0:0:0:
475,192,102514,1,0,0:0:0:0:
109,192,102630,1,0,0:0:0:0:
36,192,102630,1,0,0:0:0:0:
329,192,102976,1,0,0:0:0:0:
182,192,102976,1,0,0:0:0:0:
475,192,103206,1,0,0:0:0:0:
402,192,103206,1,0,0:0:0:0:
36,192,103322,1,0,0:0:0:0:
256,192,103322,1,0,0:0:0:0:
109,192,103437,1,0,0:0:0:0:
329,192,103437,1,0,0:0:0:0:
182,192,103553,1,0,0:0:0:0:
402,192,103553,1,0,0:0:0:0:
475,192,103668,1,0,0:0:0:0:
256,192,103668,1,0,0:0:0:0:
36,192,103668,1,0,0:0:0:0:
182,192,103783,1,0,0:0:0:0:
402,192,103899,1,0,0:0:0:0:
329,192,103899,1,0,0:0:0:0:
109,192,104014,1,0,0:0:0:0:
256,192,104130,1,0,0:0:0:0:
475,192,104130,1,0,0:0:0:0:
109,192,104360,1,0,0:0:0:0:
329,192,104360,1,0,0:0:0:0:
402,192,104591,1,0,0:0:0:0:
36,192,104591,1,0,0:0:0:0:
182,192,104822,1,0,0:0:0:0:
329,192,104822,1,0,0:0:0:0:
402,192,105053,1,0,0:0:0:0:
182,192,105053,1,0,0:0:0:0:
256,192,105283,1,0,0:0:0:0:
109,192,105283,1,0,0:0:0:0:
402,192,105399,1,0,0:0:0:0:
36,192,105514,1,0,0:0:0:0:
182,192,105514,1,0,0:0:0:0:
329,192,105630,1,0,0:0:0:0:
256,192,105745,1,0,0:0:0:0:
475,192,105745,1,0,0:0:0:0:
109,192,105860,1,0,0:0:0:0:
402,192,105976,1,0,0:0:0:0:
182,192,105976,1,0,0:0:0:0:
109,192,106206,1,0,0:0:0:0:
329,192,106206,1,0,0:0:0:0:
402,192,106437,1,0,0:0:0:0:
182,192,106437,1,0,0:0:0:0:
182,192,106668,1,0,0:0:0:0:
329,192,106668,1,0,0:0:0:0:
402,192,106899,1,0,0:0:0:0:
109,192,106899,1,0,0:0:0:0:
402,192,107130,1,0,0:0:0:0:
182,192,107130,1,0,0:0:0:0:
256,192,107360,1,0,0:0:0:0:
36,192,107360,1,0,0:0:0:0:
475,192,107476,1,0,0:0:0:0:
329,192,107591,1,0,0:0:0:0:
109,192,107591,1,0,0:0:0:0:
256,192,107706,1,0,0:0:0:0:
182,192,107822,1,0,0:0:0:0:
402,192,107822,1,0,0:0:0:0:
329,192,108053,1,0,0:0:0:0:
109,192,108053,1,0,0:0:0:0:
256,192,108283,1,0,0:0:0:0:
109,192,108283,1,0,0:0:0:0:
402,192,108514,1,0,0:0:0:0:
182,192,108514,1,0,0:0:0:0:
329,192,108745,1,0,0:0:0:0:
109,192,108745,1,0,0:0:0:0:
182,192,108976,1,0,0:0:0:0:
402,192,108976,1,0,0:0:0:0:
256,192,109206,1,0,0:0:0:0:
475,192,109206,1,0,0:0:0:0:
182,192,109437,1,0,0:0:0:0:
402,192,109437,1,0,0:0:0:0:
329,192,109553,1,0,0:0:0:0:
109,192,109553,1,0,0:0:0:0:
256,192,109668,1,0,0:0:0:0:
36,192,109668,1,0,0:0:0:0:
109,192,109899,1,0,0:0:0:0:
329,192,109899,1,0,0:0:0:0:
402,192,110130,1,0,0:0:0:0:
109,192,110130,1,0,0:0:0:0:
329,192,110360,1,0,0:0:0:0:
182,192,110360,1,0,0:0:0:0:
475,192,110591,1,0,0:0:0:0:
256,192,110591,1,0,0:0:0:0:
329,192,110706,1,0,0:0:0:0:
402,192,110822,1,0,0:0:0:0:
182,192,110822,1,0,0:0:0:0:
256,192,110937,1,0,0:0:0:0:
329,192,111053,1,0,0:0:0:0:
109,192,111053,1,0,0:0:0:0:
475,192,111168,1,0,0:0:0:0:
36,192,111283,1,0,0:0:0:0:
256,192,111283,1,0,0:0:0:0:
182,192,111399,1,0,0:0:0:0:
109,192,111514,1,0,0:0:0:0:
402,192,111514,1,0,0:0:0:0:
182,192,111745,1,0,0:0:0:0:
329,192,111745,1,0,0:0:0:0:
402,192,111976,1,0,0:0:0:0:
182,192,111976,1,0,0:0:0:0:
109,192,112206,1,0,0:0:0:0:
329,192,112206,1,0,0:0:0:0:
402,192,112437,1,0,0:0:0:0:
256,192,112437,1,0,0:0:0:0:
402,192,112668,1,0,0:0:0:0:
182,192,112668,1,0,0:0:0:0:
256,192,112783,1,0,0:0:0:0:
109,192,112899,1,0,0:0:0:0:
329,192,112899,1,0,0:0:0:0:
182,192,113014,1,0,0:0:0:0:
256,192,113130,1,0,0:0:0:0:
36,192,113130,1,0,0:0:0:0:
402,192,113245,1,0,0:0:0:0:
182,192,113360,1,0,0:0:0:0:
329,192,113360,1,0,0:0:0:0:
329,192,113591,1,0,0:0:0:0:
109,192,113591,1,0,0:0:0:0:
402,192,113822,1,0,0:0:0:0:
109,192,113822,1,0,0:0:0:0:
182,192,114053,1,0,0:0:0:0:
402,192,114053,1,0,0:0:0:0:
256,192,114283,1,0,0:0:0:0:
36,192,114283,1,0,0:0:0:0:
109,192,114399,1,0,0:0:0:0:
402,192,114514,1,0,0:0:0:0:
182,192,114514,1,0,0:0:0:0:
329,192,114630,1,0,0:0:0:0:
475,192,114745,1,0,0:0:0:0:
256,192,114745,1,0,0:0:0:0:
109,192,114860,1,0,0:0:0:0:
402,192,114976,1,0,0:0:0:0:
182,192,114976,1,0,0:0:0:0:
256,192,115091,1,0,0:0:0:0:
329,192,115206,1,0,0:0:0:0:
109,192,115206,1,0,0:0:0:0:
182,192,115437,1,0,0:0:0:0:
329,192,115437,1,0,0:0:0:0:
402,192,115668,1,0,0:0:0:0:
182,192,115668,1,0,0:0:0:0:
109,192,115899,1,0,0:0:0:0:
402,192,115899,1,0,0:0:0:0:
182,192,116130,1,0,0:0:0:0:
329,192,116130,1,0,0:0:0:0:
36,192,116360,1,0,0:0:0:0:
256,192,116360,1,0,0:0:0:0:
109,192,116591,1,0,0:0:0:0:
402,192,116591,1,0,0:0:0:0:
329,192,116822,1,0,0:0:0:0:
475,192,116822,1,0,0:0:0:0:
109,192,116937,1,0,0:0:0:0:
402,192,117053,1,0,0:0:0:0:
256,192,117053,1,0,0:0:0:0:
36,192,117168,1,0,0:0:0:0:
182,192,117283,1,0,0:0:0:0:
329,192,117283,1,0,0:0:0:0:
475,192,117399,1,0,0:0:0:0:
256,192,117514,1,0,0:0:0:0:
109,192,117514,1,0,0:0:0:0:
402,192,117630,1,0,0:0:0:0:
182,192,117745,1,0,0:0:0:0:
36,192,117745,1,0,0:0:0:0:
329,192,117860,1,0,0:0:0:0:
109,192,117976,1,0,0:0:0:0:
256,192,117976,1,0,0:0:0:0:
329,192,118206,1,0,0:0:0:0:
182,192,118206,1,0,0:0:0:0:
475,192,118437,1,0,0:0:0:0:
36,192,118437,1,0,0:0:0:0:
256,192,118437,1,0,0:0:0:0:
