osu file format v14

[General]
AudioFilename: audio.mp3
AudioLeadIn: 0
PreviewTime: 74134
Countdown: 0
SampleSet: Soft
StackLeniency: 0.5
Mode: 0
LetterboxInBreaks: 0
WidescreenStoryboard: 0

[Editor]
Bookmarks: 15807,30576,45345,60114,74884,89653,102576,117345,132114,145038,159807,174576,191191,205961,222576,242884,257422
DistanceSpacing: 0.6
BeatDivisor: 4
GridSize: 32
TimelineZoom: 3.899998

[Metadata]
Title:Yoru ni Kakeru
TitleUnicode:夜に駆ける
Artist:YOASOBI
ArtistUnicode:YOASOBI
Creator:Smug Nanachi
Version:Running away
Source:
Tags:smugna Racing into the Night Japanese Pop 幾田りら Ikuta Lilas Ayase ikura jpop j-pop ducky- -eresh
BeatmapID:2581265
BeatmapSetID:1241588

[Difficulty]
HPDrainRate:5.5
CircleSize:4.5
OverallDifficulty:9.2
ApproachRate:9.5
SliderMultiplier:3
SliderTickRate:1

[Events]
//Background and Video events
0,0,"bg.jpg",0,0
//Break Periods
//Storyboard Layer 0 (Background)
//Storyboard Layer 1 (Fail)
//Storyboard Layer 2 (Pass)
//Storyboard Layer 3 (Foreground)
//Storyboard Layer 4 (Overlay)
//Storyboard Sound Samples

[TimingPoints]
1038,461.538461538462,4,2,1,50,1,0
1038,-200,4,2,1,50,0,0
8422,-133.333333333333,4,2,1,60,0,0
15345,-100,4,2,1,70,0,0
15807,-100,4,2,1,90,0,0
30345,-133.333333333333,4,2,1,80,0,0
30576,-133.333333333333,4,2,1,70,0,0
45345,-133.333333333333,4,2,1,80,0,0
60114,-100,4,2,1,80,0,0
61153,-133.333333333333,4,2,1,70,0,0
61961,-100,4,2,1,80,0,0
62999,-133.333333333333,4,2,1,70,0,0
66576,-100,4,2,1,80,0,0
67499,-133.333333333333,4,2,1,80,0,0
73038,-100,4,2,1,90,0,0
73211,-100,4,2,1,90,0,0
73268,-100,4,2,1,90,0,0
74884,-100,4,2,1,90,0,1
87807,-76.9230769230769,4,2,1,90,0,1
87980,-76.9230769230769,4,2,1,5,0,1
88038,-76.9230769230769,4,2,1,90,0,1
88211,-76.9230769230769,4,2,1,5,0,1
88268,-76.9230769230769,4,2,1,90,0,1
88441,-76.9230769230769,4,2,1,5,0,1
88499,-100,4,2,1,90,0,1
89653,-100,4,2,1,90,0,1
101538,-333.333333333333,4,2,1,90,0,1
101826,-333.333333333333,4,2,1,90,0,1
101884,-76.9230769230769,4,2,1,90,0,1
102114,-100,4,2,1,70,0,0
102576,-100,4,2,1,90,0,0
117114,-133.333333333333,4,2,1,70,0,0
130499,-100,4,2,1,80,0,0
132114,-100,4,2,1,90,0,1
135114,-76.9230769230769,4,2,1,90,0,1
135345,-100,4,2,1,90,0,1
138807,-76.9230769230769,4,2,1,90,0,1
139038,-100,4,2,1,90,0,1
145038,-133.333333333333,4,2,1,60,0,0
152422,-133.333333333333,4,2,1,70,0,0
159345,-66.6666666666667,4,2,1,90,0,0
159807,-100,4,2,1,90,0,1
174576,-100,4,2,1,80,0,0
175614,-133.333333333333,4,2,1,70,0,0
176422,-100,4,2,1,80,0,0
177461,-133.333333333333,4,2,1,70,0,0
181038,-100,4,2,1,80,0,0
181961,-133.333333333333,4,2,1,80,0,0
185653,-100,4,2,1,80,0,0
190499,-500,4,2,1,50,0,0
191191,-200,4,2,1,50,0,0
198576,-133.333333333333,4,2,1,60,0,0
204114,-333.333333333333,4,2,1,60,0,0
205961,-100,4,2,1,75,0,1
207114,-83.3333333333333,4,2,1,83,0,1
207807,-83.3333333333333,4,2,1,90,0,1
220730,-66.6666666666667,4,2,1,90,0,1
220903,-66.6666666666667,4,2,1,5,0,1
220961,-66.6666666666667,4,2,1,90,0,1
221134,-66.6666666666667,4,2,1,5,0,1
221191,-66.6666666666667,4,2,1,90,0,1
221364,-66.6666666666667,4,2,1,5,0,1
221422,-66.6666666666667,4,2,1,90,0,1
222576,-76.9230769230769,4,2,1,90,0,1
241845,-200,4,2,1,90,0,1
242134,-200,4,2,1,5,0,1
242191,-66.6666666666667,4,2,1,90,0,1
242422,-100,4,2,1,60,0,0
242884,-100,4,2,1,90,0,0

[Colours]
Combo1 : 0,198,255
Combo2 : 149,149,255
Combo3 : 81,81,164
Combo4 : 150,207,254

[HitObjects]
278,341,576,5,0,0:0:0:0:
278,341,807,1,0,0:0:0:0:
312,269,1038,2,0,B|312:201|276:233|275:149,2,112.5,2|0|0,0:0|0:0|0:0,0:0:0:0:
374,319,1961,1,2,0:0:0:0:
460,199,2191,5,0,0:0:0:0:
438,186,2422,1,0,0:0:0:0:
438,213,2653,1,0,0:0:0:0:
330,105,2884,6,0,P|302:128|265:128,1,75,2|0,0:0|0:0,0:0:0:0:
265,128,3230,2,0,P|245:122|227:124,1,37.5
84,57,3461,6,0,P|91:82|73:60,1,75
82,73,3807,2,0,B|167:5|299:-7|299:-7|272:10|269:50,1,300,2|2,0:0|0:0,0:0:0:0:
352,63,5653,5,2,0:0:0:0:
363,172,6576,1,2,0:0:0:0:
243,182,7499,1,2,0:0:0:0:
168,126,7961,5,0,0:0:0:0:
168,126,8191,1,0,0:0:0:0:
169,264,8422,6,0,L|154:116,1,112.500004291535,2|0,1:2|0:0,0:0:0:0:
89,85,8768,2,0,B|73:110|73:110|75:137,1,56.2500021457673,2|0,0:0|1:0,0:0:0:0:
243,182,8999,1,2,0:0:0:0:
243,182,9114,2,0,B|259:157|259:157|257:130,1,56.2500021457673,2|0,0:0|0:0,0:0:0:0:
186,47,9345,1,2,1:2:0:0:
342,0,9576,5,2,0:0:0:0:
332,14,9691,1,0,0:0:0:0:
325,27,9807,2,0,L|339:111,1,56.2500021457673,2|0,1:2|0:0,0:0:0:0:
405,123,10038,2,0,L|395:178,1,56.2500021457673,2|0,0:0|0:0,0:0:0:0:
512,260,10268,6,0,P|491:241|463:237,1,56.2500021457673,2|0,1:2|0:0,0:0:0:0:
446,266,10499,2,0,P|418:270|397:288,1,56.2500021457673,2|0,0:0|0:0,0:0:0:0:
321,384,10730,6,0,P|325:351|310:321,1,56.2500021457673,2|0,1:2|0:0,0:0:0:0:
328,244,10961,2,0,P|298:227|266:230,1,56.2500021457673,2|0,0:0|0:0,0:0:0:0:
175,267,11191,5,0,1:0:0:0:
82,146,11422,5,2,0:0:0:0:
82,146,11538,1,0,0:0:0:0:
82,146,11653,2,0,P|118:132|134:95,1,56.2500021457673,2|0,1:2|0:0,0:0:0:0:
195,0,11884,1,2,0:0:0:0:
195,0,11999,1,0,0:0:0:0:
195,0,12114,6,0,B|161:84|234:80|192:167,2,168.750006437302,2|2|2,1:2|0:0|0:0,0:0:0:0:
434,90,13038,6,0,P|402:82|323:111,1,112.500004291535,2|0,1:2|0:0,0:0:0:0:
287,176,13384,1,0,0:0:0:0:
282,180,13499,2,0,P|272:207|267:241,1,56.2500021457673,2|0,1:2|0:0,0:0:0:0:
401,291,13730,1,0,0:0:0:0:
397,284,13845,1,0,0:0:0:0:
392,278,13961,1,0,0:0:0:0:
285,227,15345,5,2,0:0:0:0:
254,220,15461,1,2,0:0:0:0:
214,181,15576,1,2,0:0:0:0:
205,99,15691,1,2,0:0:0:0:
276,45,15807,5,6,1:2:0:0:
297,65,15922,2,0,P|334:68|368:45,1,75,2|0,3:2|0:0,0:0:0:0:
512,189,16153,2,0,B|430:202|451:144|345:163,1,150,2|0,3:2|0:0,0:0:0:0:
285,227,16499,2,0,L|270:327,1,75,2|0,3:2|0:0,0:0:0:0:
93,297,16730,6,0,B|86:261|46:243|46:243|85:231|100:194,2,150,2|2|10,1:2|3:2|0:0,0:0:0:0:
246,201,17307,1,0,3:0:0:0:
254,193,17422,5,2,3:2:0:0:
278,121,17538,1,2,3:2:0:0:
243,52,17653,5,2,1:2:0:0:
221,33,17768,2,0,L|128:55,1,75,2|0,3:2|0:0,0:0:0:0:
26,155,17999,2,0,B|98:166|98:166|107:163|107:163|188:178,1,150,2|0,3:2|0:0,0:0:0:0:
263,293,18345,2,0,P|284:263|277:227,1,75,2|0,3:2|0:0,0:0:0:0:
344,0,18576,6,0,B|321:88|375:61|355:145,1,150,2|2,1:2|3:2,0:0:0:0:
435,185,18922,1,0,3:0:0:0:
441,188,19038,2,0,B|461:157|461:157|449:111,1,75,10|0,0:0|0:0,0:0:0:0:
266,47,19268,2,0,B|245:77|245:77|258:124,1,75,2|0,0:0|0:0,0:0:0:0:
339,321,19499,5,2,1:2:0:0:
361,297,19614,2,0,P|402:301|454:313,1,75,2|0,3:2|0:0,0:0:0:0:
254,193,19845,2,0,P|155:221|80:235,1,150,2|0,3:2|0:0,0:0:0:0:
251,352,20191,2,0,B|259:324|259:324|237:261,1,75,2|0,3:2|0:0,0:0:0:0:
66,126,20422,6,0,P|98:144|135:147,1,75,2|0,1:2|0:0,0:0:0:0:
289,32,20653,2,0,P|252:35|220:55,1,75,2|0,3:2|0:0,0:0:0:0:
66,126,20884,6,0,L|77:52,1,75,10|0,0:0|0:0,0:0:0:0:
264,118,21114,2,0,L|253:192,1,75,2|0,3:2|0:0,0:0:0:0:
73,355,21345,6,0,L|83:280,1,75,2|0,1:2|0:0,0:0:0:0:
139,164,21576,1,2,3:2:0:0:
153,138,21691,2,0,L|188:315,1,150,2|0,3:2|0:0,0:0:0:0:
303,361,22038,2,0,P|338:370|369:351,1,75,2|0,3:2|0:0,0:0:0:0:
353,151,22268,2,0,B|285:123|285:123|252:193,1,150,2|2,1:2|3:2,0:0:0:0:
328,248,22614,1,0,3:0:0:0:
336,254,22730,5,10,0:0:0:0:
369,269,22845,1,2,3:2:0:0:
425,253,22961,1,2,3:2:0:0:
468,190,23076,1,2,3:2:0:0:
440,107,23191,5,6,1:2:0:0:
418,73,23307,2,0,P|408:118|401:171,1,75,2|0,3:2|0:0,0:0:0:0:
320,293,23538,2,0,P|251:263|177:261,1,150,2|0,3:2|0:0,0:0:0:0:
126,137,23884,2,0,P|161:144|180:175,1,75,2|0,3:2|0:0,0:0:0:0:
86,359,24114,6,0,B|124:277|63:298|101:214,2,150,2|2|10,1:2|3:2|0:0,0:0:0:0:
178,262,24691,1,0,3:0:0:0:
190,259,24807,5,2,3:2:0:0:
270,270,24922,1,2,3:2:0:0:
270,349,25038,5,2,1:2:0:0:
294,370,25153,2,0,B|331:380|331:380|365:368,1,75,2|0,3:2|0:0,0:0:0:0:
465,243,25384,2,0,L|483:53,1,150,2|0,3:2|0:0,0:0:0:0:
373,125,25730,2,0,B|353:160|353:160|362:193,1,75,2|0,3:2|0:0,0:0:0:0:
489,384,25961,2,0,B|518:342|518:342|423:312,1,150,2|2,1:2|3:2,0:0:0:0:
327,277,26307,1,0,3:0:0:0:
327,277,26422,5,10,0:0:0:0:
299,290,26538,1,2,3:2:0:0:
235,293,26653,1,2,3:2:0:0:
175,247,26768,1,2,3:2:0:0:
176,154,26884,5,2,1:2:0:0:
198,143,26999,2,0,P|218:118|204:64,1,75,2|0,3:2|0:0,0:0:0:0:
31,0,27230,2,0,P|6:80|56:158,1,150,2|0,3:2|0:0,0:0:0:0:
109,109,27576,2,0,P|117:72|126:35,1,75,2|0,3:2|0:0,0:0:0:0:
0,215,27807,6,0,L|23:309,1,75,2|0,1:2|0:0,0:0:0:0:
140,310,28038,2,0,L|126:384,1,75,2|0,3:2|0:0,0:0:0:0:
98,237,28268,6,0,L|113:164,1,75,10|0,0:0|0:0,0:0:0:0:
227,244,28499,2,0,L|244:316,1,75,2|0,3:2|0:0,0:0:0:0:
333,72,28730,5,4,1:2:0:0:
484,148,28961,5,2,3:2:0:0:
464,134,29076,1,2,3:2:0:0:
410,129,29191,1,10,0:2:0:0:
348,161,29307,1,2,3:2:0:0:
271,145,29422,1,2,3:2:0:0:
232,70,29538,1,2,3:2:0:0:
295,0,29653,5,2,1:2:0:0:
260,70,29768,1,2,3:2:0:0:
190,67,29884,1,2,3:2:0:0:
155,37,29999,1,2,3:2:0:0:
135,36,30114,1,10,0:2:0:0:
0,194,30345,6,0,P|2:165|15:140,1,56.2500021457673,2|0,0:0|0:0,0:0:0:0:
15,141,30576,2,0,B|83:133|63:175|152:160,1,112.500004291535,6|2,1:2|3:2,0:0:0:0:
203,187,30922,1,0,3:2:0:0:
203,187,31038,2,0,L|181:317,2,112.500004291535,2|2|0,1:2|3:2|1:2,0:2:0:0:
424,126,31730,6,0,P|450:116|477:110,1,56.2500021457673,2|0,3:2|0:2,0:2:0:0:
367,35,31961,2,0,P|339:28|313:19,1,56.2500021457673,2|0,1:2|0:2,0:2:0:0:
340,219,32191,2,0,P|325:165|346:115,1,112.500004291535,2|0,3:2|1:2,0:2:0:0:
491,310,32653,2,0,B|446:279|446:279|372:298,1,112.500004291535,2|0,3:2|1:2,0:2:0:0:
238,300,33114,5,2,3:2:0:0:
238,300,33230,1,0,3:2:0:0:
238,300,33345,2,0,L|220:382,1,56.2500021457673,2|0,1:2|0:2,0:2:0:0:
195,220,33576,2,0,L|207:165,1,56.2500021457673,2|0,3:2|0:2,0:2:0:0:
302,246,33807,6,0,L|404:215,1,56.2500021457673,2|0,1:2|0:2,0:2:0:0:
146,293,34038,2,0,L|92:309,1,56.2500021457673,2|0,3:2|0:2,0:2:0:0:
224,87,34268,6,0,P|274:107|287:160,1,112.500004291535,2|2,1:2|3:2,0:2:0:0:
228,218,34614,1,0,3:2:0:0:
222,226,34730,6,0,P|215:253|226:279,1,56.2500021457673,2|0,1:2|0:2,0:2:0:0:
306,298,34961,2,0,P|312:271|301:245,1,56.2500021457673,2|0,3:2|0:2,0:2:0:0:
148,174,35191,2,0,L|92:163,1,56.2500021457673,2|0,1:2|0:2,0:2:0:0:
33,252,35422,6,0,L|89:242,1,56.2500021457673,2|0,3:2|0:2,0:2:0:0:
168,97,35653,2,0,L|224:87,1,56.2500021457673,2|0,1:2|0:2,0:2:0:0:
365,171,35884,5,2,3:2:0:0:
365,171,35999,1,0,3:2:0:0:
364,171,36114,2,0,P|383:151|384:124,1,56.2500021457673,2|0,1:2|0:2,0:2:0:0:
324,0,36345,2,0,P|302:92|316:134,1,112.500004291535,2|0,3:2|1:2,0:2:0:0:
436,277,36807,5,2,3:2:0:0:
436,277,36922,1,0,3:2:0:0:
436,277,37038,2,0,P|388:270|365:257,1,56.2500021457673,2|0,1:2|0:2,0:2:0:0:
359,346,37268,2,0,P|311:353|288:366,1,56.2500021457673,2|0,3:2|0:2,0:2:0:0:
306,231,37499,6,0,P|277:205|269:181,1,56.2500021457673,2|0,1:2|0:2,0:2:0:0:
223,343,37730,2,0,P|194:369|186:393,1,56.2500021457673,2|0,3:2|0:2,0:2:0:0:
155,149,37961,6,0,P|185:196|195:251,1,112.500004291535,6|2,1:2|3:2,0:2:0:0:
74,345,38307,1,0,3:2:0:0:
74,345,38422,2,0,P|104:297|114:242,1,112.500004291535,10|2,0:2|3:2,0:2:0:0:
64,107,38768,1,0,3:2:0:0:
61,102,38884,6,0,P|33:107|6:148,2,56.2500021457673,2|0|0,1:2|0:2|0:2,0:2:0:0:
155,149,39230,2,0,P|175:167|202:172,1,56.2500021457673,2|8,3:2|0:2,0:2:0:0:
279,5,39576,6,0,P|290:54|320:71,1,56.2500021457673,2|0,3:2|0:2,0:2:0:0:
450,124,39807,2,0,B|388:145|399:107|334:128,1,112.500004291535,2|2,1:2|0:2,0:2:0:0:
288,197,40153,2,0,L|275:251,1,56.2500021457673,2|8,3:2|0:2,0:2:0:0:
377,301,40384,5,2,3:2:0:0:
377,301,40499,2,0,L|365:246,1,56.2500021457673,2|0,3:2|0:2,0:2:0:0:
339,126,40730,2,0,L|327:71,2,56.2500021457673,2|0|0,1:2|0:2|0:2,0:2:0:0:
177,256,41191,6,0,P|122:257|88:215,1,112.500004291535,10|2,0:2|3:2,0:2:0:0:
135,153,41538,1,0,3:2:0:0:
143,147,41653,6,0,P|152:120|154:92,1,56.2500021457673,2|0,1:2|0:2,0:2:0:0:
74,0,41884,2,0,P|75:27|85:54,1,56.2500021457673,2|0,3:2|0:2,0:2:0:0:
229,129,42114,6,0,P|261:121|303:121,1,56.2500021457673,10|0,0:2|0:2,0:2:0:0:
341,17,42345,2,0,P|373:24|415:25,1,56.2500021457673,2|0,3:2|0:2,0:2:0:0:
483,150,42576,5,0,1:2:0:0:
331,333,42807,6,0,P|309:313|308:258,1,56.2500021457673,2|0,3:2|0:2,0:2:0:0:
216,276,43038,2,0,P|222:246|269:218,1,56.2500021457673,10|0,0:2|0:2,0:2:0:0:
382,139,43268,2,0,P|437:130|492:119,1,112.500004291535,6|0,3:2|1:2,0:2:0:0:
443,282,43730,2,0,L|358:269,1,56.2500021457673,2|0,3:2|0:2,0:2:0:0:
245,193,43961,5,4,0:3:0:0:
327,210,44076,1,4,3:3:0:0:
256,182,44191,5,4,3:3:0:0:
338,200,44306,1,4,3:3:0:0:
269,270,44422,5,2,1:2:0:0:
339,61,44768,5,2,1:2:0:0:
262,280,45114,6,0,L|188:296,1,56.2500021457673,6|0,1:2|0:0,0:0:0:0:
0,360,45345,2,0,L|154:391,1,112.500004291535,6|0,1:2|3:0,0:0:0:0:
132,307,45691,1,0,3:0:0:0:
132,307,45807,2,0,B|124:286|124:286|149:221|149:221|146:202,2,112.500004291535,10|2|0,0:0|3:2|1:0,0:0:0:0:
30,187,46499,6,0,P|13:166|14:138,1,56.2500021457673,2|0,3:2|0:0,0:0:0:0:
111,82,46730,2,0,P|93:103|94:131,1,56.2500021457673,10|0,0:0|0:0,0:0:0:0:
229,231,46961,2,0,P|273:197|328:190,1,112.500004291535,2|0,3:2|1:0,0:0:0:0:
183,50,47422,2,0,P|127:42|83:9,1,112.500004291535,2|8,3:2|0:0,0:0:0:0:
209,148,47884,5,2,3:2:0:0:
209,148,47999,1,0,3:0:0:0:
209,148,48114,2,0,L|224:212,1,56.2500021457673,2|0,1:2|0:0,0:0:0:0:
279,265,48345,2,0,L|266:319,1,56.2500021457673,2|0,3:2|0:0,0:0:0:0:
169,384,48576,6,0,L|181:329,1,56.2500021457673,10|0,0:2|0:0,0:0:0:0:
367,270,48807,2,0,L|354:215,1,56.2500021457673,2|0,3:2|0:0,0:0:0:0:
248,78,49038,5,2,1:2:0:0:
248,78,49153,1,0,3:0:0:0:
248,78,49268,2,0,P|223:64|196:63,1,56.2500021457673,2|0,3:2|0:0,0:0:0:0:
385,138,49499,2,0,P|412:137|436:123,1,56.2500021457673,10|0,0:2|0:0,0:0:0:0:
335,17,49730,2,0,P|333:51|326:90,1,56.2500021457673,2|0,3:2|0:0,0:0:0:0:
301,266,49961,6,0,B|317:212|282:216|303:155,2,112.500004291535,2|2|10,1:2|3:2|0:2,0:0:0:0:
164,358,50538,1,2,3:2:0:0:
156,362,50653,2,0,B|187:314|187:314|246:334,1,112.500004291535,2|0,3:2|1:0,0:0:0:0:
464,232,51114,2,0,B|411:249|411:249|380:201,1,112.500004291535,2|8,3:2|0:0,0:0:0:0:
304,85,51576,5,2,3:2:0:0:
304,85,51691,1,0,3:0:0:0:
304,85,51807,2,0,P|275:84|248:79,1,56.2500021457673,2|0,1:2|0:0,0:0:0:0:
259,170,52038,2,0,P|230:171|203:176,1,56.2500021457673,2|0,3:2|0:0,0:0:0:0:
67,22,52268,6,0,P|96:21|123:16,1,56.2500021457673,10|0,0:2|0:0,0:0:0:0:
133,144,52499,2,0,P|162:145|189:150,1,56.2500021457673,2|0,3:2|0:0,0:0:0:0:
339,0,52730,6,0,L|321:146,1,112.500004291535,6|0,1:2|3:2,0:0:0:0:
378,180,53076,1,0,3:0:0:0:
378,180,53191,2,0,B|437:180|425:221|490:219,1,112.500004291535,10|0,0:2|3:0,0:0:0:0:
510,107,53538,1,0,3:0:0:0:
512,102,53653,2,0,L|417:129,2,56.2500021457673,2|0|0,1:2|0:0|0:0,0:0:0:0:
393,14,53999,2,0,L|338:-1,1,56.2500021457673,2|8,3:2|0:0,0:0:0:0:
326,242,54345,6,0,P|313:266|311:294,1,56.2500021457673,2|0,3:2|0:0,0:0:0:0:
224,245,54576,2,0,P|214:170|195:115,1,112.500004291535,2|2,1:2|0:0,0:0:0:0:
124,102,54922,2,0,P|122:129|109:154,1,56.2500021457673,2|8,3:2|0:0,0:0:0:0:
60,238,55153,5,2,3:2:0:0:
60,238,55268,2,0,P|34:250|7:251,1,56.2500021457673,2|0,3:2|0:0,0:0:0:0:
164,275,55499,2,0,P|191:275|216:288,2,56.2500021457673,2|0|0,1:2|0:0|0:0,0:0:0:0:
87,384,55961,6,0,P|87:356|100:331,1,56.2500021457673,10|0,0:0|0:0,0:0:0:0:
284,242,56191,2,0,P|296:266|297:293,1,56.2500021457673,2|0,3:2|0:0,0:0:0:0:
163,274,56422,6,0,B|171:223|171:223|168:214|168:214|178:160,1,112.500004291535,2|2,1:2|3:2,0:0:0:0:
230,34,56768,1,2,3:2:0:0:
235,29,56884,2,0,B|285:51|285:51|265:105,2,112.500004291535,10|2|0,0:2|3:2|1:0,0:0:0:0:
12,16,57576,6,0,B|1:40|1:40|14:72,1,56.2500021457673,2|0,3:2|0:0,0:0:0:0:
177,163,57807,2,0,B|191:139|191:139|178:109,1,56.2500021457673,10|0,0:2|0:0,0:0:0:0:
111,51,58038,1,2,3:2:0:0:
111,51,58153,1,0,3:0:0:0:
111,51,58268,2,0,L|91:129,1,56.2500021457673,0|0,1:0|0:0,0:0:0:0:
0,250,58499,2,0,L|140:212,1,112.500004291535,2|8,3:2|0:0,0:0:0:0:
274,270,58961,5,0,3:0:0:0:
274,270,59076,1,0,3:0:0:0:
274,270,59191,1,2,1:2:0:0:
190,78,59422,5,0,3:0:0:0:
206,73,59538,1,0,3:0:0:0:
230,38,59653,5,4,0:3:0:0:
218,120,59768,1,4,0:3:0:0:
206,202,59884,1,4,0:3:0:0:
194,284,59999,1,4,0:3:0:0:
208,301,60114,6,0,L|311:266,1,75,6|0,1:2|0:0,0:0:0:0:
356,371,60345,1,0,3:0:0:0:
331,384,60461,2,0,L|349:303,1,75,2|0,3:2|1:0,0:0:0:0:
487,335,60691,1,0,3:0:0:0:
480,360,60807,2,0,L|402:285,1,75,2|0,3:2|0:0,0:0:0:0:
364,199,61153,5,2,0:0:0:0:
368,180,61269,1,2,0:0:0:0:
372,162,61384,1,2,0:0:0:0:
393,81,61499,2,0,L|253:109,1,112.500004291535,10|2,0:0|0:0,0:0:0:0:
133,70,61961,6,0,B|117:35|117:35|129:-9,1,75,4|0,0:3|0:0,0:0:0:0:
11,87,62191,1,8,0:3:0:0:
0,184,62307,2,0,B|16:219|16:219|6:254,1,75,8|0,0:3|1:0,0:0:0:0:
181,384,62538,1,8,0:3:0:0:
201,292,62653,2,0,B|185:257|185:257|195:222,1,75,8|0,0:3|0:0,0:0:0:0:
266,63,62999,5,2,0:2:0:0:
271,80,63114,1,2,0:2:0:0:
277,98,63229,1,2,0:2:0:0:
346,155,63345,5,10,0:2:0:0:
350,117,63460,1,2,3:2:0:0:
355,80,63575,1,2,3:2:0:0:
359,43,63691,2,0,B|390:45|415:29|415:29|428:56|474:73,1,112.500004291535,6|0,1:2|0:2,0:2:0:0:
505,189,64038,5,2,1:2:0:0:
486,192,64153,1,2,3:2:0:0:
446,262,64268,5,10,0:2:0:0:
411,252,64384,1,2,3:2:0:0:
373,244,64499,1,2,3:2:0:0:
333,238,64614,2,0,B|273:247|298:279|233:282,1,112.500004291535,2|0,1:2|0:2,0:2:0:0:
53,304,64961,5,2,1:2:0:0:
72,307,65076,1,2,3:2:0:0:
106,384,65191,5,10,0:2:0:0:
138,363,65306,1,2,3:2:0:0:
155,330,65421,1,2,3:2:0:0:
154,293,65538,2,0,B|118:150,1,112.500004291535,2|0,1:2|0:2,0:2:0:0:
27,97,65884,2,0,B|-1:206,1,112.500004291535,2|8,1:2|0:2,0:2:0:0:
232,148,66345,5,0,3:0:0:0:
249,141,66461,1,0,3:0:0:0:
237,64,66576,6,0,P|206:148|248:231,1,150,4|8,1:2|0:3,0:0:0:0:
356,304,66922,1,8,0:3:0:0:
430,266,67038,2,0,P|461:182|419:99,1,150,12|4,0:0|0:3,0:0:0:0:
366,105,67384,1,4,0:3:0:0:
308,163,67499,1,4,1:2:0:0:
307,163,67730,6,0,P|299:189|294:217,1,56.2500021457673,2|0,3:2|0:0,0:0:0:0:
355,304,67961,2,0,P|328:308|300:314,1,56.2500021457673,10|0,0:0|0:0,0:0:0:0:
201,213,68191,2,0,P|173:208|145:202,1,56.2500021457673,2|0,3:2|0:0,0:0:0:0:
30,80,68422,6,0,P|107:65|154:48,1,112.500004291535,2|2,1:2|3:2,0:0:0:0:
227,126,68768,1,0,3:2:0:0:
223,132,68884,2,0,B|197:83|240:81|212:23,1,112.500004291535,10|2,0:2|3:2,0:2:0:0:
299,103,69230,1,0,3:2:0:0:
305,107,69345,6,0,B|318:136|318:136|308:158,1,56.2500021457673,2|0,1:2|0:2,0:2:0:0:
146,203,69576,2,0,B|133:174|133:174|142:151,1,56.2500021457673,2|0,3:2|0:2,0:2:0:0:
304,20,69807,2,0,B|332:25|332:25|382:58|382:58|431:61,2,112.500004291535,10|2|0,0:2|3:2|1:2,0:2:0:0:
223,132,70499,6,0,L|240:197,1,56.2500021457673,2|0,3:2|0:2,0:2:0:0:
178,332,70730,2,0,L|288:306,1,112.500004291535,10|2,0:2|3:2,0:2:0:0:
350,254,71076,1,0,3:2:0:0:
350,254,71191,6,0,P|356:226|374:205,1,56.2500021457673,2|0,1:2|0:2,0:2:0:0:
500,158,71422,2,0,P|459:165|427:148,1,56.2500021457673,2|0,3:2|0:2,0:2:0:0:
341,77,71653,2,0,P|361:95|370:122,1,56.2500021457673,10|0,0:2|0:2,0:2:0:0:
288,306,71884,2,0,P|263:258|284:207,1,112.500004291535,2|0,3:2|1:2,0:2:0:0:
88,67,72345,5,0,3:0:0:0:
88,67,72461,1,0,3:0:0:0:
68,117,72576,5,4,0:3:0:0:
139,83,72691,1,4,0:3:0:0:
106,12,72807,1,4,0:3:0:0:
34,45,72922,1,4,0:3:0:0:
135,163,73038,6,0,L|259:177,1,112.5,6|0,1:2|0:0,0:0:0:0:
271,180,73268,1,2,0:2:0:0:
106,238,73384,1,2,1:2:0:0:
106,238,73614,5,2,1:2:0:0:
149,307,73730,1,2,1:2:0:0:
135,163,73845,5,2,1:2:0:0:
120,382,73961,1,2,1:2:0:0:
326,270,74884,6,0,P|361:204|349:132,1,150,6|0,1:2|0:2,0:2:0:0:
207,251,75230,2,0,P|198:286|169:308,1,75,2|8,3:2|0:2,0:2:0:0:
219,129,75461,1,2,3:2:0:0:
243,140,75576,2,0,P|269:165|273:201,1,75,2|0,3:2|0:2,0:2:0:0:
414,342,75807,6,0,B|363:349|363:349|341:359|341:359|318:355|318:355|245:367,1,150,2|2,1:2|3:2,0:2:0:0:
186,327,76153,1,0,3:2:0:0:
167,308,76268,2,0,L|92:295,1,75,10|0,0:2|0:2,0:2:0:0:
185,153,76499,2,0,L|172:228,1,75,2|0,3:2|0:2,0:2:0:0:
46,369,76730,6,0,B|22:351|22:351|3:278,1,75,2|0,1:2|0:2,0:2:0:0:
104,158,76961,1,2,3:2:0:0:
136,165,77076,2,0,B|160:183|160:183|179:256,1,75,2|8,3:2|0:2,0:2:0:0:
322,257,77307,1,2,3:2:0:0:
316,281,77422,2,0,B|298:305|298:305|225:324,1,75,2|0,3:2|0:2,0:2:0:0:
129,384,77653,2,0,B|137:300|85:326|95:242,1,150,2|2,1:2|0:2,0:2:0:0:
271,98,78114,6,0,L|395:69,1,75,10|0,0:2|0:2,0:2:0:0:
392,0,78345,1,2,1:2:0:0:
418,11,78461,1,0,1:2:0:0:
495,31,78576,6,0,P|475:61|472:98,1,75,2|0,1:2|0:2,0:2:0:0:
403,138,78807,2,0,P|410:174|434:202,1,75,2|0,3:2|0:2,0:2:0:0:
371,384,79038,6,0,P|350:353|347:316,1,75,10|0,0:2|0:2,0:2:0:0:
290,262,79269,2,0,P|297:225|321:197,1,75,2|0,3:2|0:2,0:2:0:0:
494,288,79499,6,0,L|419:280,1,75,2|0,1:2|0:2,0:2:0:0:
290,262,79730,2,0,L|192:252,1,75,2|0,3:2|0:2,0:2:0:0:
24,107,79961,6,0,P|18:143|33:177,1,75,10|0,0:2|0:2,0:2:0:0:
138,278,80191,2,0,P|132:241|147:207,1,75,2|0,1:2|0:2,0:2:0:0:
274,115,80422,6,0,B|237:107|217:70|217:70|221:114|189:138,1,150,2|0,1:2|0:2,0:2:0:0:
74,45,80768,2,0,P|111:49|136:82,1,75,2|8,3:2|0:2,0:2:0:0:
358,10,80999,2,0,P|321:15|284:83,1,75,2|0,3:2|0:2,0:2:0:0:
316,240,81230,1,2,3:2:0:0:
307,260,81345,2,0,P|279:161|273:106,1,150,2|0,1:2|0:2,0:2:0:0:
383,305,81807,6,0,B|405:318|417:306|417:306|405:287|372:300,1,75,10|0,0:2|0:2,0:2:0:0:
248,197,82038,2,0,P|219:196|174:235,1,75,2|0,1:2|0:2,0:2:0:0:
32,384,82268,6,0,L|208:355,1,150,6|0,1:2|0:2,0:2:0:0:
271,345,82614,2,0,L|283:249,1,75,2|8,3:2|0:2,0:2:0:0:
104,185,82845,1,2,3:2:0:0:
100,210,82961,2,0,L|91:284,1,75,2|0,3:2|0:2,0:2:0:0:
248,197,83191,6,0,B|277:114|217:142|249:46,1,150,2|2,1:2|3:2,0:2:0:0:
331,0,83538,1,0,3:2:0:0:
352,16,83653,2,0,B|369:50|369:50|349:98,1,75,10|0,0:2|0:2,0:2:0:0:
143,114,83884,2,0,B|126:80|126:80|146:32,1,75,2|0,1:2|0:2,0:2:0:0:
318,173,84114,6,0,P|264:188|224:211,1,75,2|0,1:2|0:2,0:2:0:0:
110,293,84345,1,2,3:2:0:0:
131,280,84461,2,0,P|185:295|225:318,1,75,2|8,3:2|0:2,0:2:0:0:
384,384,84691,2,0,P|319:325|368:243,1,150,2|0,3:2|0:2,0:2:0:0:
444,162,85038,2,0,P|428:235|428:310,1,150,2|0,1:2|0:2,0:2:0:0:
508,112,85499,6,0,P|481:86|444:83,1,75,10|0,0:2|0:2,0:2:0:0:
323,154,85730,1,2,3:2:0:0:
304,168,85845,1,2,3:2:0:0:
285,182,85961,6,0,B|249:166|249:166|213:26,1,150,2|2,1:2|3:2,0:2:0:0:
344,16,86307,1,0,3:2:0:0:
330,1,86422,2,0,L|316:87,1,75,10|0,0:2|0:2,0:2:0:0:
168,183,86653,2,0,L|93:170,1,75,2|0,3:2|0:2,0:2:0:0:
5,54,86884,6,0,L|181:11,1,150,2|2,1:2|3:2,0:2:0:0:
238,77,87230,1,0,3:2:0:0:
214,88,87345,2,0,P|196:149|202:170,1,75,10|0,0:2|0:2,0:2:0:0:
19,215,87576,2,0,P|36:248|36:286,1,75,2|0,3:2|0:2,0:2:0:0:
218,342,87807,6,0,B|258:312|262:266|262:266|306:250|313:290,1,146.249993305207,2|0,1:2|0:0,0:0:0:0:
410,327,88038,2,0,B|364:307|322:326|322:326|287:296|317:271,1,146.249993305207,2|0,1:2|0:0,0:0:0:0:
301,166,88268,2,0,B|306:215|344:243|344:243|336:288|298:275,1,146.249993305207,14|0,0:0|0:0,0:0:0:0:
225,262,88499,5,0,3:0:0:0:
214,255,88614,1,0,3:0:0:0:
149,196,88730,5,4,0:3:0:0:
223,179,88845,1,4,0:3:0:0:
301,166,88961,1,4,0:3:0:0:
374,151,89076,1,4,0:3:0:0:
426,92,89191,5,0,1:3:0:0:
337,73,89306,1,0,1:3:0:0:
249,56,89422,1,0,1:3:0:0:
162,41,89537,1,0,1:3:0:0:
127,181,89653,6,0,L|142:367,1,150,6|0,1:2|0:2,0:2:0:0:
283,272,89999,2,0,B|255:246|255:246|259:177,1,75,2|8,3:2|0:2,0:2:0:0:
337,73,90230,1,2,3:2:0:0:
352,56,90345,2,0,B|323:35|323:35|278:41,1,75,2|0,3:2|0:2,0:2:0:0:
127,181,90576,6,0,B|181:167|181:167|206:136|206:136|258:120,1,150,2|2,1:2|3:2,0:2:0:0:
124,29,90922,1,0,3:2:0:0:
101,27,91038,2,0,P|124:55|128:92,1,75,10|0,0:2|0:2,0:2:0:0:
9,259,91268,2,0,P|32:230|36:193,1,75,2|0,3:2|0:2,0:2:0:0:
227,96,91499,6,0,B|248:103|258:121|258:121|242:112|217:113,1,75,2|0,1:2|0:2,0:2:0:0:
33,115,91730,1,2,3:2:0:0:
9,95,91845,2,0,B|4:72|15:54|15:54|15:73|28:95,1,75,2|8,3:2|0:2,0:2:0:0:
121,252,92076,1,2,3:2:0:0:
116,283,92191,2,0,B|98:298|78:297|78:297|93:288|106:265,1,75,2|0,3:2|0:2,0:2:0:0:
101,27,92422,2,0,P|129:84|156:173,1,150,2|2,1:2|0:2,0:2:0:0:
224,339,92884,6,0,L|295:317,1,75,10|0,0:2|0:2,0:2:0:0:
451,384,93114,2,0,L|380:362,1,75,2|0,1:2|0:2,0:2:0:0:
312,224,93345,6,0,P|297:190|307:154,1,75,2|0,1:2|0:2,0:2:0:0:
447,214,93576,2,0,P|410:209|384:183,1,75,2|0,3:2|0:2,0:2:0:0:
235,111,93807,6,0,P|257:81|293:71,1,75,10|0,0:2|0:2,0:2:0:0:
506,92,94038,2,0,P|484:121|449:131,1,75,2|0,3:2|0:2,0:2:0:0:
387,6,94268,6,0,L|372:117,1,75,2|0,1:2|0:2,0:2:0:0:
307,154,94499,2,0,L|232:143,1,75,2|0,3:2|0:2,0:2:0:0:
36,340,94730,6,0,L|51:229,1,75,10|0,0:2|0:2,0:2:0:0:
150,186,94961,2,0,L|224:175,1,75,2|0,1:2|0:2,0:2:0:0:
390,384,95191,6,0,B|421:370|421:370|439:304,1,75,2|0,1:2|0:2,0:2:0:0:
279,235,95422,1,2,3:2:0:0:
311,239,95538,2,0,P|336:265|342:302,1,75,2|8,3:2|0:2,0:2:0:0:
461,157,95768,2,0,P|434:131|397:125,1,75,2|0,3:2|0:2,0:2:0:0:
231,49,95999,1,0,3:2:0:0:
250,28,96114,2,0,B|288:-11|288:-11|251:121,1,150,2|2,1:2|0:2,0:2:0:0:
342,304,96576,6,0,B|328:291|328:291|273:280,1,75,10|0,0:2|0:2,0:2:0:0:
150,154,96807,2,0,B|163:168|163:168|173:222,1,75,2|0,1:2|0:2,0:2:0:0:
179,384,97038,6,0,L|212:203,1,150,6|0,1:2|0:2,0:2:0:0:
275,184,97384,2,0,P|305:178|293:207,1,75,2|8,3:2|0:2,0:2:0:0:
109,306,97614,1,2,3:2:0:0:
88,299,97730,2,0,P|76:270|106:275,1,75,2|0,3:2|0:2,0:2:0:0:
268,318,97961,2,0,L|344:303,1,75,2|0,1:2|0:2,0:2:0:0:
512,252,98191,6,0,P|499:217|492:181,1,75,2|0,3:2|0:2,0:2:0:0:
402,161,98422,2,0,P|389:197|384:234,1,75,10|0,0:2|0:2,0:2:0:0:
281,154,98653,2,0,P|304:125|333:101,1,75,2|0,3:2|0:2,0:2:0:0:
489,59,98884,6,0,L|393:86,1,75,2|0,1:2|0:2,0:2:0:0:
324,0,99114,2,0,L|228:27,1,75,2|0,3:2|0:2,0:2:0:0:
301,178,99345,2,0,L|205:205,1,75,10|0,0:2|0:2,0:2:0:0:
107,0,99576,2,0,L|11:27,1,75,2|0,3:2|0:2,0:2:0:0:
0,261,99807,5,2,1:2:0:0:
186,101,100038,5,2,3:2:0:0:
197,116,100153,1,0,3:2:0:0:
209,130,100268,2,0,P|198:182|190:228,1,75,10|0,0:2|0:2,0:2:0:0:
111,203,100499,2,0,P|118:239|125:276,1,75,2|0,3:2|0:2,0:2:0:0:
275,342,100730,5,4,1:2:0:0:
350,375,100845,5,0,1:0:0:0:
431,362,100961,5,0,1:0:0:0:
476,293,101076,5,0,1:0:0:0:
420,232,101191,5,0,1:0:0:0:
462,160,101307,5,0,1:0:0:0:
412,94,101422,5,0,1:0:0:0:
454,22,101538,6,0,L|400:10,1,56.2499982833863,4|0,1:2|0:0,0:0:0:0:
398,9,101884,6,0,P|357:42|312:52,1,97.4999955368044,6|0,1:2|0:0,0:0:0:0:
120,168,102114,5,2,0:0:0:0:
100,143,102230,1,2,0:0:0:0:
93,87,102345,1,2,0:0:0:0:
138,18,102460,1,2,0:0:0:0:
228,0,102576,5,6,1:2:0:0:
242,27,102691,2,0,L|225:127,1,75,2|0,3:2|0:2,0:2:0:0:
346,176,102922,2,0,B|429:142|414:211|496:172,1,150,2|0,3:2|0:2,0:2:0:0:
374,92,103268,2,0,P|338:86|309:109,1,75,2|0,3:2|0:2,0:2:0:0:
252,319,103499,6,0,B|240:292|240:292|269:210|269:210|255:179,2,150,2|2|10,1:2|3:2|0:2,0:2:0:0:
387,347,104076,1,0,3:2:0:0:
393,341,104191,5,2,3:2:0:0:
332,283,104307,1,2,3:2:0:0:
252,319,104422,5,2,1:2:0:0:
224,339,104538,2,0,B|190:330|190:330|122:354,1,75,2|0,3:2|0:2,0:2:0:0:
0,161,104768,2,0,B|27:205|27:205|151:240,1,150,2|0,3:2|0:2,0:2:0:0:
255,179,105114,2,0,L|237:88,1,75,2|0,3:2|0:2,0:2:0:0:
42,0,105345,6,0,P|87:71|73:155,1,150,2|2,1:2|3:2,0:2:0:0:
121,231,105691,1,0,3:2:0:0:
121,231,105807,2,0,P|135:197|168:179,1,75,10|0,0:2|0:2,0:2:0:0:
223,28,106038,2,0,P|261:25|292:45,1,75,2|0,3:2|0:2,0:2:0:0:
482,178,106268,5,2,1:2:0:0:
490,149,106384,2,0,L|396:180,1,75,2|0,3:2|0:2,0:2:0:0:
201,252,106614,2,0,B|252:268|252:268|274:302|274:302|331:323,1,150,2|0,3:2|0:2,0:2:0:0:
346,244,106961,2,0,B|351:209|351:209|337:171,1,75,2|0,3:2|0:2,0:2:0:0:
191,335,107191,6,0,P|144:344|106:371,1,75,2|0,1:2|0:2,0:2:0:0:
47,223,107422,2,0,P|80:240|117:245,1,75,2|0,3:2|0:2,0:2:0:0:
0,384,107653,6,0,P|9:337|36:299,1,75,10|0,0:2|0:2,0:2:0:0:
201,252,107884,2,0,P|218:218|223:181,1,75,2|0,3:2|0:2,0:2:0:0:
24,23,108114,6,0,P|6:56|1:93,1,75,2|0,1:2|0:2,0:2:0:0:
117,245,108345,1,2,3:2:0:0:
134,222,108461,2,0,B|134:132|86:174|93:73,1,150,2|0,3:2|0:2,0:2:0:0:
118,6,108807,2,0,B|154:26|151:-4|198:24,1,75,2|0,3:2|0:2,0:2:0:0:
324,66,109038,6,0,L|163:109,1,150,2|2,1:2|3:2,0:2:0:0:
153,187,109384,1,0,3:2:0:0:
161,188,109499,5,10,0:2:0:0:
190,189,109614,1,2,3:2:0:0:
243,207,109730,1,2,3:2:0:0:
299,258,109845,1,2,3:2:0:0:
316,340,109961,5,4,1:2:0:0:
300,366,110076,2,0,B|259:378|259:378|282:352,1,75,2|0,3:2|0:2,0:2:0:0:
374,206,110307,2,0,B|383:243|383:243|379:275|379:275|401:305|401:305|416:351,1,150,2|0,3:2|0:2,0:2:0:0:
497,383,110653,2,0,P|516:351|516:314,1,75,2|0,3:2|0:2,0:2:0:0:
324,139,110884,6,0,P|273:200|274:273,2,150,2|2|10,1:2|3:2|0:2,0:2:0:0:
512,13,111461,1,0,3:2:0:0:
512,13,111576,5,2,3:2:0:0:
479,89,111691,1,2,3:2:0:0:
397,100,111807,5,2,1:2:0:0:
372,77,111922,2,0,P|348:60|278:79,1,75,2|0,3:2|0:2,0:2:0:0:
144,171,112153,2,0,B|82:127|82:127|138:78,1,150,2|0,3:2|0:2,0:2:0:0:
227,10,112499,2,0,B|221:43|221:43|224:54|224:54|212:119,1,75,2|0,3:2|0:2,0:2:0:0:
300,222,112730,6,0,B|257:224|228:198|228:198|217:237|172:255,1,150,2|2,1:2|3:2,0:2:0:0:
120,340,113076,1,0,3:2:0:0:
114,336,113191,5,10,0:2:0:0:
141,323,113307,1,2,3:2:0:0:
200,327,113422,1,2,3:2:0:0:
258,379,113538,1,2,3:2:0:0:
343,374,113653,5,2,1:2:0:0:
361,349,113768,2,0,L|370:265,1,75,2|0,3:2|0:2,0:2:0:0:
512,275,113999,2,0,P|498:346|435:383,1,150,2|0,3:2|0:2,0:2:0:0:
292,258,114345,2,0,P|303:221|338:203,1,75,2|0,3:2|0:2,0:2:0:0:
486,198,114576,6,0,P|449:189|415:173,1,75,2|0,1:2|0:2,0:2:0:0:
217,73,114807,2,0,P|253:64|287:48,1,75,2|0,3:2|0:2,0:2:0:0:
504,36,115038,6,0,L|490:109,1,75,10|0,0:2|0:2,0:2:0:0:
326,184,115268,2,0,L|339:110,1,75,2|0,3:2|0:2,0:2:0:0:
161,6,115499,5,4,1:2:0:0:
339,110,115730,5,2,3:2:0:0:
325,124,115845,1,2,3:2:0:0:
274,116,115961,1,10,0:2:0:0:
219,160,116076,1,2,3:2:0:0:
145,130,116191,1,2,3:2:0:0:
91,198,116307,1,2,3:2:0:0:
28,125,116422,5,2,1:2:0:0:
90,179,116538,1,2,3:2:0:0:
145,130,116653,1,2,3:2:0:0:
179,155,116768,1,2,3:2:0:0:
194,145,116884,1,10,0:2:0:0:
24,342,117114,6,0,L|0:266,1,56.2500021457673,2|0,0:0|0:0,0:0:0:0:
8,289,117345,2,0,B|64:276|64:276|123:328,1,112.500004291535,6|0,1:2|0:0,0:0:0:0:
167,384,117691,2,0,P|172:350|181:322,1,56.2500021457673,2|8,0:0|0:0,0:0:0:0:
159,153,118038,2,0,P|164:187|173:215,1,56.2500021457673,2|0,0:0|0:0,0:0:0:0:
238,264,118268,1,2,1:2:0:0:
360,362,118499,6,0,P|384:349|412:348,1,56.2500021457673,2|2,0:0|0:0,0:0:0:0:
462,282,118730,2,0,P|437:269|409:268,1,56.2500021457673,10|0,0:0|0:0,0:0:0:0:
298,215,118961,2,0,P|379:194|458:163,1,168.750006437302,2|0,1:2|0:0,0:0:0:0:
342,81,119422,2,0,P|399:133|443:147,1,112.500004291535,2|8,1:2|0:0,0:0:0:0:
300,11,119884,5,2,0:0:0:0:
292,14,119999,1,0,0:0:0:0:
284,18,120114,2,0,P|268:41|263:71,1,56.2500021457673,2|0,1:2|0:0,0:0:0:0:
267,196,120345,2,0,P|282:173|288:145,1,56.2500021457673,2|0,0:0|0:0,0:0:0:0:
193,28,120576,6,0,P|169:12|141:11,1,56.2500021457673,10|0,0:0|0:0,0:0:0:0:
0,157,120807,2,0,P|27:155|51:140,1,56.2500021457673,2|0,0:0|0:0,0:0:0:0:
144,85,121038,6,0,P|125:137|145:195,1,112.500004291535,2|2,1:2|0:0,0:0:0:0:
214,264,121384,1,2,0:0:0:0:
221,271,121499,2,0,B|200:210|245:231|212:138,1,112.500004291535,10|2,0:0|0:0,0:0:0:0:
347,219,121845,1,0,0:0:0:0:
355,225,121961,6,0,L|293:243,1,56.2500021457673,2|0,1:2|0:0,0:0:0:0:
86,303,122191,2,0,L|140:287,1,56.2500021457673,2|0,1:2|0:0,0:0:0:0:
262,339,122422,2,0,B|241:360|241:360|211:348,1,56.2500021457673,8|0,0:0|0:0,0:0:0:0:
52,196,122653,6,0,L|263:229,1,168.750006437302,2|0,1:2|0:0,0:0:0:0:
339,81,123114,2,0,B|313:61|302:39|302:39|283:56|249:60,1,112.500004291535,2|8,1:2|0:0,0:0:0:0:
245,135,123461,5,2,0:0:0:0:
247,142,123576,1,2,0:0:0:0:
249,150,123691,1,2,0:0:0:0:
218,222,123807,5,2,1:2:0:0:
263,188,123922,1,2,0:0:0:0:
316,170,124037,1,2,0:0:0:0:
372,168,124153,1,2,0:0:0:0:
424,184,124268,5,10,0:0:0:0:
423,161,124384,1,2,0:0:0:0:
416,139,124499,1,2,0:0:0:0:
399,126,124614,1,2,0:0:0:0:
316,170,124730,5,2,1:2:0:0:
312,225,124846,1,2,0:0:0:0:
326,280,124961,1,2,0:0:0:0:
355,327,125076,1,2,0:0:0:0:
478,353,125191,5,10,0:0:0:0:
401,342,125306,1,2,0:0:0:0:
325,355,125421,1,2,0:0:0:0:
251,384,125537,1,2,0:0:0:0:
221,308,125653,5,2,1:2:0:0:
218,300,125768,1,2,0:0:0:0:
218,290,125883,1,2,0:0:0:0:
222,282,125999,1,2,0:0:0:0:
203,314,126115,5,10,0:0:0:0:
198,296,126230,1,2,0:0:0:0:
202,279,126345,1,2,0:0:0:0:
212,264,126461,1,2,0:0:0:0:
283,242,126576,5,2,1:2:0:0:
319,249,126691,1,2,0:2:0:0:
397,258,126807,5,2,0:2:0:0:
322,276,126922,1,2,0:2:0:0:
264,217,127038,5,10,0:0:0:0:
258,159,127153,1,2,0:0:0:0:
288,117,127268,1,2,0:0:0:0:
340,111,127384,1,2,0:0:0:0:
346,194,127499,6,0,P|338:238|333:256,1,56.2500021457673,2|0,1:2|0:0,0:0:0:0:
107,283,127730,5,2,0:0:0:0:
59,270,127845,1,2,0:0:0:0:
115,271,127961,5,10,0:0:0:0:
119,214,128076,1,2,0:0:0:0:
93,165,128191,1,2,0:0:0:0:
46,136,128307,1,2,0:0:0:0:
0,165,128422,5,2,1:2:0:0:
6,163,128537,1,2,0:0:0:0:
13,161,128652,1,2,0:0:0:0:
20,159,128768,1,2,0:0:0:0:
46,136,128884,5,10,0:0:0:0:
73,141,128999,1,2,0:0:0:0:
149,133,129114,5,2,0:0:0:0:
102,71,129230,1,2,0:0:0:0:
73,141,129345,5,2,1:2:0:0:
85,195,129460,1,2,0:0:0:0:
97,249,129576,1,2,0:0:0:0:
109,303,129691,1,2,0:0:0:0:
241,370,129807,5,10,0:2:0:0:
188,310,129923,1,2,1:2:0:0:
109,303,130038,1,2,1:2:0:0:
38,337,130153,1,2,1:2:0:0:
44,351,130268,5,0,1:2:0:0:
290,182,130499,6,0,L|476:219,1,150,2|8,1:0|0:0,0:0:0:0:
512,160,130845,6,0,B|502:143|477:142|477:142|499:156|514:202,1,75,2|0,1:0|0:0,0:0:0:0:
461,284,131076,5,0,3:0:0:0:
389,288,131191,2,0,B|370:288|356:308|356:308|379:297|427:307,1,75,2|0,1:0|0:0,0:0:0:0:
405,117,131422,5,0,3:0:0:0:
338,86,131538,2,0,B|321:76|299:87|299:87|325:89|361:121,1,75,2|8,1:0|0:0,0:0:0:0:
277,301,131768,5,0,3:0:0:0:
216,339,131883,2,0,B|199:348|198:373|198:373|212:351|258:336,1,75,2|0,1:0|0:0,0:0:0:0:
226,100,132114,6,0,L|206:1,1,75,6|0,1:2|0:0,0:0:0:0:
74,24,132345,5,2,3:2:0:0:
48,41,132461,1,2,3:2:0:0:
15,109,132576,2,0,L|0:182,1,75,10|0,0:0|0:0,0:0:0:0:
130,269,132807,5,2,3:2:0:0:
156,252,132923,1,2,3:2:0:0:
189,184,133038,2,0,L|204:111,1,75,2|0,1:2|0:0,0:0:0:0:
7,310,133268,5,2,3:2:0:0:
24,336,133384,1,2,3:2:0:0:
92,369,133499,2,0,L|165:384,1,75,8|0,0:0|0:0,0:0:0:0:
273,307,133730,5,2,3:2:0:0:
290,281,133846,1,2,3:2:0:0:
360,248,133961,2,0,B|439:249|416:307|494:302,1,150,2|0,1:2|0:0,0:0:0:0:
336,96,134307,6,0,P|329:132|321:169,1,75,2|8,3:2|0:0,0:0:0:0:
489,225,134538,1,2,3:2:0:0:
499,193,134653,2,0,P|505:156|513:119,1,75,2|0,3:2|0:0,0:0:0:0:
438,37,134884,1,2,1:2:0:0:
390,255,135114,6,0,P|383:224|392:255,1,97.4999955368044,8|0,0:0|0:0,0:0:0:0:
300,352,135345,5,10,0:2:0:0:
272,341,135461,1,2,3:2:0:0:
224,276,135576,5,2,3:2:0:0:
191,278,135691,1,2,3:2:0:0:
120,230,135807,6,0,P|86:214|48:214,1,75,2|0,1:2|0:2,0:2:0:0:
231,149,136038,2,0,P|268:148|302:133,1,75,2|0,3:2|0:2,0:2:0:0:
169,0,136268,5,10,0:2:0:0:
141,16,136384,1,2,3:2:0:0:
126,42,136499,1,2,3:2:0:0:
103,116,136614,2,0,L|122:188,1,75,2|0,3:2|1:2,0:2:0:0:
34,384,136845,5,2,3:2:0:0:
28,352,136961,1,2,3:2:0:0:
38,324,137076,1,2,3:2:0:0:
114,302,137191,2,0,L|193:283,1,75,10|0,0:2|0:2,0:2:0:0:
287,384,137422,2,0,L|359:366,1,75,2|0,3:2|0:2,0:2:0:0:
270,227,137653,6,0,L|191:208,1,75,2|0,1:2|0:2,0:2:0:0:
350,122,137884,1,2,3:2:0:0:
374,117,137999,2,0,L|446:134,1,75,2|8,3:2|0:2,0:2:0:0:
375,341,138230,5,2,3:2:0:0:
319,283,138345,2,0,L|302:210,1,75,2|0,3:2|0:2,0:2:0:0:
252,0,138576,1,2,1:2:0:0:
197,209,138807,6,0,B|203:229|203:229|183:250|183:250|175:223|175:223|190:203,1,97.4999955368044,8|0,0:2|0:2,0:2:0:0:
252,0,139038,5,10,0:2:0:0:
266,23,139153,1,2,3:2:0:0:
266,50,139268,1,2,3:2:0:0:
212,114,139384,6,0,P|175:119|140:132,2,75,2|0|0,3:2|1:2|0:2,0:2:0:0:
283,194,139730,2,0,P|270:229|265:266,1,75,2|0,3:2|0:2,0:2:0:0:
137,312,139961,5,10,0:2:0:0:
110,322,140076,1,2,3:2:0:0:
83,332,140191,1,2,3:2:0:0:
8,312,140307,6,0,B|1:350|1:350|16:384,2,75,2|0|0,3:2|1:2|0:2,0:2:0:0:
100,202,140653,1,2,3:2:0:0:
106,184,140768,1,2,3:2:0:0:
86,111,140884,5,10,0:2:0:0:
122,104,140999,1,2,3:2:0:0:
154,123,141114,1,2,3:2:0:0:
182,197,141230,6,0,L|266:180,2,75,2|0|0,3:2|1:2|0:2,0:2:0:0:
132,276,141576,2,0,L|205:290,1,75,2|0,3:2|0:2,0:2:0:0:
231,94,141807,6,0,L|304:108,1,75,10|0,0:2|0:2,0:2:0:0:
375,73,142038,2,0,L|389:0,1,75,2|0,3:2|0:2,0:2:0:0:
512,259,142268,6,0,L|438:273,1,75,2|0,1:2|0:2,0:2:0:0:
339,226,142499,2,0,L|324:152,1,75,2|0,3:2|0:2,0:2:0:0:
439,199,142730,6,0,P|445:248|430:288,1,75,10|0,0:2|0:2,0:2:0:0:
231,168,142961,2,0,P|225:119|240:79,1,75,2|0,3:2|0:2,0:2:0:0:
507,0,143191,5,6,1:2:0:0:
509,44,143306,1,0,1:0:0:0:
496,87,143421,1,0,1:0:0:0:
469,125,143537,1,0,1:0:0:0:
438,199,143653,5,4,0:3:0:0:
387,143,143768,1,4,0:3:0:0:
316,121,143883,1,4,0:3:0:0:
243,138,143999,1,4,0:3:0:0:
322,219,144114,5,2,1:2:0:0:
114,149,144576,5,2,1:2:0:0:
258,24,145038,5,2,1:2:0:0:
259,30,145153,1,2,0:2:0:0:
260,36,145268,1,2,0:2:0:0:
262,42,145384,1,2,0:2:0:0:
206,157,145614,5,2,0:2:0:0:
241,160,145729,1,2,0:2:0:0:
278,166,145844,1,2,0:2:0:0:
478,233,146076,5,2,0:2:0:0:
416,281,146191,1,2,1:2:0:0:
406,205,146307,1,2,0:2:0:0:
466,153,146422,5,10,0:2:0:0:
472,152,146537,1,2,0:2:0:0:
478,151,146652,1,2,0:2:0:0:
484,149,146768,1,2,0:2:0:0:
510,77,146884,5,2,0:2:0:0:
512,61,146999,1,2,0:2:0:0:
375,137,147230,5,2,0:2:0:0:
406,205,147345,1,10,0:2:0:0:
356,27,147576,5,2,0:2:0:0:
320,39,147691,1,2,1:2:0:0:
114,22,147922,5,2,0:2:0:0:
108,54,148038,1,2,1:2:0:0:
102,86,148153,1,2,0:2:0:0:
155,145,148268,5,10,0:2:0:0:
161,144,148383,1,2,0:2:0:0:
167,143,148498,1,2,0:2:0:0:
173,141,148614,1,2,0:2:0:0:
245,174,148730,5,2,1:2:0:0:
251,183,148845,1,2,0:2:0:0:
328,185,148961,5,2,0:2:0:0:
321,223,149076,1,2,0:2:0:0:
488,318,149307,5,2,0:2:0:0:
428,365,149422,1,2,0:2:0:0:
352,351,149538,1,2,0:2:0:0:
328,185,149768,5,2,0:2:0:0:
260,115,149884,1,2,1:2:0:0:
170,145,149999,1,2,0:2:0:0:
166,237,150114,5,10,0:2:0:0:
226,290,150230,1,2,0:2:0:0:
245,341,150345,1,2,0:2:0:0:
231,361,150461,1,2,0:2:0:0:
224,362,150576,5,2,0:2:0:0:
147,362,150691,1,2,0:2:0:0:
38,212,150922,5,2,0:2:0:0:
29,246,151038,1,10,0:2:0:0:
170,145,151268,5,2,0:2:0:0:
148,69,151384,1,2,1:2:0:0:
324,188,151614,5,2,0:2:0:0:
405,172,151730,1,2,1:2:0:0:
486,156,151845,1,2,0:2:0:0:
507,79,151961,5,10,0:2:0:0:
512,60,152076,1,2,0:2:0:0:
434,44,152191,5,2,1:2:0:0:
430,62,152307,1,2,0:2:0:0:
361,106,152422,5,2,1:2:0:0:
337,75,152538,2,0,P|309:69|282:61,1,56.2500021457673,2|0,0:2|0:2,0:2:0:0:
141,213,152768,5,2,0:2:0:0:
184,146,152884,2,0,P|211:140|238:132,1,56.2500021457673,10|0,0:2|0:2,0:2:0:0:
357,305,153114,5,2,0:2:0:0:
297,235,153230,2,0,P|269:229|242:221,1,56.2500021457673,2|0,0:2|1:2,0:2:0:0:
77,163,153461,5,2,0:2:0:0:
141,213,153576,1,2,0:2:0:0:
143,294,153691,1,2,0:2:0:0:
80,348,153807,5,10,0:2:0:0:
73,350,153922,1,2,0:2:0:0:
66,352,154037,1,2,0:2:0:0:
60,354,154153,1,2,0:2:0:0:
15,284,154268,5,2,1:2:0:0:
5,259,154384,2,0,L|74:272,1,56.2500021457673,2|0,0:2|0:2,0:2:0:0:
164,384,154614,5,2,0:2:0:0:
225,331,154730,2,0,L|236:254,1,56.2500021457673,10|0,0:2|0:2,0:2:0:0:
356,223,154961,5,2,0:2:0:0:
366,248,155077,2,0,L|297:235,1,56.2500021457673,2|0,0:2|1:2,0:2:0:0:
173,213,155307,5,2,0:2:0:0:
168,185,155422,1,2,0:2:0:0:
163,157,155537,1,2,0:2:0:0:
89,144,155653,5,10,0:2:0:0:
82,142,155768,1,2,0:2:0:0:
75,140,155883,1,2,0:2:0:0:
69,138,155999,1,2,0:2:0:0:
28,71,156114,5,2,1:2:0:0:
47,64,156230,1,2,0:2:0:0:
103,8,156345,5,2,0:2:0:0:
125,40,156461,2,0,P|142:50|189:44,1,56.2500021457673,2|8,0:2|0:2,0:2:0:0:
363,0,156691,5,2,0:2:0:0:
290,38,156807,1,2,0:2:0:0:
261,114,156922,2,0,P|258:142|271:168,1,56.2500021457673,2|0,0:2|1:2,0:2:0:0:
357,345,157153,5,2,0:2:0:0:
442,378,157268,1,2,0:2:0:0:
512,318,157384,1,2,0:2:0:0:
476,234,157499,5,10,0:2:0:0:
400,221,157614,1,2,0:2:0:0:
356,251,157730,1,2,0:2:0:0:
332,255,157845,1,2,0:2:0:0:
325,249,157961,5,2,1:2:0:0:
340,170,158076,1,2,0:2:0:0:
256,181,158191,5,2,0:2:0:0:
249,113,158306,1,2,0:2:0:0:
176,143,158422,5,10,0:2:0:0:
157,121,158538,1,2,0:2:0:0:
104,171,158653,5,2,0:2:0:0:
95,168,158768,1,2,0:2:0:0:
41,246,158884,5,2,1:2:0:0:
114,286,158999,5,2,1:2:0:0:
187,246,159114,5,2,1:2:0:0:
260,286,159230,5,2,1:2:0:0:
342,252,159345,6,2,P|345:237|333:246,10,37.5000014305115,8|2|2|2|2|2|2|2|2|2|2,0:0|0:0|0:0|0:0|0:0|0:0|0:0|0:0|0:0|0:0|0:0,0:0:0:0:
381,384,159807,6,0,B|401:305|351:320|382:237,1,150,6|2,1:2|0:2,0:2:0:0:
409,124,160153,1,2,3:2:0:0:
389,141,160268,2,0,P|417:165|453:169,1,75,10|0,0:2|0:2,0:2:0:0:
260,286,160499,2,0,P|250:250|259:214,1,75,2|0,3:2|0:2,0:2:0:0:
286,21,160730,6,0,P|214:14|172:72,1,150,2|2,1:2|3:2,0:2:0:0:
242,113,161076,1,2,3:2:0:0:
267,130,161191,2,0,B|186:139|218:180|129:181,1,150,10|0,0:2|3:2,0:2:0:0:
27,362,161538,6,0,P|49:290|55:216,1,150,2|0,3:2|0:2,0:2:0:0:
126,350,161884,2,0,P|161:336|197:329,1,75,2|0,3:2|0:2,0:2:0:0:
329,244,162114,6,0,P|344:209|341:172,1,75,10|0,0:2|0:2,0:2:0:0:
141,109,162345,2,0,P|126:143|129:180,1,75,2|0,3:2|0:2,0:2:0:0:
247,265,162576,6,0,L|223:170,1,75,2|0,1:2|0:2,0:2:0:0:
244,52,162807,1,2,3:2:0:0:
225,85,162922,2,0,L|249:180,1,75,2|8,3:2|0:2,0:2:0:0:
124,349,163153,2,0,L|135:274,1,75,2|0,3:2|0:2,0:2:0:0:
334,300,163384,2,0,B|286:354|286:354|209:344,1,150,2|0,3:2|0:2,0:2:0:0:
140,181,163730,5,0,3:2:0:0:
161,207,163845,2,0,P|156:241|132:278,1,75,2|8,3:2|0:2,0:2:0:0:
93,110,164076,2,0,P|127:96|165:98,1,75,2|0,3:2|0:2,0:2:0:0:
352,225,164307,2,0,P|361:151|338:76,1,150,2|0,3:2|0:2,0:2:0:0:
275,143,164653,6,0,B|238:152|238:152|241:115,1,75,2|0,3:2|0:2,0:2:0:0:
402,19,164884,2,0,B|441:28|441:28|425:59,1,75,10|0,0:2|0:2,0:2:0:0:
267,36,165114,2,0,B|263:0|263:0|301:4,1,75,2|0,3:2|0:2,0:2:0:0:
356,183,165345,6,0,P|373:216|378:253,1,75,2|0,1:2|0:2,0:2:0:0:
279,384,165576,1,2,3:2:0:0:
260,356,165691,2,0,P|279:324|309:301,1,75,2|8,3:2|0:2,0:2:0:0:
458,353,165922,2,0,P|420:351|386:337,1,75,2|0,3:2|0:2,0:2:0:0:
166,345,166153,2,0,P|246:326|340:284,1,150,2|0,3:2|0:2,0:2:0:0:
166,266,166499,6,0,B|122:269|96:241|96:241|113:281|93:312,2,150,2|10|2,1:2|0:2|0:2,0:2:0:0:
315,135,167191,6,0,B|350:106|350:106|325:207,1,150,6|2,1:2|3:2,0:2:0:0:
144,165,167538,1,2,3:2:0:0:
165,183,167653,2,0,L|272:158,1,75,10|0,0:2|0:2,0:2:0:0:
381,282,167884,2,0,L|308:300,1,75,2|0,3:2|0:2,0:2:0:0:
416,166,168114,6,0,L|489:148,1,75,2|0,1:2|0:2,0:2:0:0:
309,31,168345,1,2,3:2:0:0:
334,18,168461,2,0,L|407:36,1,75,2|10,3:2|0:2,0:2:0:0:
324,207,168691,2,0,L|306:134,1,75,2|0,3:2|0:2,0:2:0:0:
77,30,168922,6,0,B|31:88|31:88|125:132,1,150,2|0,3:2|0:2,0:2:0:0:
173,84,169268,2,0,B|187:47|166:58|186:3,1,75,2|0,3:2|0:2,0:2:0:0:
306,134,169499,6,0,P|281:201|211:218,1,150,8|2,0:2|3:2,0:2:0:0:
136,204,169845,1,0,3:2:0:0:
120,230,169961,6,0,P|123:266|155:283,1,75,2|0,1:2|0:2,0:2:0:0:
261,350,170191,2,0,P|292:333|296:297,1,75,2|0,3:2|0:2,0:2:0:0:
306,134,170422,6,0,P|291:167|288:205,1,75,10|0,0:2|0:2,0:2:0:0:
356,384,170653,2,0,P|371:350|374:312,1,75,2|0,3:2|0:2,0:2:0:0:
428,217,170884,6,0,L|356:238,1,75,2|0,1:2|0:2,0:2:0:0:
234,155,171114,2,0,L|305:133,1,75,2|0,3:2|0:2,0:2:0:0:
504,215,171345,6,0,L|432:193,1,75,10|0,0:2|0:2,0:2:0:0:
161,105,171576,2,0,L|232:126,1,75,2|0,3:2|0:2,0:2:0:0:
442,111,171807,6,0,B|356:111|387:167|288:162,1,150,2|2,1:2|3:2,0:2:0:0:
239,209,172153,1,0,3:2:0:0:
246,235,172268,2,0,B|278:257|278:257|317:238,1,75,10|0,0:2|0:2,0:2:0:0:
369,29,172499,2,0,B|339:20|315:3|315:3|263:53|335:102,1,150,2|0,3:2|1:2,0:2:0:0:
442,254,172961,5,2,3:2:0:0:
444,243,173076,1,2,3:2:0:0:
512,191,173191,5,14,0:0:0:0:
436,154,173307,1,2,3:2:0:0:
369,201,173422,1,2,3:2:0:0:
369,283,173538,1,2,3:2:0:0:
389,362,173653,5,6,1:2:0:0:
350,371,173768,1,2,3:2:0:0:
314,357,173884,1,2,3:2:0:0:
295,323,173999,1,2,3:2:0:0:
369,283,174114,5,6,1:2:0:0:
374,273,174230,1,2,1:2:0:0:
365,267,174345,1,2,1:2:0:0:
359,277,174461,1,2,1:2:0:0:
392,193,174576,6,0,P|397:156|404:120,1,75,6|0,1:2|0:0,0:0:0:0:
458,25,174806,1,2,3:2:0:0:
481,31,174922,2,0,P|488:67|493:104,1,75,2|0,3:2|1:0,0:0:0:0:
335,256,175153,1,2,3:2:0:0:
312,250,175269,2,0,P|304:213|299:176,1,75,2|0,3:2|0:0,0:0:0:0:
115,48,175614,5,2,0:0:0:0:
91,42,175730,1,2,0:0:0:0:
70,45,175845,1,2,0:0:0:0:
84,123,175961,2,0,B|76:140|76:140|97:214|97:214|91:229,1,112.500004291535,10|2,0:0|0:0,0:0:0:0:
179,344,176307,1,0,3:0:0:0:
183,326,176422,6,0,L|80:359,1,75,4|0,0:3|0:0,0:0:0:0:
226,247,176653,1,8,0:3:0:0:
272,161,176768,2,0,L|343:183,1,75,8|0,0:3|1:0,0:0:0:0:
219,88,176999,1,8,0:3:0:0:
141,23,177114,2,0,L|69:45,1,75,8|0,0:3|0:0,0:0:0:0:
383,0,177461,5,2,0:0:0:0:
388,15,177576,1,2,0:0:0:0:
393,30,177691,1,2,0:0:0:0:
462,72,177807,5,10,0:2:0:0:
447,95,177922,1,2,3:2:0:0:
423,110,178037,1,2,3:2:0:0:
396,113,178153,2,0,L|250:84,1,112.500004291535,6|0,1:2|0:2,0:2:0:0:
135,241,178499,6,0,L|201:221,1,56.2500021457673,2|0,1:2|0:2,0:2:0:0:
201,151,178730,5,10,0:2:0:0:
204,123,178845,1,2,3:2:0:0:
208,95,178960,1,2,3:2:0:0:
212,67,179076,2,0,B|176:28|176:28|110:41,1,112.500004291535,2|0,1:2|0:2,0:2:0:0:
0,185,179422,5,2,1:2:0:0:
3,199,179538,1,2,3:2:0:0:
81,216,179653,5,10,0:2:0:0:
75,243,179768,1,2,3:2:0:0:
69,271,179883,1,2,3:2:0:0:
63,298,179999,2,0,P|88:346|141:358,1,112.500004291535,2|0,1:2|0:2,0:2:0:0:
323,211,180345,2,0,P|297:259|244:271,1,112.500004291535,2|8,1:2|0:2,0:2:0:0:
73,85,180807,5,0,3:0:0:0:
73,85,180922,1,0,3:0:0:0:
96,164,181038,6,0,P|170:185|279:194,1,150,4|8,1:2|0:3,0:0:0:0:
399,107,181384,1,8,0:3:0:0:
372,30,181499,2,0,P|298:9|189:0,1,150,12|4,0:0|0:3,0:0:0:0:
168,60,181845,1,4,0:3:0:0:
234,111,181961,6,0,L|336:90,1,56.2500021457673,6|0,1:2|0:2,0:2:0:0:
344,216,182191,1,2,3:2:0:0:
325,219,182307,2,0,L|357:120,1,56.2500021457673,2|8,3:2|0:2,0:2:0:0:
470,176,182537,1,2,3:2:0:0:
464,194,182653,2,0,L|394:116,1,56.2500021457673,2|0,3:2|0:2,0:2:0:0:
236,184,182884,5,0,1:2:0:0:
244,267,182999,5,2,3:2:0:0:
227,272,183114,1,2,3:2:0:0:
207,265,183230,1,2,3:2:0:0:
122,267,183345,5,10,0:2:0:0:
123,239,183461,1,2,3:2:0:0:
137,214,183576,1,2,3:2:0:0:
159,197,183691,1,2,3:2:0:0:
236,184,183807,6,0,P|234:155|228:128,1,56.2500021457673,2|0,1:2|0:2,0:2:0:0:
374,173,184038,1,2,3:2:0:0:
356,182,184153,2,0,P|332:197|312:216,1,56.2500021457673,2|8,3:2|0:2,0:2:0:0:
277,67,184384,1,2,3:2:0:0:
294,79,184499,2,0,P|318:91|345:99,1,56.2500021457673,2|0,3:2|0:2,0:2:0:0:
499,248,184730,6,0,P|442:247|388:261,1,112.500004291535,0|0,1:2|3:2,0:2:0:0:
310,278,185076,1,0,3:2:0:0:
310,278,185191,6,0,B|335:331|335:331|319:400,1,112.500004291535,10|2,0:0|3:2,0:0:0:0:
199,303,185538,1,0,3:0:0:0:
190,286,185653,6,0,L|220:81,1,150,4|0,1:2|3:2,0:2:0:0:
294,221,185999,2,0,P|307:232|293:221,1,75,2|8,3:2|0:2,0:2:0:0:
151,63,186230,1,2,3:2:0:0:
147,89,186345,2,0,B|176:71|188:29|188:29|218:60|259:62,1,150,2|0,3:2|1:2,0:2:0:0:
453,181,186691,2,0,B|416:182|386:213|386:213|374:171|345:153,1,150,2|0,3:2|3:2,0:2:0:0:
347,52,187038,5,8,0:0:0:0:
356,62,187153,1,8,0:3:0:0:
345,70,187268,1,4,0:3:0:0:
336,60,187384,1,0,3:3:0:0:
345,153,187499,5,4,1:2:0:0:
315,153,187614,1,0,3:0:0:0:
285,158,187729,1,0,3:0:0:0:
256,168,187845,1,0,3:0:0:0:
230,181,187960,1,0,3:0:0:0:
205,198,188075,1,0,3:0:0:0:
111,209,188191,5,6,1:2:0:0:
184,222,188306,1,4,0:3:0:0:
251,255,188421,1,4,0:3:0:0:
307,305,188537,1,4,0:3:0:0:
396,314,188653,5,6,1:2:0:0:
342,375,188768,1,0,1:0:0:0:
344,212,188884,5,6,1:2:0:0:
307,305,188999,1,0,1:0:0:0:
259,130,189114,5,6,1:2:0:0:
251,255,189230,1,0,1:0:0:0:
85,72,190499,6,0,L|55:81,2,30
165,95,191191,6,0,P|184:128|184:175,1,75,0|0,3:3|0:0,0:0:0:0:
135,221,191538,2,0,P|122:246|117:274,1,37.5,0|8,0:0|0:0,0:0:0:0:
196,384,191768,2,0,P|254:368|283:362,1,75
269,364,192114,6,0,P|289:324|284:286,1,75,0|0,3:3|0:0,0:0:0:0:
386,208,192576,2,0,P|366:248|371:286,1,75,8|0,0:0|0:0,0:0:0:0:
236,228,193038,5,0,3:0:0:0:
269,154,193268,1,0,0:0:0:0:
269,154,193384,1,0,0:0:0:0:
301,79,193614,1,0,0:0:0:0:
301,79,193730,1,0,0:0:0:0:
158,15,193961,2,0,P|194:18|226:38,1,75,0|0,3:3|0:0,0:0:0:0:
432,47,194422,5,8,0:0:0:0:
467,157,194653,2,0,L|452:218,1,37.5
397,250,194884,6,0,B|357:245|357:245|318:272,1,75,0|0,3:0|0:0,0:0:0:0:
223,170,195345,2,0,B|251:189|251:189|291:184,1,75,8|0,0:0|0:0,0:0:0:0:
355,105,195807,5,0,3:0:0:0:
277,79,196038,1,0,0:0:0:0:
223,170,196268,5,8,0:0:0:0:
134,211,196499,1,0,0:0:0:0:
0,137,196730,5,0,3:3:0:0:
60,286,197076,5,0,0:0:0:0:
60,286,197191,2,0,P|91:283|112:263,1,37.5,8|0,0:0|0:0,0:0:0:0:
134,211,197422,1,0,0:0:0:0:
272,244,197653,2,0,P|281:281|286:318,1,75,0|0,3:3|0:0,0:0:0:0:
213,95,198114,6,0,L|264:82,1,37.5,8|0,0:0|0:0,0:0:0:0:
348,122,198345,2,0,L|399:109,1,37.5,0|0,0:0|0:0,0:0:0:0:
364,2,198576,6,0,B|336:26|336:26|315:126,1,112.500004291535,2|0,1:2|0:0,0:0:0:0:
252,178,198922,2,0,P|279:208|281:234,1,56.2500021457673,2|8,0:0|0:0,0:0:0:0:
331,292,199153,1,2,0:0:0:0:
339,296,199268,2,0,P|360:277|368:251,1,56.2500021457673,2|0,0:0|0:0,0:0:0:0:
473,196,199499,1,2,1:2:0:0:
488,372,199730,5,2,0:0:0:0:
488,372,199845,1,0,0:0:0:0:
488,372,199961,2,0,L|406:363,1,56.2500021457673,10|0,0:0|0:0,0:0:0:0:
339,296,200191,2,0,L|257:305,1,56.2500021457673,2|0,0:0|0:0,0:0:0:0:
205,194,200422,6,0,P|208:166|220:141,1,56.2500021457673,2|0,1:2|0:0,0:0:0:0:
77,127,200653,1,2,0:0:0:0:
86,128,200768,2,0,P|108:144|123:168,1,56.2500021457673,2|8,0:0|0:0,0:0:0:0:
214,47,200999,1,2,0:0:0:0:
208,56,201114,2,0,P|182:66|154:68,1,56.2500021457673,2|0,0:0|0:0,0:0:0:0:
46,33,201345,2,0,P|100:48|152:67,1,112.500004291535,2|0,1:2|0:0,0:0:0:0:
306,203,201807,6,0,L|290:268,1,56.2500021457673,10|0,0:2|0:0,0:0:0:0:
325,322,202038,2,0,L|309:257,1,56.2500021457673,2|0,0:0|0:0,0:0:0:0:
155,234,202268,6,0,L|228:246,1,56.2500021457673,2|0,1:2|0:0,0:0:0:0:
290,181,202499,2,0,L|234:171,1,56.2500021457673,2|0,0:0|0:0,0:0:0:0:
110,133,202730,6,0,L|183:121,1,56.2500021457673,10|0,0:2|0:0,0:0:0:0:
291,76,202961,2,0,L|235:85,1,56.2500021457673,2|0,0:2|0:0,0:0:0:0:
55,117,203191,6,0,L|138:140,1,56.2500021457673,2|0,1:2|0:0,0:0:0:0:
290,181,203422,2,0,L|234:171,1,56.2500021457673,2|0,0:2|0:0,0:0:0:0:
0,126,203653,6,0,L|56:117,1,56.2500021457673,10|0,0:2|0:0,0:0:0:0:
291,76,203884,2,0,L|235:85,1,56.2500021457673,2|0,0:2|0:0,0:0:0:0:
123,169,204114,6,0,B|140:152|140:152|143:64|144:151|147:60|147:60|164:45,2,134.999995880127,2|2|2,0:0|0:0|0:0,0:0:0:0:
75,275,205961,5,6,1:2:0:0:
149,251,206076,1,2,3:2:0:0:
75,275,206191,1,2,3:2:0:0:
123,169,206307,5,6,1:2:0:0:
265,258,206422,1,2,3:2:0:0:
123,169,206538,1,2,3:2:0:0:
367,216,206653,5,6,1:2:0:0:
182,328,206768,1,2,3:2:0:0:
367,216,206884,2,0,B|366:214|400:220|440:227,1,75,6|2,1:2|3:2,0:0:0:0:
296,8,207114,6,0,P|282:-20|305:2,1,89.9999972534181,0|0,1:2|1:0,0:0:0:0:
206,128,207345,2,0,P|174:122|206:114,1,89.9999972534181,4|4,0:3|0:3,0:0:0:0:
280,264,207576,2,0,P|259:290|267:258,1,89.9999972534181,8|4,0:3|3:0,0:3:0:0:
480,75,207807,6,0,B|494:112|494:112|448:58|356:48,1,179.999994506836,6|0,1:2|0:2,0:2:0:0:
188,0,208153,2,0,P|198:65|234:82,1,89.9999972534181,2|8,3:2|0:2,0:2:0:0:
302,253,208384,1,2,3:2:0:0:
271,179,208499,2,0,P|285:136|303:95,1,89.9999972534181,2|0,3:2|0:2,0:2:0:0:
85,243,208730,6,0,P|168:274|278:328,1,179.999994506836,2|2,1:2|3:2,0:2:0:0:
380,254,209076,1,0,3:2:0:0:
404,176,209191,2,0,B|413:151|390:133|390:133|393:157|380:186,1,89.9999972534181,10|0,0:2|0:2,0:2:0:0:
231,384,209422,2,0,P|189:368|173:328,1,89.9999972534181,2|0,1:2|0:2,0:2:0:0:
184,159,209653,6,0,P|228:150|271:137,1,89.9999972534181,2|0,1:2|0:2,0:2:0:0:
412,325,209884,1,2,3:2:0:0:
337,335,209999,2,0,P|292:325|249:312,1,89.9999972534181,2|8,3:2|0:2,0:2:0:0:
85,243,210230,1,2,3:2:0:0:
160,253,210345,2,0,P|205:243|248:230,1,89.9999972534181,2|0,3:2|0:2,0:2:0:0:
417,142,210576,2,0,B|372:118|368:67|368:67|336:103|290:105,1,179.999994506836,2|0,1:2|3:2,0:2:0:0:
325,258,210922,1,0,3:2:0:0:
325,258,211038,6,0,P|341:278|318:260,1,89.9999972534181,10|0,0:2|0:2,0:2:0:0:
294,105,211268,2,0,P|274:169|281:221,1,89.9999972534181,2|0,3:2|0:2,0:2:0:0:
463,363,211499,6,0,B|371:320|390:403|275:361,1,179.999994506836,2|2,1:2|3:2,0:2:0:0:
401,222,211845,1,0,3:2:0:0:
479,225,211961,2,0,P|495:232|493:307,1,89.9999972534181,10|0,0:2|0:2,0:2:0:0:
289,365,212191,2,0,B|290:311|312:337|312:269,1,89.9999972534181,2|0,3:2|0:2,0:2:0:0:
511,123,212422,6,0,P|469:141|425:149,1,89.9999972534181,2|0,1:2|0:2,0:2:0:0:
264,128,212653,2,0,P|305:109|349:101,1,89.9999972534181,2|0,3:2|0:2,0:2:0:0:
401,222,212884,6,0,P|356:213|315:195,1,89.9999972534181,10|0,0:2|0:2,0:2:0:0:
129,34,213114,2,0,P|173:42|214:60,1,89.9999972534181,2|0,3:2|0:2,0:2:0:0:
347,293,213345,6,0,P|268:334|182:316,1,179.999994506836,2|2,1:2|0:2,0:2:0:0:
182,164,213691,2,0,B|212:194|212:194|217:241,1,89.9999972534181,2|8,3:2|0:2,0:2:0:0:
116,365,213922,1,2,3:2:0:0:
37,378,214038,2,0,B|7:348|7:348|-6:237,1,89.9999972534181,2|0,1:2|0:2,0:2:0:0:
106,107,214268,2,0,L|80:324,1,179.999994506836,2|0,1:2|3:2,0:2:0:0:
182,316,214614,1,0,3:2:0:0:
182,316,214730,6,0,B|231:338|221:304|288:337,1,89.9999972534181,10|0,0:2|0:2,0:2:0:0:
382,384,214961,2,0,P|423:356|426:312,1,89.9999972534181,2|0,1:2|0:2,0:2:0:0:
330,29,215191,6,0,B|404:56|397:119|397:119|351:137|343:198,1,179.999994506836,6|0,1:2|0:2,0:2:0:0:
370,261,215538,2,0,B|351:278|347:302|347:302|339:278|354:259,1,89.9999972534181,2|8,3:2|0:2,0:2:0:0:
512,103,215768,1,2,3:2:0:0:
512,178,215884,2,0,B|461:178|472:200|425:199,1,89.9999972534181,2|0,3:2|0:2,0:2:0:0:
269,328,216114,6,0,B|183:341|195:267|96:279,1,179.999994506836,2|2,1:2|3:2,0:2:0:0:
255,173,216461,1,0,3:2:0:0:
279,157,216576,2,0,P|261:213|256:255,1,89.9999972534181,10|0,0:2|0:2,0:2:0:0:
31,314,216807,2,0,B|6:306|-13:312|-13:312|10:306|30:274,1,89.9999972534181,2|0,1:2|0:2,0:2:0:0:
351,327,217038,6,0,B|367:290|367:290|344:246,1,89.9999972534181,2|0,1:2|0:2,0:2:0:0:
293,26,217268,1,2,3:2:0:0:
217,46,217384,2,0,L|176:168,1,89.9999972534181,2|8,3:2|0:2,0:2:0:0:
344,246,217614,2,0,B|361:207|388:186|388:186|351:135|340:92,1,179.999994506836,2|0,3:2|0:2,0:2:0:0:
109,204,217961,2,0,P|214:160|330:166,1,179.999994506836,2|0,1:2|3:2,0:2:0:0:
433,267,218307,1,0,3:2:0:0:
433,267,218422,6,0,P|417:309|410:353,1,89.9999972534181,10|0,0:2|0:2,0:2:0:0:
226,320,218653,2,0,P|241:277|248:233,1,89.9999972534181,2|0,3:2|0:2,0:2:0:0:
455,100,218884,6,0,B|412:2|280:68|311:108|377:89,1,179.999994506836,2|2,1:2|3:2,0:2:0:0:
307,288,219230,1,0,3:2:0:0:
336,214,219345,2,0,P|318:174|278:156,1,89.9999972534181,10|0,0:2|0:2,0:2:0:0:
160,252,219576,2,0,L|271:227,1,89.9999972534181,2|0,1:2|0:2,0:2:0:0:
429,295,219807,6,0,B|458:191|391:209|414:116,1,179.999994506836,2|2,1:2|3:2,0:2:0:0:
512,256,220153,1,0,3:2:0:0:
503,335,220268,2,0,P|481:372|438:384,1,89.9999972534181,10|0,0:2|0:2,0:2:0:0:
336,214,220499,2,0,L|248:233,1,89.9999972534181,2|0,1:2|0:2,0:2:0:0:
75,186,220730,6,0,B|95:218|103:267|103:267|130:230|166:214,1,168.750006437302,2|0,1:2|0:0,0:0:0:0:
123,46,220961,2,0,B|86:49|40:31|40:31|58:73|55:112,1,168.750006437302,2|0,1:2|0:0,0:0:0:0:
220,159,221191,2,0,B|238:125|276:94|276:94|231:89|199:67,1,168.750006437302,14|0,0:0|0:0,0:0:0:0:
139,131,221422,5,0,3:0:0:0:
139,131,221538,1,0,3:0:0:0:
166,214,221653,5,4,0:3:0:0:
218,277,221768,1,4,0:3:0:0:
296,301,221883,1,4,0:3:0:0:
377,289,221999,1,4,0:3:0:0:
508,256,222114,5,0,1:0:0:0:
397,258,222229,1,0,1:0:0:0:
296,301,222344,1,0,1:0:0:0:
218,384,222460,1,0,1:0:0:0:
393,373,222576,6,0,P|397:195|371:158,1,194.999991073609,6|0,1:2|0:2,0:2:0:0:
224,65,222922,2,0,P|216:30|236:59,1,97.4999955368044,2|8,3:2|0:2,0:2:0:0:
462,148,223153,1,2,3:2:0:0:
388,110,223268,2,0,P|340:99|294:112,1,97.4999955368044,2|0,3:2|0:2,0:2:0:0:
58,111,223499,6,0,B|32:78|32:78|147:87|154:224,1,194.999991073609,2|2,1:2|3:2,0:2:0:0:
162,276,223845,1,0,3:2:0:0:
133,345,223961,2,0,P|90:326|82:280,1,97.4999955368044,10|0,0:2|0:2,0:2:0:0:
187,63,224191,2,0,B|213:35|213:35|200:92,1,97.4999955368044,2|0,3:2|0:2,0:2:0:0:
334,250,224422,6,0,P|286:259|238:268,1,97.4999955368044,2|0,1:2|0:2,0:2:0:0:
0,120,224653,1,2,3:2:0:0:
48,184,224768,2,0,P|95:174|143:165,1,97.4999955368044,2|8,3:2|0:2,0:2:0:0:
345,139,224999,1,2,3:2:0:0:
297,75,225114,2,0,P|249:84|201:93,1,97.4999955368044,2|0,3:2|0:2,0:2:0:0:
84,286,225345,6,0,B|193:272|145:357|258:348,1,194.999991073609,2|0,1:2|3:2,0:2:0:0:
423,297,225691,1,0,3:2:0:0:
423,297,225807,6,0,B|454:295|460:326|460:326|428:331|414:298,1,97.4999955368044,10|0,0:2|0:2,0:2:0:0:
345,139,226038,2,0,P|367:117|346:141,1,97.4999955368044,2|0,1:2|0:2,0:2:0:0:
257,349,226268,6,0,B|238:322|238:322|255:228,1,97.4999955368044,2|0,1:2|0:2,0:2:0:0:
413,219,226499,2,0,B|432:246|432:246|415:340,1,97.4999955368044,2|0,3:2|0:2,0:2:0:0:
354,384,226730,6,0,L|332:258,1,97.4999955368044,10|0,0:2|0:2,0:2:0:0:
153,209,226961,2,0,L|169:305,1,97.4999955368044,2|0,3:2|0:2,0:2:0:0:
249,258,227191,6,0,P|262:199|267:141,1,97.4999955368044,2|0,1:2|0:2,0:2:0:0:
67,132,227422,2,0,P|54:191|49:249,1,97.4999955368044,2|0,3:2|0:2,0:2:0:0:
249,83,227653,6,0,P|190:96|132:101,1,97.4999955368044,10|0,0:2|0:2,0:2:0:0:
0,323,227884,2,0,P|59:310|117:305,1,97.4999955368044,2|0,3:2|0:2,0:2:0:0:
335,189,228114,6,0,B|384:95|288:108|347:3,1,194.999991073609,2|0,1:2|0:2,0:2:0:0:
485,31,228461,2,0,P|451:64|404:62,1,97.4999955368044,2|8,3:2|0:2,0:2:0:0:
253,145,228691,1,2,3:2:0:0:
186,105,228807,2,0,P|233:103|266:136,1,97.4999955368044,2|0,1:2|0:2,0:2:0:0:
452,180,229038,2,0,P|358:208|266:240,1,194.999991073609,2|0,1:2|3:2,0:2:0:0:
147,334,229384,1,0,3:2:0:0:
142,336,229499,6,0,P|146:375|181:341,1,97.4999955368044,10|0,0:2|0:2,0:2:0:0:
325,374,229730,2,0,P|359:341|358:294,1,97.4999955368044,2|0,1:2|0:2,0:2:0:0:
30,171,229961,6,0,B|45:189|52:222|52:222|187:255,1,194.999991073609,6|0,1:2|0:2,0:2:0:0:
311,141,230307,2,0,B|315:118|315:118|291:95|291:95|291:127|291:127|310:142,1,97.4999955368044,2|8,3:2|0:2,0:2:0:0:
239,384,230538,1,2,3:2:0:0:
259,309,230653,2,0,L|281:214,1,97.4999955368044,2|0,3:2|0:2,0:2:0:0:
512,192,230884,2,0,P|489:233|442:239,1,97.4999955368044,2|0,1:2|0:2,0:2:0:0:
282,31,231114,5,2,3:2:0:0:
361,13,231230,1,0,3:2:0:0:
405,81,231345,2,0,P|448:102|496:112,1,97.4999955368044,10|0,0:2|0:2,0:2:0:0:
299,151,231576,2,0,P|251:161|207:182,1,97.4999955368044,2|0,3:2|0:2,0:2:0:0:
493,384,231807,6,0,P|504:358|510:272,1,97.4999955368044,0|0,1:2|0:2,0:2:0:0:
463,145,232038,2,0,P|451:170|446:257,1,97.4999955368044,2|0,3:2|0:2,0:2:0:0:
355,344,232268,2,0,P|352:316|313:238,1,97.4999955368044,10|0,0:2|0:2,0:2:0:0:
177,91,232499,2,0,P|179:118|218:196,1,97.4999955368044,2|0,3:2|0:2,0:2:0:0:
28,379,232730,5,0,1:2:0:0:
14,370,232845,1,0,1:2:0:0:
0,362,232961,5,2,3:2:0:0:
28,286,233076,1,2,3:2:0:0:
108,290,233191,2,0,B|152:310|152:310|197:396,1,97.4999955368044,10|0,0:2|0:2,0:2:0:0:
323,229,233422,2,0,B|293:213|293:213|173:227|173:227|112:200,1,194.999991073609,2|0,3:2|1:2,0:2:0:0:
218,44,233768,1,0,3:2:0:0:
218,44,233884,6,0,P|186:53|222:56,1,97.4999955368044,2|0,3:2|0:2,0:2:0:0:
438,70,234114,2,0,B|393:41|382:-11|382:-11|357:32|291:33,1,194.999991073609,10|2,0:2|3:2,0:2:0:0:
250,193,234461,1,0,3:2:0:0:
323,229,234576,6,0,B|345:246|345:246|324:157,1,97.4999955368044,2|0,1:2|0:2,0:2:0:0:
303,32,234807,2,0,B|286:99|286:99|308:82,1,97.4999955368044,2|0,3:2|0:2,0:2:0:0:
499,153,235038,6,0,B|478:142|478:142|389:163,1,97.4999955368044,10|0,0:2|0:2,0:2:0:0:
157,198,235268,2,0,B|178:209|178:209|249:192,1,97.4999955368044,2|0,3:2|0:2,0:2:0:0:
507,331,235499,5,2,1:2:0:0:
446,383,235614,1,2,3:2:0:0:
413,305,235729,5,2,3:2:0:0:
351,333,235844,1,2,3:2:0:0:
340,254,235960,5,10,0:2:0:0:
312,249,236076,1,2,3:2:0:0:
328,178,236191,5,2,3:2:0:0:
321,172,236306,1,2,3:2:0:0:
406,158,236422,6,0,B|310:167|347:86|211:100,2,194.999991073609,2|2|10,1:2|3:2|0:2,0:2:0:0:
480,130,236999,1,0,3:2:0:0:
479,50,237114,2,0,P|427:59|380:74,1,97.4999955368044,2|0,3:2|0:2,0:2:0:0:
173,158,237345,6,0,P|145:120|154:66,1,97.4999955368044,6|0,1:2|0:2,0:2:0:0:
249,13,237576,2,0,P|255:60|227:98,1,97.4999955368044,2|0,3:2|0:2,0:2:0:0:
0,78,237807,6,0,P|30:42|85:41,1,97.4999955368044,10|0,0:2|0:2,0:2:0:0:
241,202,238038,2,0,P|210:237|155:238,1,97.4999955368044,2|0,3:2|0:2,0:2:0:0:
79,39,238268,6,0,P|71:136|56:232,1,194.999991073609,2|2,1:2|3:2,0:2:0:0:
0,384,238614,1,0,3:2:0:0:
65,339,238730,2,0,L|160:318,1,97.4999955368044,10|0,0:2|0:2,0:2:0:0:
241,202,238961,2,0,L|336:222,1,97.4999955368044,2|0,3:2|0:2,0:2:0:0:
391,338,239191,6,0,B|412:365|412:365|352:348,1,97.4999955368044,2|0,1:2|0:2,0:2:0:0:
161,240,239422,1,2,3:2:0:0:
156,157,239538,1,2,3:2:0:0:
205,89,239653,6,0,B|260:87|260:87|297:118,1,97.4999955368044,10|0,0:2|0:2,0:2:0:0:
423,197,239884,2,0,B|368:195|368:195|331:226,1,97.4999955368044,2|0,3:2|0:2,0:2:0:0:
302,30,240114,2,0,L|343:268,1,194.999991073609,2|2,1:2|3:2,0:2:0:0:
498,384,240461,1,0,3:2:0:0:
418,367,240576,6,0,B|398:334|398:334|415:243,1,97.4999955368044,10|0,0:2|0:2,0:2:0:0:
490,147,240807,2,0,B|510:114|510:114|493:23,1,97.4999955368044,2|0,3:2|0:2,0:2:0:0:
200,50,241038,5,4,1:2:0:0:
120,108,241153,5,0,1:2:0:0:
106,204,241268,5,0,1:2:0:0:
164,283,241384,5,0,1:2:0:0:
260,297,241499,5,0,1:2:0:0:
339,240,241614,5,0,1:2:0:0:
353,144,241730,5,0,1:2:0:0:
296,64,241845,6,0,L|196:80,1,93.75,4|0,1:2|0:2,0:2:0:0:
199,92,242191,6,0,L|310:74,1,112.500004291535,4|0,1:2|0:2,0:2:0:0:
395,60,242422,5,0,0:0:0:0:
395,60,242653,1,0,0:0:0:0:
151,8,242884,5,6,1:2:0:0:
126,31,242999,2,0,L|111:150,1,75,2|0,3:2|0:2,0:2:0:0:
259,200,243230,2,0,B|211:196|160:175|160:175|179:227|168:256,1,150,2|0,3:2|0:2,0:2:0:0:
25,242,243576,2,0,P|82:241|105:204,1,75,2|0,3:2|0:2,0:2:0:0:
318,134,243807,6,0,P|297:190|288:310,2,150,2|2|10,1:2|3:2|0:2,0:2:0:0:
462,68,244384,1,0,3:2:0:0:
466,74,244499,5,2,3:2:0:0:
395,113,244614,1,2,3:2:0:0:
339,56,244730,5,2,1:2:0:0:
315,30,244845,2,0,P|281:12|232:23,1,75,2|0,3:2|0:2,0:2:0:0:
23,107,245076,2,0,B|107:104|82:164|168:160,1,150,2|0,3:2|0:2,0:2:0:0:
171,0,245422,2,0,P|155:61|155:91,1,75,2|0,3:2|0:2,0:2:0:0:
291,240,245653,6,0,P|268:168|262:94,1,150,0|2,1:2|3:2,0:2:0:0:
157,160,245999,1,0,3:2:0:0:
157,160,246114,2,0,P|108:188|86:192,1,75,10|0,0:2|0:2,0:2:0:0:
0,250,246345,2,0,P|30:271|66:281,1,75,2|0,3:2|0:2,0:2:0:0:
185,369,246576,5,2,1:2:0:0:
164,384,246691,2,0,L|174:280,1,75,2|0,3:2|0:2,0:2:0:0:
383,268,246922,2,0,B|309:266|309:266|248:322,1,150,2|0,3:2|0:2,0:2:0:0:
155,194,247268,2,0,P|195:211|241:221,1,75,2|0,3:2|0:2,0:2:0:0:
399,341,247499,6,0,L|382:267,1,75,2|0,1:2|0:2,0:2:0:0:
388,178,247730,2,0,L|404:251,1,75,2|0,3:2|0:2,0:2:0:0:
283,364,247961,6,0,L|299:290,1,75,10|0,0:2|0:2,0:2:0:0:
501,221,248191,2,0,L|484:294,1,75,2|0,3:2|0:2,0:2:0:0:
260,196,248422,6,0,L|276:122,1,75,2|0,1:2|0:2,0:2:0:0:
449,32,248653,1,2,3:2:0:0:
470,52,248768,2,0,B|525:106|525:106|465:148,1,150,2|0,3:2|0:2,0:2:0:0:
404,251,249114,2,0,P|358:239|342:216,1,75,2|0,3:2|0:2,0:2:0:0:
260,88,249345,6,0,B|293:67|304:28|304:28|333:54|376:52,1,150,2|2,1:2|3:2,0:2:0:0:
332,142,249691,1,0,3:2:0:0:
328,147,249807,5,10,3:2:0:0:
294,162,249922,1,2,3:2:0:0:
238,167,250038,1,2,3:2:0:0:
178,115,250153,1,2,3:2:0:0:
168,27,250268,5,6,1:2:0:0:
189,6,250384,2,0,P|226:20|262:21,1,75,2|0,3:2|0:2,0:2:0:0:
146,137,250614,2,0,P|73:157|5:188,1,150,2|0,3:2|0:2,0:2:0:0:
9,76,250961,2,0,P|41:93|56:126,1,75,2|0,3:2|0:2,0:2:0:0:
227,236,251191,6,0,B|195:163|261:165|204:66,2,150,2|2|10,1:2|3:2|0:2,0:2:0:0:
143,382,251768,1,0,3:2:0:0:
134,381,251884,5,2,3:2:0:0:
97,314,251999,1,2,3:2:0:0:
133,242,252114,5,2,1:2:0:0:
152,230,252230,2,0,L|268:239,1,75,2|0,3:2|0:2,0:2:0:0:
452,338,252461,2,0,B|420:338|392:314|392:314|395:366|348:385,1,150,2|0,3:2|0:2,0:2:0:0:
311,311,252807,2,0,B|300:278|300:278|310:239,1,75,2|0,3:2|0:2,0:2:0:0:
512,228,253038,6,0,B|536:261|536:261|415:232,1,150,2|2,1:2|3:2,0:2:0:0:
373,172,253384,1,0,3:2:0:0:
365,170,253499,5,10,3:2:0:0:
327,156,253614,1,2,3:2:0:0:
270,167,253730,1,2,3:2:0:0:
212,219,253845,1,2,3:2:0:0:
123,232,253961,5,2,1:2:0:0:
100,211,254076,2,0,P|79:180|77:143,1,75,2|0,3:2|0:2,0:2:0:0:
243,30,254307,2,0,P|279:94|270:168,1,150,2|0,3:2|0:2,0:2:0:0:
163,157,254653,2,0,B|167:129|167:129|165:117|165:117|171:83,1,75,2|0,3:2|0:2,0:2:0:0:
345,36,254884,6,0,B|379:44|379:44|360:78,1,75,2|0,1:2|0:2,0:2:0:0:
95,54,255114,2,0,B|76:19|76:19|110:11,1,75,2|0,3:2|0:2,0:2:0:0:
344,154,255345,6,0,P|305:159|238:177,1,75,10|0,0:2|0:2,0:2:0:0:
130,253,255576,2,0,P|169:258|236:276,1,75,2|0,3:2|0:2,0:2:0:0:
263,367,255807,5,0,1:2:0:0:
258,15,256038,5,2,3:2:0:0:
229,24,256153,1,2,3:2:0:0:
198,61,256268,1,2,1:2:0:0:
211,133,256384,1,2,1:2:0:0:
277,181,256499,1,2,1:2:0:0:
319,264,256614,1,2,1:2:0:0:
263,367,256730,5,6,1:2:0:0:
71,170,256961,5,0,3:0:0:0:
96,246,257076,1,6,1:2:0:0:
403,105,257307,5,0,3:0:0:0:
395,134,257422,1,6,1:2:0:0:
