osu file format v14

[General]
AudioFilename: audio.mp3
AudioLeadIn: 0
PreviewTime: 75034
Countdown: 0
SampleSet: Soft
StackLeniency: 0.7
Mode: 1
LetterboxInBreaks: 0
WidescreenStoryboard: 1

[Editor]
Bookmarks: 41168
DistanceSpacing: 2.2
BeatDivisor: 4
GridSize: 16
TimelineZoom: 3.599999

[Metadata]
Title:Yoru ni Kakeru
TitleUnicode:夜に駆ける
Artist:YOASOBI
ArtistUnicode:YOASOBI
Creator:Salieri
Version:SaLi Oni (Short Ver.)
Source:
Tags:hoku 3page pare japanese pop j-pop jpop racing into the night ayase ikura the book
BeatmapID:2460578
BeatmapSetID:1180007

[Difficulty]
HPDrainRate:4
CircleSize:3.8
OverallDifficulty:6
ApproachRate:9.9
SliderMultiplier:1.39999990463257
SliderTickRate:1

[Events]
//Background and Video events
0,0,"73891369_p0.jpg",0,0
//Break Periods
//Storyboard Layer 0 (Background)
//Storyboard Layer 1 (Fail)
//Storyboard Layer 2 (Pass)
//Storyboard Layer 3 (Foreground)
//Storyboard Layer 4 (Overlay)
//Storyboard Sound Samples

[TimingPoints]
265,230.769230769231,4,2,0,60,1,0
365,-133.333333333333,4,2,0,60,0,0
9495,-117.647058823529,4,2,0,60,0,0
16418,-113.636363636364,4,2,0,60,0,0
16534,-109.89010989011,4,2,0,60,0,0
16649,-106.382978723404,4,2,0,60,0,0
16765,-103.092783505155,4,2,0,60,0,0
16880,230.769230769231,4,2,0,60,1,0
16880,-100,4,2,0,60,0,0
31303,-104.166666666667,4,2,0,60,0,0
31418,-108.695652173913,4,2,0,60,0,0
31533,-113.636363636364,4,2,0,60,0,0
31649,-117.647058823529,4,2,0,60,0,0
39033,-111.111111111111,4,2,0,60,0,0
45495,-112.359550561798,4,2,0,60,0,0
45726,-113.636363636364,4,2,0,60,0,0
45841,-114.942528735632,4,2,0,60,0,0
46072,-116.279069767442,4,2,0,60,0,0
46187,-117.647058823529,4,2,0,60,0,0
46418,-111.111111111111,4,2,0,60,0,0
61187,-100,4,2,0,60,0,0
62110,-111.111111111111,4,2,0,60,0,0
63033,-100,4,2,0,60,0,0
63956,-105.263157894737,4,2,0,60,0,0
68572,-111.111111111111,4,2,0,60,0,0
68803,-109.89010989011,4,2,0,60,0,0
69033,-108.695652173913,4,2,0,60,0,0
69264,-107.52688172043,4,2,0,60,0,0
69495,-106.382978723404,4,2,0,60,0,0
69726,-105.263157894737,4,2,0,60,0,0
69956,-104.166666666667,4,2,0,60,0,0
70187,-103.092783505155,4,2,0,60,0,0
70418,-100,4,2,0,60,0,0
74110,-95.2380952380951,4,2,0,60,0,0
75956,-100,4,2,0,60,0,1
75956,-100,4,2,0,60,0,1
102956,-100,4,2,0,60,0,0

[HitObjects]
330,288,2111,5,0,0:0:0:0:
374,222,3034,1,2,0:0:0:0:
374,222,3957,1,0,0:0:0:0:
299,191,4880,1,2,0:0:0:0:
299,191,5341,1,2,0:0:0:0:
81,268,5803,1,0,0:0:0:0:
251,237,6149,1,0,0:0:0:0:
427,282,6495,1,2,0:0:0:0:
427,282,6726,1,0,0:0:0:0:
427,282,6957,1,2,0:0:0:0:
384,175,7188,1,2,0:0:0:0:
405,240,7418,1,0,0:0:0:0:
457,235,7649,1,2,0:0:0:0:
446,322,7995,1,0,0:0:0:0:
450,268,8341,1,2,0:0:0:0:
393,308,8572,1,0,0:0:0:0:
427,289,8803,1,2,0:0:0:0:
450,268,9034,1,2,0:0:0:0:
427,289,9265,1,0,0:0:0:0:
150,242,9495,1,0,0:0:0:0:
150,242,9957,1,0,0:0:0:0:
150,242,10418,1,0,0:0:0:0:
150,242,10880,1,0,0:0:0:0:
150,242,11111,1,2,0:0:0:0:
150,242,11341,1,0,0:0:0:0:
376,288,11803,1,0,0:0:0:0:
148,247,12265,1,0,0:0:0:0:
375,287,12726,1,0,0:0:0:0:
375,287,13188,1,0,0:0:0:0:
375,287,13649,1,0,0:0:0:0:
375,287,14111,1,0,0:0:0:0:
375,287,14572,1,0,0:0:0:0:
375,287,15034,1,0,0:0:0:0:
265,247,16418,1,0,0:0:0:0:
265,247,16534,1,0,0:0:0:0:
265,247,16649,1,2,0:0:0:0:
265,247,16765,1,2,0:0:0:0:
295,317,16880,1,0,0:0:0:0:
433,249,16995,1,0,0:0:0:0:
433,249,17110,1,2,0:0:0:0:
433,249,17168,1,2,0:0:0:0:
433,249,17226,1,2,0:0:0:0:
433,249,17341,1,0,0:0:0:0:
414,96,17456,1,2,0:0:0:0:
433,249,17572,1,0,0:0:0:0:
433,249,17803,1,2,0:0:0:0:
433,249,17918,1,0,0:0:0:0:
433,249,18033,1,2,0:0:0:0:
433,249,18091,1,2,0:0:0:0:
433,249,18149,1,0,0:0:0:0:
356,247,18264,1,2,0:0:0:0:
370,92,18380,1,0,0:0:0:0:
370,245,18495,1,2,0:0:0:0:
401,248,18726,1,0,0:0:0:0:
401,248,18783,1,0,0:0:0:0:
401,248,18841,1,0,0:0:0:0:
472,112,18956,1,2,0:0:0:0:
387,242,19072,1,2,0:0:0:0:
401,248,19187,1,0,0:0:0:0:
401,248,19245,1,0,0:0:0:0:
387,242,19303,1,2,0:0:0:0:
234,227,19418,1,0,0:0:0:0:
387,223,19533,1,2,0:0:0:0:
410,222,19649,1,0,0:0:0:0:
410,222,19764,1,2,0:0:0:0:
410,222,19822,1,2,0:0:0:0:
476,260,19880,1,0,0:0:0:0:
401,248,19995,1,2,0:0:0:0:
410,222,20110,1,2,0:0:0:0:
426,258,20226,1,0,0:0:0:0:
426,258,20341,1,0,0:0:0:0:
426,258,20572,1,0,0:0:0:0:
401,248,20687,1,0,0:0:0:0:
410,222,20803,1,2,0:0:0:0:
401,248,21033,1,0,0:0:0:0:
426,258,21264,1,2,0:0:0:0:
401,248,21495,1,2,0:0:0:0:
401,248,21610,1,0,0:0:0:0:
501,130,21726,1,2,0:0:0:0:
401,247,21841,1,2,0:0:0:0:
440,235,21956,1,0,0:0:0:0:
401,247,22187,1,2,0:0:0:0:
440,235,22418,1,0,0:0:0:0:
440,235,22649,1,0,0:0:0:0:
327,339,22764,1,2,0:0:0:0:
401,247,22995,1,0,0:0:0:0:
440,235,23110,1,2,0:0:0:0:
440,235,23226,1,2,0:0:0:0:
288,261,23341,1,0,0:0:0:0:
440,235,23572,1,2,0:0:0:0:
440,235,23687,1,2,0:0:0:0:
440,235,23803,1,0,0:0:0:0:
329,128,23918,1,2,0:0:0:0:
365,277,24033,1,2,0:0:0:0:
440,235,24149,1,0,0:0:0:0:
295,317,24264,1,0,0:0:0:0:
433,249,24379,1,0,0:0:0:0:
433,249,24494,1,2,0:0:0:0:
433,249,24552,1,2,0:0:0:0:
433,249,24610,1,2,0:0:0:0:
433,249,24725,1,0,0:0:0:0:
414,96,24840,1,2,0:0:0:0:
433,249,24956,1,0,0:0:0:0:
433,249,25187,1,2,0:0:0:0:
433,249,25302,1,0,0:0:0:0:
433,249,25417,1,2,0:0:0:0:
433,249,25475,1,2,0:0:0:0:
433,249,25533,1,0,0:0:0:0:
356,247,25648,1,2,0:0:0:0:
370,92,25764,1,0,0:0:0:0:
370,245,25879,1,2,0:0:0:0:
401,248,26110,1,0,0:0:0:0:
401,248,26167,1,0,0:0:0:0:
401,248,26225,1,0,0:0:0:0:
472,112,26340,1,2,0:0:0:0:
387,242,26456,1,2,0:0:0:0:
401,248,26571,1,0,0:0:0:0:
401,248,26629,1,0,0:0:0:0:
387,242,26687,1,2,0:0:0:0:
234,227,26802,1,0,0:0:0:0:
387,223,26917,1,2,0:0:0:0:
410,222,27033,1,0,0:0:0:0:
410,222,27090,1,0,0:0:0:0:
410,222,27148,1,2,0:0:0:0:
410,222,27206,1,2,0:0:0:0:
476,260,27264,1,0,0:0:0:0:
401,248,27379,1,2,0:0:0:0:
410,222,27494,1,2,0:0:0:0:
426,258,27610,1,0,0:0:0:0:
426,258,27725,1,0,0:0:0:0:
426,258,27956,1,0,0:0:0:0:
401,248,28071,1,0,0:0:0:0:
410,222,28187,1,2,0:0:0:0:
401,248,28417,1,0,0:0:0:0:
426,258,28648,1,2,0:0:0:0:
401,248,28879,1,2,0:0:0:0:
401,248,28994,1,0,0:0:0:0:
501,130,29110,1,2,0:0:0:0:
401,247,29225,1,2,0:0:0:0:
440,235,29340,1,0,0:0:0:0:
401,247,29571,1,2,0:0:0:0:
440,235,29802,1,0,0:0:0:0:
440,235,30033,1,0,0:0:0:0:
327,339,30148,1,2,0:0:0:0:
191,263,30264,1,0,0:0:0:0:
401,247,30379,1,0,0:0:0:0:
440,235,30494,1,2,0:0:0:0:
440,235,30610,1,2,0:0:0:0:
288,261,30725,1,0,0:0:0:0:
440,235,30956,1,2,0:0:0:0:
440,235,31071,1,2,0:0:0:0:
440,235,31187,1,0,0:0:0:0:
329,128,31302,1,2,0:0:0:0:
365,277,31417,1,2,0:0:0:0:
440,235,31533,1,0,0:0:0:0:
365,277,31649,1,0,0:0:0:0:
440,235,31880,1,0,0:0:0:0:
257,275,32110,1,0,0:0:0:0:
440,235,32341,1,2,0:0:0:0:
440,235,32803,1,2,0:0:0:0:
472,211,33033,1,0,0:0:0:0:
472,211,33264,1,0,0:0:0:0:
445,185,33726,1,2,0:0:0:0:
277,215,34187,1,0,0:0:0:0:
312,273,34418,1,0,0:0:0:0:
312,273,34649,1,2,0:0:0:0:
312,273,34880,1,2,0:0:0:0:
498,174,35110,1,0,0:0:0:0:
312,273,35341,1,2,0:0:0:0:
312,273,35572,1,2,0:0:0:0:
336,259,35803,1,0,0:0:0:0:
312,273,36033,1,2,0:0:0:0:
336,259,36264,1,0,0:0:0:0:
336,259,36495,1,0,0:0:0:0:
336,259,36726,1,0,0:0:0:0:
428,260,36956,1,2,0:0:0:0:
439,321,37418,1,2,0:0:0:0:
400,286,37880,1,0,0:0:0:0:
411,242,38110,1,0,0:0:0:0:
411,242,38341,1,2,0:0:0:0:
411,242,38572,1,0,0:0:0:0:
158,311,38803,1,2,0:0:0:0:
411,242,39033,1,0,0:0:0:0:
411,242,39149,1,0,0:0:0:0:
411,242,39264,1,0,0:0:0:0:
477,246,39495,1,2,0:0:0:0:
477,246,39726,1,0,0:0:0:0:
477,246,39956,1,2,0:0:0:0:
477,246,40072,1,0,0:0:0:0:
477,246,40303,1,0,0:0:0:0:
477,246,40418,1,2,0:0:0:0:
477,246,40649,1,0,0:0:0:0:
477,246,40880,1,2,0:0:0:0:
477,246,40995,1,2,0:0:0:0:
477,246,41110,1,0,0:0:0:0:
477,246,41226,1,0,0:0:0:0:
477,246,41341,1,2,0:0:0:0:
209,288,41572,1,0,0:0:0:0:
477,246,41803,1,2,0:0:0:0:
448,224,42264,1,0,0:0:0:0:
451,249,42495,1,0,0:0:0:0:
448,224,42726,1,2,0:0:0:0:
448,224,42956,1,2,0:0:0:0:
448,224,43187,1,0,0:0:0:0:
476,224,43418,1,2,0:0:0:0:
412,230,43880,1,0,0:0:0:0:
412,230,44110,1,0,0:0:0:0:
412,230,44341,1,2,0:0:0:0:
461,284,44803,1,0,0:0:0:0:
412,308,45033,1,2,0:0:0:0:
480,290,45495,1,0,0:0:0:0:
480,290,45726,1,2,0:0:0:0:
480,290,45841,1,4,0:0:0:0:
480,290,46071,1,2,0:0:0:0:
354,342,46187,1,4,0:0:0:0:
354,342,46418,1,0,0:0:0:0:
354,342,46533,1,0,0:0:0:0:
354,342,46649,1,0,0:0:0:0:
443,260,46880,1,2,0:0:0:0:
443,260,47110,1,0,0:0:0:0:
443,260,47341,1,2,0:0:0:0:
443,260,47456,1,2,0:0:0:0:
317,200,47572,1,0,0:0:0:0:
379,262,47803,1,2,0:0:0:0:
426,248,48033,1,0,0:0:0:0:
412,270,48264,1,0,0:0:0:0:
426,248,48495,1,2,0:0:0:0:
426,248,48610,1,2,0:0:0:0:
289,277,48726,1,0,0:0:0:0:
419,297,48956,1,2,0:0:0:0:
426,248,49187,1,0,0:0:0:0:
426,248,49418,1,2,0:0:0:0:
426,248,49533,1,2,0:0:0:0:
426,248,49649,1,0,0:0:0:0:
426,248,49764,1,0,0:0:0:0:
286,252,49880,1,2,0:0:0:0:
426,248,50110,1,0,0:0:0:0:
426,248,50226,1,0,0:0:0:0:
449,234,50341,1,2,0:0:0:0:
449,234,50456,1,2,0:0:0:0:
390,360,50572,1,0,0:0:0:0:
449,234,50803,1,2,0:0:0:0:
449,234,51033,1,0,0:0:0:0:
449,234,51149,1,0,0:0:0:0:
468,217,51264,1,2,0:0:0:0:
346,285,51380,1,0,0:0:0:0:
477,242,51495,1,2,0:0:0:0:
477,242,51610,1,2,0:0:0:0:
449,234,51726,1,0,0:0:0:0:
509,233,51956,1,2,0:0:0:0:
477,242,52187,1,2,0:0:0:0:
419,368,52303,1,0,0:0:0:0:
509,233,52418,1,2,0:0:0:0:
509,233,52533,1,2,0:0:0:0:
401,321,52649,1,0,0:0:0:0:
494,216,52880,1,2,0:0:0:0:
509,233,53110,1,0,0:0:0:0:
509,233,53226,1,0,0:0:0:0:
384,292,53341,1,2,0:0:0:0:
508,233,53456,1,2,0:0:0:0:
509,233,53572,1,0,0:0:0:0:
496,209,53803,1,0,0:0:0:0:
486,247,54033,1,2,0:0:0:0:
496,209,54264,1,0,0:0:0:0:
496,209,54380,1,0,0:0:0:0:
486,247,54495,1,2,0:0:0:0:
496,209,54726,1,0,0:0:0:0:
496,209,54841,1,2,0:0:0:0:
463,276,55072,1,2,0:0:0:0:
501,235,55187,1,0,0:0:0:0:
496,209,55418,1,0,0:0:0:0:
496,209,55649,1,2,0:0:0:0:
496,209,55764,1,2,0:0:0:0:
496,209,55880,1,0,0:0:0:0:
496,209,55995,1,2,0:0:0:0:
496,209,56110,1,0,0:0:0:0:
496,209,56226,1,0,0:0:0:0:
420,324,56341,1,2,0:0:0:0:
497,186,56572,1,0,0:0:0:0:
496,209,57033,1,2,0:0:0:0:
218,202,57264,1,0,0:0:0:0:
496,209,57495,1,0,0:0:0:0:
496,209,57610,1,0,0:0:0:0:
496,209,57726,1,2,0:0:0:0:
496,209,57841,1,2,0:0:0:0:
368,261,57956,1,0,0:0:0:0:
480,232,58187,1,2,0:0:0:0:
496,209,58418,1,0,0:0:0:0:
496,209,58649,1,2,0:0:0:0:
496,209,58764,1,2,0:0:0:0:
359,235,58880,1,0,0:0:0:0:
496,209,59110,1,2,0:0:0:0:
496,209,59341,1,0,0:0:0:0:
496,209,59572,1,2,0:0:0:0:
496,209,59687,1,2,0:0:0:0:
496,209,59803,1,0,0:0:0:0:
468,344,59918,1,0,0:0:0:0:
365,251,60033,1,2,0:0:0:0:
496,209,60264,1,0,0:0:0:0:
379,285,60380,1,2,0:0:0:0:
500,219,60495,1,0,0:0:0:0:
397,307,60610,1,2,0:0:0:0:
397,307,60726,1,2,0:0:0:0:
468,344,60841,1,0,0:0:0:0:
496,209,60956,1,2,0:0:0:0:
496,209,61072,1,2,0:0:0:0:
385,309,61187,5,0,0:0:0:0:
385,309,61418,1,2,0:0:0:0:
385,309,61533,1,0,0:0:0:0:
385,309,61764,1,0,0:0:0:0:
246,320,61880,1,2,0:0:0:0:
385,309,62110,1,0,0:0:0:0:
385,309,62226,1,0,0:0:0:0:
385,309,62341,1,2,0:0:0:0:
385,309,62456,1,2,0:0:0:0:
292,204,62572,1,0,0:0:0:0:
421,251,62687,1,2,0:0:0:0:
366,379,62803,1,0,0:0:0:0:
292,204,63033,1,0,0:0:0:0:
292,204,63149,1,0,0:0:0:0:
292,204,63264,1,0,0:0:0:0:
430,186,63380,1,2,0:0:0:0:
336,308,63610,1,0,0:0:0:0:
456,238,63726,1,2,0:0:0:0:
456,238,63956,1,0,0:0:0:0:
456,238,64187,1,2,0:0:0:0:
456,238,64303,1,2,0:0:0:0:
342,316,64418,1,0,0:0:0:0:
291,187,64533,1,0,0:0:0:0:
400,272,64649,1,2,0:0:0:0:
436,247,64880,1,0,0:0:0:0:
456,238,65110,1,2,0:0:0:0:
471,258,65226,1,0,0:0:0:0:
452,333,65456,1,0,0:0:0:0:
312,337,65572,1,2,0:0:0:0:
414,243,65687,1,2,0:0:0:0:
300,324,65803,1,0,0:0:0:0:
437,242,66033,1,2,0:0:0:0:
437,242,66149,1,2,0:0:0:0:
349,348,66264,1,0,0:0:0:0:
439,241,66380,1,2,0:0:0:0:
414,243,66495,1,0,0:0:0:0:
414,243,66610,1,0,0:0:0:0:
437,242,66726,1,2,0:0:0:0:
465,269,66956,1,0,0:0:0:0:
465,269,67187,1,2,0:0:0:0:
465,269,67303,1,2,0:0:0:0:
465,269,67418,1,0,0:0:0:0:
465,269,67649,1,2,0:0:0:0:
465,269,67764,1,2,0:0:0:0:
479,248,67880,1,0,0:0:0:0:
479,248,67995,1,0,0:0:0:0:
465,269,68110,1,2,0:0:0:0:
465,269,68226,1,2,0:0:0:0:
479,248,68341,1,2,0:0:0:0:
479,248,68456,1,2,0:0:0:0:
465,269,68572,1,0,0:0:0:0:
479,248,68803,1,0,0:0:0:0:
465,269,69033,1,0,0:0:0:0:
459,323,69264,1,0,0:0:0:0:
479,248,69495,1,2,0:0:0:0:
479,248,69726,1,2,0:0:0:0:
479,248,69956,1,2,0:0:0:0:
479,248,70187,1,2,0:0:0:0:
479,248,70418,1,0,0:0:0:0:
479,248,70533,1,0,0:0:0:0:
479,248,70649,1,2,0:0:0:0:
479,248,70764,1,2,0:0:0:0:
350,302,70880,1,0,0:0:0:0:
479,248,71110,1,2,0:0:0:0:
479,248,71341,1,2,0:0:0:0:
479,248,71456,1,0,0:0:0:0:
479,248,71572,1,2,0:0:0:0:
479,248,71687,1,2,0:0:0:0:
479,248,71803,1,0,0:0:0:0:
470,217,72033,1,2,0:0:0:0:
470,217,72264,1,0,0:0:0:0:
470,217,72380,1,0,0:0:0:0:
443,222,72495,1,2,0:0:0:0:
458,359,72610,1,2,0:0:0:0:
470,217,72726,1,0,0:0:0:0:
458,359,72841,1,2,0:0:0:0:
458,359,72956,1,2,0:0:0:0:
397,233,73072,1,0,0:0:0:0:
450,242,73187,1,2,0:0:0:0:
450,242,73303,1,2,0:0:0:0:
280,144,73418,1,0,0:0:0:0:
450,242,73533,1,2,0:0:0:0:
277,143,73649,1,0,0:0:0:0:
450,242,73764,1,2,0:0:0:0:
275,141,73880,1,0,0:0:0:0:
244,174,74110,5,4,0:0:0:0:
244,174,74226,1,4,0:0:0:0:
244,174,74341,1,4,0:0:0:0:
353,258,74456,1,4,0:0:0:0:
243,173,74687,1,4,0:0:0:0:
327,296,75033,1,4,0:0:0:0:
219,211,75956,1,2,0:0:0:0:
219,211,76072,1,2,0:0:0:0:
219,211,76187,1,0,0:0:0:0:
219,211,76245,1,0,0:0:0:0:
219,211,76303,1,0,0:0:0:0:
371,229,76418,1,2,0:0:0:0:
371,229,76533,1,0,0:0:0:0:
371,229,76649,1,2,0:0:0:0:
405,288,76706,1,2,0:0:0:0:
439,215,76764,1,0,0:0:0:0:
439,215,76880,1,2,0:0:0:0:
439,215,76995,1,0,0:0:0:0:
372,234,77053,1,0,0:0:0:0:
405,288,77110,1,2,0:0:0:0:
405,288,77168,1,2,0:0:0:0:
335,280,77226,1,0,0:0:0:0:
439,215,77341,1,2,0:0:0:0:
317,279,77456,1,0,0:0:0:0:
455,259,77572,1,2,0:0:0:0:
386,269,77630,1,2,0:0:0:0:
386,269,77687,1,2,0:0:0:0:
435,252,77803,1,0,0:0:0:0:
344,356,77918,1,2,0:0:0:0:
439,215,78033,1,0,0:0:0:0:
435,252,78091,1,0,0:0:0:0:
439,215,78149,1,2,0:0:0:0:
505,199,78206,1,2,0:0:0:0:
439,215,78264,1,0,0:0:0:0:
499,222,78380,1,2,0:0:0:0:
441,258,78437,1,2,0:0:0:0:
439,261,78495,1,0,0:0:0:0:
441,261,78610,1,2,0:0:0:0:
439,215,78726,1,0,0:0:0:0:
445,226,78841,1,2,0:0:0:0:
445,226,78899,1,2,0:0:0:0:
418,289,78956,1,0,0:0:0:0:
441,261,79072,1,2,0:0:0:0:
507,244,79187,1,0,0:0:0:0:
440,223,79245,1,0,0:0:0:0:
445,226,79303,1,0,0:0:0:0:
445,226,79360,1,0,0:0:0:0:
418,289,79418,1,2,0:0:0:0:
441,261,79533,1,0,0:0:0:0:
441,261,79649,1,2,0:0:0:0:
441,261,79706,1,2,0:0:0:0:
385,218,79764,1,0,0:0:0:0:
329,175,79822,1,0,0:0:0:0:
367,232,79880,1,2,0:0:0:0:
475,317,79995,1,0,0:0:0:0:
406,258,80053,1,0,0:0:0:0:
406,258,80110,1,2,0:0:0:0:
303,285,80226,1,0,0:0:0:0:
432,238,80341,1,2,0:0:0:0:
381,284,80456,1,0,0:0:0:0:
406,258,80572,1,2,0:0:0:0:
406,258,80630,1,2,0:0:0:0:
406,258,80687,1,2,0:0:0:0:
270,288,80803,1,0,0:0:0:0:
407,280,80918,1,2,0:0:0:0:
406,258,81033,1,0,0:0:0:0:
406,258,81091,1,0,0:0:0:0:
406,258,81149,1,2,0:0:0:0:
406,258,81206,1,2,0:0:0:0:
471,233,81264,1,0,0:0:0:0:
471,233,81380,1,2,0:0:0:0:
372,231,81495,1,2,0:0:0:0:
372,231,81553,1,0,0:0:0:0:
372,231,81610,1,0,0:0:0:0:
372,231,81668,1,0,0:0:0:0:
394,297,81726,1,2,0:0:0:0:
372,232,81783,1,2,0:0:0:0:
402,294,81841,1,0,0:0:0:0:
394,297,81899,1,0,0:0:0:0:
394,297,81956,1,0,0:0:0:0:
394,297,82014,1,0,0:0:0:0:
431,238,82072,1,2,0:0:0:0:
431,238,82130,1,2,0:0:0:0:
394,297,82187,1,0,0:0:0:0:
305,160,82303,1,2,0:0:0:0:
394,297,82418,1,2,0:0:0:0:
460,264,82533,1,0,0:0:0:0:
460,264,82649,1,0,0:0:0:0:
298,264,82764,1,2,0:0:0:0:
327,178,82880,1,0,0:0:0:0:
327,178,82995,1,0,0:0:0:0:
308,197,83110,1,2,0:0:0:0:
179,258,83226,1,0,0:0:0:0:
308,197,83341,1,2,0:0:0:0:
308,197,83456,1,2,0:0:0:0:
308,197,83572,1,0,0:0:0:0:
308,197,83630,1,0,0:0:0:0:
308,197,83687,1,2,0:0:0:0:
308,197,83745,1,2,0:0:0:0:
248,232,83803,1,0,0:0:0:0:
376,281,83918,1,2,0:0:0:0:
376,281,84033,1,0,0:0:0:0:
376,281,84091,1,0,0:0:0:0:
443,296,84149,1,2,0:0:0:0:
315,243,84264,1,0,0:0:0:0:
443,297,84380,1,2,0:0:0:0:
341,182,84495,1,2,0:0:0:0:
443,296,84553,1,0,0:0:0:0:
498,243,84610,1,0,0:0:0:0:
370,268,84668,1,0,0:0:0:0:
443,244,84726,1,2,0:0:0:0:
370,268,84783,1,2,0:0:0:0:
437,245,84841,1,0,0:0:0:0:
459,311,84899,1,2,0:0:0:0:
480,263,84956,1,0,0:0:0:0:
480,263,85072,1,2,0:0:0:0:
437,245,85187,1,0,0:0:0:0:
437,245,85245,1,0,0:0:0:0:
480,263,85303,1,2,0:0:0:0:
480,263,85360,1,2,0:0:0:0:
502,271,85418,1,0,0:0:0:0:
480,263,85533,1,2,0:0:0:0:
480,263,85591,1,2,0:0:0:0:
480,263,85649,1,0,0:0:0:0:
322,296,85764,1,2,0:0:0:0:
475,241,85880,1,0,0:0:0:0:
399,268,85937,1,0,0:0:0:0:
399,268,85995,1,0,0:0:0:0:
399,268,86110,1,2,0:0:0:0:
399,268,86226,1,2,0:0:0:0:
475,241,86341,1,0,0:0:0:0:
475,241,86456,1,0,0:0:0:0:
475,241,86572,1,2,0:0:0:0:
475,241,86687,1,0,0:0:0:0:
316,277,86803,1,0,0:0:0:0:
230,149,86918,1,0,0:0:0:0:
435,260,87033,1,2,0:0:0:0:
435,260,87149,1,2,0:0:0:0:
274,244,87264,1,0,0:0:0:0:
112,227,87380,1,0,0:0:0:0:
269,260,87495,1,2,0:0:0:0:
430,263,87610,1,0,0:0:0:0:
267,263,87726,1,0,0:0:0:0:
425,234,87841,1,2,0:0:0:0:
425,234,87956,1,0,0:0:0:0:
425,234,88014,1,0,0:0:0:0:
425,234,88072,1,0,0:0:0:0:
466,238,88187,1,2,0:0:0:0:
466,238,88303,1,2,0:0:0:0:
466,238,88418,1,0,0:0:0:0:
466,238,88533,1,2,0:0:0:0:
466,238,88591,1,2,0:0:0:0:
425,234,88649,1,0,0:0:0:0:
425,234,88764,1,2,0:0:0:0:
466,238,88880,1,0,0:0:0:0:
390,231,88937,1,0,0:0:0:0:
466,221,88995,1,2,0:0:0:0:
425,234,89053,1,2,0:0:0:0:
395,209,89110,1,0,0:0:0:0:
426,170,89168,1,2,0:0:0:0:
426,170,89226,1,2,0:0:0:0:
425,234,89283,1,2,0:0:0:0:
423,228,89341,1,0,0:0:0:0:
345,230,89399,1,0,0:0:0:0:
425,234,89456,1,2,0:0:0:0:
502,226,89514,1,2,0:0:0:0:
287,320,89572,1,0,0:0:0:0:
429,304,89803,1,0,0:0:0:0:
429,304,89918,1,0,0:0:0:0:
505,231,90033,1,2,0:0:0:0:
351,283,90149,1,0,0:0:0:0:
505,237,90264,1,2,0:0:0:0:
505,237,90380,1,2,0:0:0:0:
411,106,90495,1,0,0:0:0:0:
435,265,90610,1,0,0:0:0:0:
468,232,90726,1,2,0:0:0:0:
468,232,90783,1,2,0:0:0:0:
468,232,90841,1,2,0:0:0:0:
354,334,90956,1,0,0:0:0:0:
469,231,91072,1,0,0:0:0:0:
468,232,91187,1,2,0:0:0:0:
468,232,91245,1,2,0:0:0:0:
394,255,91303,1,0,0:0:0:0:
374,102,91418,1,2,0:0:0:0:
411,250,91533,1,0,0:0:0:0:
277,328,91649,1,2,0:0:0:0:
402,239,91764,1,0,0:0:0:0:
404,266,91880,1,2,0:0:0:0:
479,275,91937,1,2,0:0:0:0:
381,194,91995,1,0,0:0:0:0:
454,213,92110,1,2,0:0:0:0:
300,196,92226,1,0,0:0:0:0:
468,232,92341,1,2,0:0:0:0:
468,232,92399,1,2,0:0:0:0:
412,284,92456,1,0,0:0:0:0:
381,355,92514,1,0,0:0:0:0:
381,277,92572,1,2,0:0:0:0:
485,164,92687,1,0,0:0:0:0:
485,164,92803,1,0,0:0:0:0:
485,164,92860,1,0,0:0:0:0:
446,231,92918,1,2,0:0:0:0:
446,231,92976,1,2,0:0:0:0:
373,255,93033,1,0,0:0:0:0:
498,163,93149,1,2,0:0:0:0:
437,209,93206,1,2,0:0:0:0:
390,271,93264,1,0,0:0:0:0:
390,271,93380,1,2,0:0:0:0:
498,163,93495,1,0,0:0:0:0:
498,163,93610,1,0,0:0:0:0:
458,312,93726,1,2,0:0:0:0:
390,271,93841,1,0,0:0:0:0:
498,163,93956,1,2,0:0:0:0:
498,163,94014,1,2,0:0:0:0:
498,163,94072,1,2,0:0:0:0:
396,278,94187,1,0,0:0:0:0:
471,233,94303,1,2,0:0:0:0:
390,271,94418,1,0,0:0:0:0:
390,271,94476,1,0,0:0:0:0:
448,222,94533,1,2,0:0:0:0:
448,222,94591,1,2,0:0:0:0:
374,246,94649,1,0,0:0:0:0:
498,163,94764,1,2,0:0:0:0:
493,317,94880,1,0,0:0:0:0:
495,240,94937,1,0,0:0:0:0:
498,162,94995,1,0,0:0:0:0:
410,288,95110,1,2,0:0:0:0:
498,161,95226,1,2,0:0:0:0:
495,240,95341,1,0,0:0:0:0:
495,240,95399,1,0,0:0:0:0:
467,168,95456,1,2,0:0:0:0:
451,243,95514,1,0,0:0:0:0:
469,167,95572,1,0,0:0:0:0:
410,288,95687,1,2,0:0:0:0:
451,243,95803,1,0,0:0:0:0:
328,150,95918,1,2,0:0:0:0:
389,196,95976,1,2,0:0:0:0:
378,271,96033,1,0,0:0:0:0:
370,298,96149,1,2,0:0:0:0:
460,187,96264,1,2,0:0:0:0:
391,272,96322,1,2,0:0:0:0:
389,196,96380,1,0,0:0:0:0:
389,196,96437,1,0,0:0:0:0:
389,273,96495,1,2,0:0:0:0:
389,195,96553,1,2,0:0:0:0:
389,196,96610,1,0,0:0:0:0:
389,196,96668,1,0,0:0:0:0:
389,196,96726,1,0,0:0:0:0:
391,272,96783,1,2,0:0:0:0:
389,194,96841,1,2,0:0:0:0:
389,196,96899,1,0,0:0:0:0:
389,196,96956,1,0,0:0:0:0:
343,308,97187,1,2,0:0:0:0:
214,235,97418,1,0,0:0:0:0:
367,235,97533,1,0,0:0:0:0:
509,174,97649,1,2,0:0:0:0:
509,174,97764,1,2,0:0:0:0:
214,235,97880,1,0,0:0:0:0:
509,174,97995,1,2,0:0:0:0:
214,235,98110,1,2,0:0:0:0:
214,235,98168,1,2,0:0:0:0:
291,232,98226,1,0,0:0:0:0:
440,266,98341,1,2,0:0:0:0:
440,266,98456,1,0,0:0:0:0:
440,266,98514,1,0,0:0:0:0:
440,266,98572,1,0,0:0:0:0:
467,243,98687,1,2,0:0:0:0:
470,350,98803,1,2,0:0:0:0:
440,266,98918,1,0,0:0:0:0:
440,266,99033,1,2,0:0:0:0:
440,266,99091,1,2,0:0:0:0:
445,343,99149,1,0,0:0:0:0:
440,267,99206,1,0,0:0:0:0:
389,326,99264,1,2,0:0:0:0:
440,266,99380,1,0,0:0:0:0:
440,266,99495,1,2,0:0:0:0:
440,266,99553,1,0,0:0:0:0:
440,266,99610,1,0,0:0:0:0:
440,266,99668,1,0,0:0:0:0:
466,193,99726,1,2,0:0:0:0:
445,345,99841,1,0,0:0:0:0:
483,196,99956,1,2,0:0:0:0:
483,196,100014,1,2,0:0:0:0:
407,212,100072,1,0,0:0:0:0:
362,275,100130,1,2,0:0:0:0:
430,307,100187,1,0,0:0:0:0:
359,274,100245,1,0,0:0:0:0:
429,242,100303,1,2,0:0:0:0:
359,273,100360,1,2,0:0:0:0:
392,203,100418,1,0,0:0:0:0:
401,279,100476,1,2,0:0:0:0:
392,203,100533,1,2,0:0:0:0:
401,279,100591,1,2,0:0:0:0:
437,210,100649,1,0,0:0:0:0:
284,229,100764,1,2,0:0:0:0:
437,210,100880,1,0,0:0:0:0:
437,210,100937,1,0,0:0:0:0:
437,210,100995,1,2,0:0:0:0:
365,234,101110,1,0,0:0:0:0:
365,234,101226,1,2,0:0:0:0:
466,229,101341,1,0,0:0:0:0:
458,207,101399,1,0,0:0:0:0:
384,225,101456,1,2,0:0:0:0:
458,207,101572,1,0,0:0:0:0:
374,300,101687,1,2,0:0:0:0:
439,238,101803,1,0,0:0:0:0:
439,238,101860,1,0,0:0:0:0:
455,162,101918,1,2,0:0:0:0:
405,221,101976,1,2,0:0:0:0:
330,206,102033,1,0,0:0:0:0:
254,190,102091,1,0,0:0:0:0:
405,221,102149,1,2,0:0:0:0:
103,161,102206,1,0,0:0:0:0:
384,225,102264,1,2,0:0:0:0:
405,221,102322,1,2,0:0:0:0:
394,297,102380,1,0,0:0:0:0:
329,130,102437,1,2,0:0:0:0:
439,238,102495,1,0,0:0:0:0:
146,336,102726,1,2,0:0:0:0:
437,239,102956,1,0,0:0:0:0:
