osu file format v14

[General]
AudioFilename: audio.mp3
AudioLeadIn: 0
PreviewTime: 7240
Countdown: 0
SampleSet: Soft
StackLeniency: 0.7
Mode: 2
LetterboxInBreaks: 0
WidescreenStoryboard: 0

[Editor]
DistanceSpacing: 1
BeatDivisor: 4
GridSize: 16
TimelineZoom: 2.5

[Metadata]
Title:Yoru ni Kakeru (Ryox Remix)
TitleUnicode:夜に駆ける (Ryox Remix)
Artist:YOASOBI
ArtistUnicode:YOASOBI
Creator:Natsuko
Version:Salad
Source:
Tags:ヨアソビ 夜遊び 幾田りら Ikura Rira Lilas marimba chatie souvenir ducky- electronic instrumental racing into the night Ayase Iphone Ringtone
BeatmapID:3252881
BeatmapSetID:1592716

[Difficulty]
HPDrainRate:4
CircleSize:3
OverallDifficulty:7
ApproachRate:7
SliderMultiplier:1.8
SliderTickRate:1

[Events]
//Background and Video events
0,0,"bg.jpg",0,0
//Break Periods
//Storyboard Layer 0 (Background)
//Storyboard Layer 1 (Fail)
//Storyboard Layer 2 (Pass)
//Storyboard Layer 3 (Foreground)
//Storyboard Layer 4 (Overlay)
//Storyboard Sound Samples

[TimingPoints]
1896,452.830188679245,4,2,1,50,1,0
4574,444.444444444444,4,2,1,50,1,0
7240,454.545454545455,4,2,1,75,1,0
8148,461.538461538462,4,2,1,75,1,0
35840,-100,4,2,1,5,0,0

[Colours]
Combo1 : 48,171,207
Combo2 : 149,149,255
Combo3 : 81,81,164
Combo4 : 150,207,254

[HitObjects]
256,192,1896,6,0,L|368:192,2,90,2|0|0,2:2|2:2|2:2,0:2:0:0:
160,192,2575,2,0,L|160:80,1,90,2|0,2:2|2:2,0:0:0:0:
256,192,3028,1,0,2:2:0:0:
352,192,3254,2,0,L|352:64,1,90,0|2,2:2|2:2,0:0:0:0:
64,176,4574,5,2,2:2:0:0:
256,176,5018,2,0,L|256:80,1,90,2|2,2:2|2:2,0:0:0:0:
160,176,5462,1,2,2:2:0:0:
64,176,5685,2,0,L|64:80,1,90,2|0,2:2|2:2,0:2:0:0:
160,176,6129,1,0,2:2:0:0:
256,176,6351,6,0,L|352:176,2,90,2|0|0,2:2|2:2|2:2,0:0:0:0:
160,176,7018,1,0,0:2:0:0:
256,176,7240,6,0,L|384:176,1,90,2|2,0:2|0:2,0:2:0:0:
400,240,7694,2,0,L|288:240,1,90,2|0,0:2|0:2,0:2:0:0:
80,176,8148,6,0,P|16:144|96:112,1,180,6|0,1:2|0:0,0:2:0:0:
176,176,8840,1,0,1:2:0:0:
272,176,9071,2,0,L|400:176,2,90,2|2|10,1:2|2:2|0:2,0:2:0:0:
176,176,9763,1,0,0:2:0:0:
176,80,9994,5,2,0:2:0:0:
320,176,10340,2,0,L|176:176,1,135,2|0,2:2|1:2,0:2:0:0:
280,176,10917,1,2,1:2:0:0:
96,176,11378,2,0,L|192:176,1,90,10|2,2:2|2:2,0:0:0:0:
416,176,11840,6,0,P|480:144|400:112,1,180,6|10,1:2|0:2,0:0:0:0:
320,176,12532,1,2,1:2:0:0:
224,144,12763,1,2,1:2:0:0:
224,48,12994,1,2,1:2:0:0:
320,16,13224,1,10,0:2:0:0:
416,16,13455,1,2,0:2:0:0:
320,16,13686,5,2,0:2:0:0:
176,16,14032,2,0,L|176:160,1,135,2|0,1:2|1:2,0:2:0:0:
272,16,14609,1,2,1:2:0:0:
464,16,15071,2,0,L|368:16,1,90,8|0,2:2|1:2,0:0:0:0:
144,112,15532,6,0,P|80:80|160:48,1,180,6|0,1:2|0:0,0:2:0:0:
240,112,16224,2,0,L|336:112,2,90,0|2|2,1:2|1:2|0:2,0:0:0:0:
144,112,16917,2,0,L|144:208,1,90,10|2,1:2|1:2,0:2:0:0:
240,112,17378,5,2,1:2:0:0:
384,112,17724,2,0,L|384:256,1,135,2|0,1:2|1:2,0:2:0:0:
288,112,18301,1,2,1:2:0:0:
96,240,18763,2,0,L|224:240,1,90,10|2,2:2|2:2,0:0:0:0:
416,240,19224,6,0,P|480:208|400:176,1,180,6|10,1:2|1:2,0:2:0:0:
320,240,19917,1,2,1:2:0:0:
224,240,20148,2,0,L|224:128,1,90,2|2,1:2|1:2,0:2:0:0:
320,240,20609,2,0,L|320:144,1,90,10|2,1:2|1:2,0:2:0:0:
96,160,21071,5,6,1:2:0:0:
352,160,21763,2,0,L|464:160,2,90,10|2|2,2:2|1:2|1:2,0:0:0:0:
256,160,22455,2,0,L|352:160,1,90,10|10,0:2|0:2,0:0:0:0:
112,160,22917,6,0,P|48:128|128:96,1,180,6|0,1:2|0:0,0:2:0:0:
208,160,23609,1,0,1:2:0:0:
304,160,23840,2,0,L|304:64,1,90,2|0,1:2|2:2,0:0:0:0:
208,160,24301,2,0,L|96:160,1,90,10|2,0:2|2:2,0:0:0:0:
208,160,24763,5,2,1:2:0:0:
352,160,25109,2,0,L|352:16,1,135,2|0,1:2|1:2,0:2:0:0:
256,160,25686,1,2,1:2:0:0:
64,160,26148,2,0,L|160:160,1,90,10|2,2:2|1:2,0:0:0:0:
384,160,26609,6,0,P|448:128|368:96,1,180,6|10,1:2|1:2,0:0:0:0:
288,160,27301,1,2,1:2:0:0:
192,160,27532,2,0,L|192:64,1,90,2|2,1:2|1:2,0:0:0:0:
288,160,27994,2,0,L|400:160,1,90,10|2,1:2|1:2,0:0:0:0:
288,160,28455,5,2,1:2:0:0:
144,160,28801,2,0,L|144:16,1,135,2|0,2:2|1:2,0:2:0:0:
240,160,29378,1,2,1:2:0:0:
432,160,29840,2,0,L|336:160,1,90,8|2,2:2|1:2,0:0:0:0:
112,160,30301,6,0,P|48:128|128:96,1,180,6|0,1:2|0:0,0:2:0:0:
208,160,30994,1,0,1:2:0:0:
304,160,31224,1,2,1:2:0:0:
208,160,31455,2,0,L|96:160,2,90,2|8|2,1:2|2:2|1:2,0:2:0:0:
304,160,32148,6,0,L|304:48,1,90,2|10,1:2|1:2,0:2:0:0:
208,160,32609,1,8,2:2:0:0:
112,160,32840,1,2,1:2:0:0:
304,160,33301,2,0,L|416:160,2,90,2|10|2,2:2|2:2|1:2,0:0:0:0:
80,160,33994,6,0,L|80:64,1,90,0|2,1:2|2:2,0:0:0:0:
176,160,34455,1,8,0:2:0:0:
272,160,34686,2,0,L|320:160,1,45,2|0,2:2|1:2,0:0:0:0:
176,160,35148,2,0,L|48:160,2,90,2|0|2,1:2|1:2|1:2,0:0:0:0:
