osu file format v14

[General]
AudioFilename: audio.mp3
AudioLeadIn: 0
PreviewTime: 7017
Countdown: 0
SampleSet: Normal
StackLeniency: 0.7
Mode: 1
LetterboxInBreaks: 0
WidescreenStoryboard: 0

[Editor]
DistanceSpacing: 0.9
BeatDivisor: 4
GridSize: 32
TimelineZoom: 2.2

[Metadata]
Title:Yoru ni Kakeru (Ryox Remix)
TitleUnicode:夜に駆ける (Ryox Remix)
Artist:YOASOBI
ArtistUnicode:YOASOBI
Creator:Froskya
Version:iPhOni
Source:
Tags:幾田りら Ikuta Rira Lilas instrumental racing into the night Ayase Iphone Ringtone Electronic marimba revialink
BeatmapID:3305833
BeatmapSetID:1619132

[Difficulty]
HPDrainRate:6
CircleSize:2
OverallDifficulty:5
ApproachRate:10
SliderMultiplier:1.4
SliderTickRate:1

[Events]
//Background and Video events
0,0,"sunset.jpg",0,-80
//Break Periods
//Storyboard Layer 0 (Background)
//Storyboard Layer 1 (Fail)
//Storyboard Layer 2 (Pass)
//Storyboard Layer 3 (Foreground)
//Storyboard Layer 4 (Overlay)
//Storyboard Sound Samples

[TimingPoints]
1912,444.444444444444,6,1,0,60,1,0
1912,-111.111111111111,6,1,0,60,0,0
4574,444.444444444444,4,1,0,60,1,8
4574,-113.636363636364,4,1,0,60,0,0
5462,444.444444444444,6,1,0,60,1,0
5462,-113.636363636364,6,1,0,60,0,0
7245,451.127819548872,4,1,0,65,1,8
7245,-109.89010989011,4,1,0,65,0,8
7470,-107.52688172043,4,1,0,70,0,8
7696,-105.263157894737,4,1,0,75,0,8
7921,-103.092783505155,4,1,0,80,0,8
8147,461.538461538462,4,1,0,85,1,0
34223,-101.010101010101,4,1,0,85,0,0
34454,-102.040816326531,4,1,0,85,0,0
34570,-103.092783505155,4,1,0,85,0,0
34685,-104.166666666667,4,1,0,85,0,0
34800,-105.263157894737,4,1,0,85,0,0
35147,-108.695652173913,4,1,0,85,0,0
35377,-109.89010989011,4,1,0,85,0,0
35608,-111.111111111111,4,1,0,85,0,0

[HitObjects]
256,192,1912,5,8,0:0:0:0:
256,192,2023,1,8,0:0:0:0:
256,192,2134,1,8,0:0:0:0:
256,192,2356,1,0,0:0:0:0:
256,192,2578,1,8,0:0:0:0:
256,192,2800,1,8,0:0:0:0:
256,192,3023,1,0,0:0:0:0:
256,192,3245,1,0,0:0:0:0:
256,192,3467,1,8,0:0:0:0:
256,192,4574,1,8,0:0:0:0:
256,192,5018,1,8,0:0:0:0:
256,192,5240,1,8,0:0:0:0:
256,192,5462,1,0,0:0:0:0:
256,192,5684,1,8,0:0:0:0:
256,192,5795,1,8,0:0:0:0:
256,192,5906,1,8,0:0:0:0:
256,192,6128,1,0,0:0:0:0:
256,192,6350,1,8,0:0:0:0:
256,192,6573,1,8,0:0:0:0:
256,192,6795,1,0,0:0:0:0:
256,192,7017,1,0,0:0:0:0:
256,192,7245,1,8,0:0:0:0:
256,192,7470,1,0,0:0:0:0:
256,192,7696,1,8,0:0:0:0:
256,192,7921,1,8,0:0:0:0:
256,192,8147,1,4,0:0:0:0:
256,192,8377,1,0,0:0:0:0:
256,192,8493,1,8,0:0:0:0:
256,192,8723,1,8,0:0:0:0:
256,192,8839,1,0,0:0:0:0:
256,192,9070,1,8,0:0:0:0:
256,192,9300,1,8,0:0:0:0:
256,192,9416,1,8,0:0:0:0:
256,192,9531,1,0,0:0:0:0:
256,192,9762,1,8,0:0:0:0:
256,192,9993,1,0,0:0:0:0:
256,192,10223,1,8,0:0:0:0:
256,192,10339,1,8,0:0:0:0:
256,192,10454,1,0,0:0:0:0:
256,192,10570,1,8,0:0:0:0:
256,192,10685,1,8,0:0:0:0:
256,192,10916,1,0,0:0:0:0:
256,192,11377,1,0,0:0:0:0:
256,192,11608,1,8,0:0:0:0:
256,192,11839,1,0,0:0:0:0:
256,192,12070,1,8,0:0:0:0:
256,192,12300,1,0,0:0:0:0:
256,192,12416,1,0,0:0:0:0:
256,192,12531,1,8,0:0:0:0:
256,192,12762,1,8,0:0:0:0:
256,192,12877,1,8,0:0:0:0:
256,192,12993,1,0,0:0:0:0:
256,192,13108,1,0,0:0:0:0:
256,192,13223,1,8,0:0:0:0:
256,192,13454,1,0,0:0:0:0:
256,192,13685,1,8,0:0:0:0:
256,192,13916,1,0,0:0:0:0:
256,192,14031,1,8,0:0:0:0:
256,192,14262,1,8,0:0:0:0:
256,192,14377,1,0,0:0:0:0:
256,192,14608,1,8,0:0:0:0:
256,192,15070,1,0,0:0:0:0:
256,192,15300,1,0,0:0:0:0:
256,192,15531,1,12,0:0:0:0:
256,192,15762,1,0,0:0:0:0:
256,192,15877,1,8,0:0:0:0:
256,192,15993,1,0,0:0:0:0:
256,192,16223,1,8,0:0:0:0:
256,192,16454,1,0,0:0:0:0:
256,192,16685,1,8,0:0:0:0:
256,192,16916,1,8,0:0:0:0:
256,192,17147,1,0,0:0:0:0:
256,192,17377,1,8,0:0:0:0:
256,192,17608,1,8,0:0:0:0:
256,192,17723,1,0,0:0:0:0:
256,192,17839,1,8,0:0:0:0:
256,192,17954,1,8,0:0:0:0:
256,192,18070,1,0,0:0:0:0:
256,192,18300,1,8,0:0:0:0:
256,192,18762,1,0,0:0:0:0:
256,192,18993,1,8,0:0:0:0:
256,192,19223,1,8,0:0:0:0:
256,192,19454,1,0,0:0:0:0:
256,192,19685,1,8,0:0:0:0:
256,192,19800,1,0,0:0:0:0:
256,192,19916,1,8,0:0:0:0:
256,192,20147,1,8,0:0:0:0:
256,192,20262,1,0,0:0:0:0:
256,192,20377,1,0,0:0:0:0:
256,192,20493,1,0,0:0:0:0:
256,192,20608,1,8,0:0:0:0:
256,192,20839,1,0,0:0:0:0:
256,192,21070,1,8,0:0:0:0:
256,192,21531,1,0,0:0:0:0:
256,192,21762,1,0,0:0:0:0:
256,192,21993,1,8,0:0:0:0:
256,192,22223,1,8,0:0:0:0:
256,192,22454,1,8,0:0:0:0:
256,192,22570,1,0,0:0:0:0:
256,192,22685,1,8,0:0:0:0:
256,192,22916,1,4,0:0:0:0:
256,192,23147,1,0,0:0:0:0:
256,192,23262,1,8,0:0:0:0:
256,192,23493,1,8,0:0:0:0:
256,192,23608,1,0,0:0:0:0:
256,192,23839,1,8,0:0:0:0:
256,192,24070,1,8,0:0:0:0:
256,192,24185,1,8,0:0:0:0:
256,192,24300,1,0,0:0:0:0:
256,192,24531,1,8,0:0:0:0:
256,192,24762,1,0,0:0:0:0:
256,192,24993,1,8,0:0:0:0:
256,192,25108,1,8,0:0:0:0:
256,192,25223,1,0,0:0:0:0:
256,192,25339,1,8,0:0:0:0:
256,192,25454,1,8,0:0:0:0:
256,192,25685,1,0,0:0:0:0:
256,192,26147,1,0,0:0:0:0:
256,192,26377,1,8,0:0:0:0:
256,192,26608,1,0,0:0:0:0:
256,192,26839,1,8,0:0:0:0:
256,192,27070,1,0,0:0:0:0:
256,192,27185,1,0,0:0:0:0:
256,192,27300,1,8,0:0:0:0:
256,192,27531,1,8,0:0:0:0:
256,192,27647,1,8,0:0:0:0:
256,192,27762,1,0,0:0:0:0:
256,192,27877,1,0,0:0:0:0:
256,192,27993,1,8,0:0:0:0:
256,192,28223,1,0,0:0:0:0:
256,192,28454,1,8,0:0:0:0:
256,192,28685,1,0,0:0:0:0:
256,192,28800,1,8,0:0:0:0:
256,192,29031,1,8,0:0:0:0:
256,192,29147,1,0,0:0:0:0:
256,192,29377,1,8,0:0:0:0:
256,192,29839,1,0,0:0:0:0:
256,192,30070,1,0,0:0:0:0:
256,192,30300,1,12,0:0:0:0:
256,192,30531,1,0,0:0:0:0:
256,192,30647,1,8,0:0:0:0:
256,192,30762,1,0,0:0:0:0:
256,192,30993,1,8,0:0:0:0:
256,192,31223,1,0,0:0:0:0:
256,192,31454,1,8,0:0:0:0:
256,192,31685,1,8,0:0:0:0:
256,192,31916,1,0,0:0:0:0:
256,192,32147,1,8,0:0:0:0:
256,192,32262,1,0,0:0:0:0:
256,192,32377,1,8,0:0:0:0:
256,192,32493,1,0,0:0:0:0:
256,192,32608,1,8,0:0:0:0:
256,192,32723,1,0,0:0:0:0:
256,192,32839,1,8,0:0:0:0:
256,192,33070,1,0,0:0:0:0:
256,192,33300,1,8,0:0:0:0:
256,192,33416,1,8,0:0:0:0:
256,192,33531,1,0,0:0:0:0:
256,192,33762,1,8,0:0:0:0:
256,192,33993,1,0,0:0:0:0:
256,192,34223,1,8,0:0:0:0:
256,192,34454,1,8,0:0:0:0:
256,192,34570,1,0,0:0:0:0:
256,192,34685,1,8,0:0:0:0:
256,192,34800,1,0,0:0:0:0:
256,192,35147,1,0,0:0:0:0:
256,192,35377,1,8,0:0:0:0:
256,192,35608,1,0,0:0:0:0:
