osu file format v14

[General]
AudioFilename: audio.mp3
AudioLeadIn: 0
PreviewTime: 6899
Countdown: 0
SampleSet: Soft
StackLeniency: 0.3
Mode: 0
LetterboxInBreaks: 0
WidescreenStoryboard: 0

[Editor]
DistanceSpacing: 0.9
BeatDivisor: 4
GridSize: 32
TimelineZoom: 2.2

[Metadata]
Title:Yoru ni Kakeru (Ryox Remix)
TitleUnicode:夜に駆ける (Ryox Remix)
Artist:YOASOBI
ArtistUnicode:YOASOBI
Creator:Ducky-
Version:The Falling iPhone
Source:
Tags:幾田りら Ikuta Rira Lilas instrumental racing into the night Ayase Iphone Ringtone Electronic
BeatmapID:3008141
BeatmapSetID:1464608

[Difficulty]
HPDrainRate:6
CircleSize:4.2
OverallDifficulty:8.5
ApproachRate:9.2
SliderMultiplier:2.3
SliderTickRate:1

[Events]
//Background and Video events
0,0,"bgbg.jpg",0,0
//Break Periods
//Storyboard Layer 0 (Background)
//Storyboard Layer 1 (Fail)
//Storyboard Layer 2 (Pass)
//Storyboard Layer 3 (Foreground)
//Storyboard Layer 4 (Overlay)
//Storyboard Sound Samples

[TimingPoints]
1896,452.830188679245,4,2,2,60,1,0
1896,-100,4,2,2,60,0,0
2122,-133.333333333333,4,2,2,60,0,0
4574,444.444444444444,4,2,2,60,1,0
4574,-100,4,2,2,60,0,0
7240,454.545454545455,4,2,2,85,1,0
7240,-100,4,2,2,85,0,0
8148,461.538461538462,4,2,1,85,1,0
8148,-76.9230769230769,4,2,1,85,0,0
11840,-58.8235294117647,4,2,1,85,0,0
12071,-76.9230769230769,4,2,1,85,0,0
12301,-58.8235294117647,4,2,1,85,0,0
12532,-76.9230769230769,4,2,1,85,0,0
12763,-58.8235294117647,4,2,1,85,0,0
12994,-76.9230769230769,4,2,1,85,0,0
13224,-58.8235294117647,4,2,1,85,0,0
13455,-76.9230769230769,4,2,1,85,0,0
13686,-66.6666666666667,4,2,1,85,0,0
19225,-58.8235294117647,4,2,1,85,0,0
19455,-76.9230769230769,4,2,1,85,0,0
19686,-58.8235294117647,4,2,1,85,0,0
19917,-76.9230769230769,4,2,1,85,0,0
20148,-58.8235294117647,4,2,1,85,0,0
20378,-76.9230769230769,4,2,1,85,0,0
20609,-58.8235294117647,4,2,1,85,0,0
20840,-76.9230769230769,4,2,1,85,0,0
21071,-45.4545454545455,4,2,1,85,0,0
22917,-62.5,4,2,1,85,0,0
26609,-58.8235294117647,4,2,1,85,0,0
26840,-76.9230769230769,4,2,1,85,0,0
27071,-58.8235294117647,4,2,1,85,0,0
27301,-76.9230769230769,4,2,1,85,0,0
27532,-58.8235294117647,4,2,1,85,0,0
27763,-76.9230769230769,4,2,1,85,0,0
27994,-58.8235294117647,4,2,1,85,0,0
28224,-76.9230769230769,4,2,1,85,0,0
28455,-66.6666666666667,4,2,1,85,0,0
35840,-66.6666666666667,4,2,1,5,0,0

[Colours]
Combo1 : 29,89,169
Combo2 : 255,93,171

[HitObjects]
107,257,1896,5,0,2:0:0:0:
133,245,2009,1,0,2:0:0:0:
164,222,2122,2,0,P|165:186|155:124,2,86.2500000000002,0|0|0,2:0|2:0|2:0,2:0:0:0:
287,309,2801,1,0,2:0:0:0:
128,333,3028,2,0,P|183:302|224:290,1,86.2500000000002,0|0,2:0|2:0,2:0:0:0:
372,334,3480,1,0,2:0:0:0:
482,18,4574,5,0,2:0:0:0:
482,18,5018,1,0,2:0:0:0:
464,108,5240,1,0,2:0:0:0:
380,57,5462,2,0,P|352:64|299:87,1,57.5,0|0,2:0|2:0,2:0:0:0:
233,192,5685,1,0,2:0:0:0:
234,164,5796,1,0,2:0:0:0:
255,142,5907,2,0,P|317:162|378:189,2,115,0|0|0,2:0|2:0|2:0,2:0:0:0:
127,98,6574,1,0,2:0:0:0:
207,73,6796,1,0,2:0:0:0:
155,191,7018,1,0,2:0:0:0:
155,191,7240,5,0,2:0:0:0:
147,271,7467,1,0,2:0:0:0:
208,354,7694,1,0,2:0:0:0:
331,379,7921,1,0,2:0:0:0:
431,292,8148,6,0,P|440:251|453:194,1,74.75,4|0,1:2|2:0,2:0:0:0:
460,33,8378,1,0,1:0:0:0:
510,89,8494,1,2,1:0:0:0:
436,138,8609,2,0,P|395:142|343:160,1,74.75,10|0,2:0|2:0,2:0:0:0:
255,252,8840,2,0,P|290:242|328:238,1,74.75,0|0,1:0|2:0,2:0:0:0:
159,115,9071,6,0,P|58:90|-40:73,2,149.5,2|2|10,1:0|2:0|0:2,2:0:0:0:
234,66,9763,2,0,P|235:35|200:57,1,74.75,2|0,2:0|2:0,2:0:0:0:
23,261,9994,6,0,P|27:285|39:348,1,74.75,2|0,1:2|2:0,2:0:0:0:
175,204,10225,1,0,1:0:0:0:
153,216,10340,2,0,P|149:240|137:303,1,74.75,2|8,2:0|2:0,2:0:0:0:
255,252,10571,1,2,2:0:0:0:
277,264,10686,2,0,P|283:300|290:337,1,74.75,0|0,1:0|2:0,2:0:0:0:
398,383,10917,6,0,P|416:299|442:211,2,149.5,2|0|10,1:0|2:0|2:0,2:0:0:0:
336,208,11609,1,2,2:0:0:0:
510,164,11840,6,0,P|453:148|407:111,1,97.75,6|0,1:2|2:0,2:0:0:0:
380,54,12071,2,0,P|391:28|421:58,1,74.75,2|0,1:0|2:0,2:0:0:0:
290,279,12301,6,0,P|261:227|254:168,1,97.75,10|0,0:2|2:0,2:0:0:0:
275,109,12532,2,0,P|301:98|301:140,1,74.75,2|0,1:0|2:0,2:0:0:0:
116,182,12763,6,0,P|82:190|12:210,1,97.75,2|0,1:2|2:0,2:0:0:0:
119,93,12994,2,0,P|147:109|206:117,1,74.75,2|0,1:0|2:0,2:0:0:0:
362,343,13224,6,0,P|396:351|466:371,1,97.75,10|0,0:2|2:0,2:0:0:0:
359,254,13455,2,0,P|331:270|272:278,1,74.75,2|0,1:0|2:0,2:0:0:0:
114,384,13686,6,0,B|125:272|169:335|190:208,1,172.5,2|0,1:2|2:0,2:0:0:0:
309,30,14032,2,0,P|339:36|354:106,1,86.25,2|8,1:2|2:0,2:0:0:0:
135,169,14263,1,2,2:0:0:0:
188,117,14378,2,0,P|274:103|299:102,1,86.25,2|0,1:2|2:0,2:0:0:0:
483,283,14609,6,0,P|453:198|438:102,1,172.5,2|0,1:0|2:0,2:0:0:0:
309,30,14955,1,2,2:0:0:0:
362,82,15071,2,0,P|359:111|338:175,1,86.25,8|0,2:0|2:0,2:0:0:0:
327,247,15301,2,0,P|284:251|243:263,1,86.25,0|0,1:0|2:0,2:0:0:0:
346,384,15532,6,0,P|365:368|387:305,1,86.25,6|0,1:2|2:0,2:0:0:0:
326,129,15763,1,2,2:0:0:0:
245,186,15878,1,2,2:0:0:0:
327,247,15994,2,0,P|371:237|421:231,1,86.25,8|0,1:2|2:0,2:0:0:0:
242,350,16224,2,0,P|199:355|157:365,1,86.25,2|0,1:2|2:0,2:0:0:0:
25,82,16455,6,0,P|52:22|143:41,2,172.5,2|2|10,1:0|0:0|1:2,2:0:0:0:
134,171,17032,1,2,2:0:0:0:
144,160,17148,2,0,P|125:120|97:136,1,86.25,2|0,1:2|2:0,2:0:0:0:
14,323,17378,6,0,P|22:272|36:222,1,86.25,2|0,1:2|2:0,2:0:0:0:
181,376,17609,1,2,2:0:0:0:
194,356,17725,2,0,P|186:305|172:255,1,86.25,0|8,1:0|2:0,2:0:0:0:
344,355,17955,1,2,2:0:0:0:
331,335,18071,2,0,P|339:284|353:234,1,86.25,2|0,1:2|2:0,2:0:0:0:
478,308,18301,6,0,P|462:212|448:133,2,172.5,2|2|8,1:0|1:2|2:0,2:0:0:0:
347,250,18994,1,2,2:0:0:0:
464,56,19225,6,0,B|460:4|460:4|393:31,1,97.75,6|0,1:2|2:0,2:0:0:0:
396,95,19455,2,0,B|386:139|340:114|391:93,1,74.75,2|0,1:0|2:0,2:0:0:0:
211,74,19686,6,0,B|159:78|159:78|186:145,1,97.75,10|0,1:2|2:0,2:0:0:0:
255,133,19917,2,0,B|300:142|274:191|253:137,1,74.7499965782167,2|0,1:0|2:0,2:0:0:0:
31,382,20148,6,0,B|43:332|74:361|89:283,1,97.7500018644333,2|0,1:2|2:0,2:0:0:0:
20,221,20378,2,0,B|-1:236|-1:236|20:312,1,74.7499965782167,2|0,1:0|2:0,2:0:0:0:
313,321,20609,6,0,B|263:309|286:279|215:272,1,97.7500018644333,10|0,1:2|2:0,2:0:0:0:
156,345,20840,2,0,B|171:366|171:366|244:344,1,74.7499965782167,2|0,1:2|2:0,2:0:0:0:
491,83,21071,6,0,B|441:8|441:8|345:34,1,189.75,6|0,1:2|2:0,2:0:0:0:
329,242,21301,2,0,B|418:236|418:236|443:139,1,189.75,6|0,1:2|2:0,2:0:0:0:
271,21,21532,2,0,B|231:102|231:102|303:172,1,189.75,14|0,0:2|2:0,2:0:0:0:
368,120,21763,5,8,2:0:0:0:
368,120,21878,1,8,2:0:0:0:
302,171,21994,5,2,1:2:0:0:
262,232,22109,1,0,1:0:0:0:
197,265,22225,1,2,1:2:0:0:
123,268,22340,1,0,1:0:0:0:
38,176,22455,5,10,0:2:0:0:
134,190,22571,1,8,2:0:0:0:
194,256,22686,1,10,0:2:0:0:
222,347,22801,1,8,2:0:0:0:
80,373,22917,6,0,P|91:303|109:187,1,184,6|0,1:2|2:0,2:0:0:0:
214,20,23263,2,0,P|229:3|221:35,1,92,2|8,1:0|2:0,2:0:0:0:
131,81,23494,1,2,2:0:0:0:
187,159,23609,2,0,P|212:162|294:190,1,92,2|0,1:2|2:0,2:0:0:0:
512,384,23840,6,0,P|396:356|313:342,1,184,2|0,1:2|2:0,2:0:0:0:
427,207,24186,1,2,2:0:0:0:
371,102,24301,2,0,P|355:111|360:179,1,92,8|0,0:2|2:0,2:0:0:0:
332,344,24532,2,0,P|348:335|343:267,1,92,2|0,2:0|2:0,2:0:0:0:
98,289,24763,6,0,L|-11:312,1,92,2|0,1:2|2:0,2:0:0:0:
187,159,24994,1,2,2:0:0:0:
266,195,25109,2,0,L|356:176,1,92,0|8,1:0|2:0,2:0:0:0:
162,361,25340,1,2,2:0:0:0:
241,325,25455,2,0,L|331:343,1,92,0|0,1:0|2:0,2:0:0:0:
135,219,25686,6,0,P|83:139|107:23,1,184,2|0,1:2|2:0,2:0:0:0:
315,59,26032,1,2,2:0:0:0:
273,128,26148,2,0,P|214:144|169:171,1,92,8|0,2:0|2:0,2:0:0:0:
98,289,26378,2,0,P|96:316|151:293,1,92,2|0,1:2|2:0,2:0:0:0:
315,59,26609,6,0,P|336:8|387:14,1,97.75,6|0,1:2|2:0,2:0:0:0:
470,55,26840,2,0,P|437:63|384:88,1,74.75,2|0,1:0|2:0,2:0:0:0:
188,160,27071,6,0,P|137:181|143:232,1,97.75,10|0,1:2|2:0,2:0:0:0:
185,315,27301,2,0,P|193:282|218:229,1,74.75,2|0,1:0|2:0,2:0:0:0:
421,160,27532,6,0,P|473:176|537:208,1,97.75,2|0,1:2|2:0,2:0:0:0:
358,219,27763,2,0,P|324:198|340:172,1,74.75,2|0,1:0|2:0,2:0:0:0:
185,315,27994,6,0,P|133:331|69:363,1,97.75,10|0,1:2|2:0,2:0:0:0:
248,374,28224,2,0,P|282:353|266:327,1,74.75,2|0,1:0|2:0,2:0:0:0:
8,140,28455,6,0,B|40:108|50:67|50:67|81:100|125:110,1,172.500006580353,2|0,1:2|2:0,2:0:0:0:
211,9,28801,2,0,P|168:16|126:26,1,86.25,2|8,2:0|2:0,2:0:0:0:
35,327,29032,1,0,1:0:0:0:
92,263,29148,2,0,P|82:204|67:148,1,86.25,2|0,1:2|2:0,2:0:0:0:
211,10,29378,6,0,B|299:28|237:75|371:110,1,172.5,2|0,1:2|2:0,2:0:0:0:
507,43,29725,1,2,2:0:0:0:
438,0,29840,2,0,P|396:13|333:31,1,86.25,8|0,2:0|2:0,2:0:0:0:
229,199,30071,2,0,P|270:186|311:174,1,86.25,2|0,1:2|2:0,2:0:0:0:
512,384,30301,6,0,P|391:348|322:332,1,172.5,6|0,1:2|2:0,2:0:0:0:
229,199,30648,1,2,2:0:0:0:
260,335,30763,2,0,P|276:286|305:246,1,86.25,8|0,2:0|2:0,2:0:0:0:
124,74,30994,2,0,P|146:110|158:151,1,86.25,2|0,1:2|2:0,2:0:0:0:
0,380,31225,6,0,P|16:347|70:340,1,86.25,2|0,1:2|2:0,2:0:0:0:
260,335,31455,1,2,1:2:0:0:
183,376,31571,1,2,2:0:0:0:
135,304,31686,2,0,P|124:253|116:216,1,86.25,8|0,2:0|2:0,2:0:0:0:
233,84,31917,2,0,P|222:33|214:-4,1,86.25,2|0,1:2|0:0,2:0:0:0:
352,81,32148,6,0,P|338:123|282:124,1,86.25,2|0,1:2|2:0,2:0:0:0:
73,149,32378,2,0,P|129:136|200:127,1,86.25,2|0,1:2|2:0,2:0:0:0:
301,243,32609,2,0,P|245:230|174:221,1,86.25,8|0,2:0|2:0,2:0:0:0:
77,360,32840,6,0,P|179:329|250:320,1,172.5,2|0,1:2|1:0,2:0:0:0:
381,202,33186,1,2,2:0:0:0:
454,149,33301,2,0,P|449:111|405:120,1,86.25,2|0,2:0|2:0,2:0:0:0:
301,243,33532,2,0,P|313:271|328:336,1,86.25,10|0,2:0|2:0,2:0:0:0:
421,384,33763,2,0,P|430:341|446:302,1,86.25,2|0,1:2|2:0,2:0:0:0:
301,243,33994,6,0,B|208:243|250:171|125:177,1,172.5,6|0,1:2|2:0,2:0:0:0:
48,366,34340,1,2,0:0:0:0:
138,342,34455,2,0,P|160:303|169:243,1,86.25,8|0,0:0|2:0,2:0:0:0:
416,46,34686,1,2,2:0:0:0:
326,70,34801,2,0,P|304:109|295:169,1,86.25,0|0,1:0|2:0,2:0:0:0:
295,149,35148,6,0,P|258:129|224:91,1,86.25,2|0,1:2|2:0,2:0:0:0:
144,25,35378,1,0,1:0:0:0:
71,98,35494,1,0,1:0:0:0:
122,198,35609,2,0,P|222:167|297:159,1,172.5,2|0,1:2|2:0,2:0:0:0:
