osu file format v14

[General]
AudioFilename: audio.mp3
AudioLeadIn: 0
PreviewTime: 75175
Countdown: 0
SampleSet: Soft
StackLeniency: 0.4
Mode: 0
LetterboxInBreaks: 0
EpilepsyWarning: 1
WidescreenStoryboard: 1

[Editor]
DistanceSpacing: 1.2
BeatDivisor: 4
GridSize: 32
TimelineZoom: 2.1

[Metadata]
Title:Yoru ni Kakeru
TitleUnicode:夜に駆ける
Artist:YOASOBI
ArtistUnicode:YOASOBI
Creator:Petal
Version:Light's Hard
Source:
Tags:幾田りら Japanese pop racing into the night Ayase female ikura Ikuta matha -light- battle -keitaro shurelia Error- lilas J-pop Jpop 藍にいな Ai Niina
BeatmapID:2577280
BeatmapSetID:1238759

[Difficulty]
HPDrainRate:4
CircleSize:4
OverallDifficulty:7
ApproachRate:7.5
SliderMultiplier:1.6
SliderTickRate:1

[Events]
//Background and Video events
0,0,"BG.jpg",0,0
Video,130,"video.mp4"
//Break Periods
2,192291,198851
//Storyboard Layer 0 (Background)
//Storyboard Layer 1 (Fail)
//Storyboard Layer 2 (Pass)
//Storyboard Layer 3 (Foreground)
//Storyboard Layer 4 (Overlay)
//Storyboard Sound Samples

[TimingPoints]
291,461.538461538462,4,2,1,40,1,0
2138,-142.857142857143,4,2,1,40,0,0
9522,-117.647058823529,4,2,1,50,0,0
15175,-142.857142857143,4,2,1,25,0,0
15291,-142.857142857143,4,2,1,25,0,0
16907,-100,4,2,2,60,0,0
17022,-100,4,2,1,60,0,0
31676,-111.111111111111,4,2,1,40,0,0
39061,-111.111111111111,4,2,1,50,0,0
61214,-100,4,2,1,60,0,0
74138,-83.3333333333333,4,2,1,60,0,0
75983,-90.9090909090909,4,2,2,85,0,1
76214,-90.9090909090909,4,2,1,85,0,1
83368,-90.9090909090909,4,2,2,85,0,1
83599,-90.9090909090909,4,2,1,85,0,1
90753,-90.9090909090909,4,2,2,85,0,1
90984,-90.9090909090909,4,2,1,85,0,1
98138,-90.9090909090909,4,2,2,85,0,1
98368,-90.9090909090909,4,2,1,85,0,1
103214,-90.9090909090909,4,2,1,60,0,1
103675,-100,4,2,2,60,0,0
103907,-100,4,2,1,60,0,0
118445,-111.111111111111,4,2,1,50,0,0
133214,-100,4,2,1,75,0,1
145214,-100,4,2,1,50,0,0
145676,-100,4,2,1,35,0,0
146138,-125,4,2,1,35,0,0
160906,-90.9090909090909,4,2,1,65,0,1
175675,-100,4,2,1,60,0,0
183061,-100,4,2,3,60,0,0
190445,-100,4,2,3,20,0,0
199676,-125,4,2,1,50,0,0
206599,-125,4,2,1,15,0,0
207061,-100,4,2,1,75,0,0
208906,-83.3333333333333,4,2,2,90,0,1
209253,-83.3333333333333,4,2,1,90,0,1
216291,-83.3333333333333,4,2,2,90,0,1
216638,-83.3333333333333,4,2,1,90,0,1
223676,-83.3333333333333,4,2,2,90,0,1
224022,-83.3333333333333,4,2,1,90,0,1
231061,-83.3333333333333,4,2,2,90,0,1
231407,-83.3333333333333,4,2,1,90,0,1
243521,-133.333333333333,4,2,1,30,0,0
243984,-100,4,2,2,60,0,0
244099,-100,4,2,1,60,0,0

[Colours]
Combo1 : 228,226,177
Combo2 : 222,189,200
Combo3 : 182,176,222
Combo4 : 188,128,156

[HitObjects]
427,78,2138,6,0,B|368:64|368:64|346:77,2,83.9999974365235,2|2|2,0:0|0:0|0:0,0:0:0:0:
459,155,3061,2,0,L|466:214,1,55.9999982910157,2|2,0:0|0:0,0:0:0:0:
382,224,3522,2,0,L|375:283,1,55.9999982910157,2|2,0:0|0:0,0:0:0:0:
320,343,3984,6,0,L|259:349,1,55.9999982910157,2|2,0:0|0:0,0:0:0:0:
224,334,4330,2,0,B|214:278|214:278|233:241,1,83.9999974365235,2|2,0:0|0:0,0:0:0:0:
293,202,4907,1,2,0:0:0:0:
293,202,5368,2,0,L|367:216,1,55.9999982910157,2|2,0:0|0:0,0:0:0:0:
281,108,5830,6,0,B|210:116|210:116|200:138,2,83.9999974365235,2|2|2,0:0|0:0|0:0,0:0:0:0:
361,82,6753,2,0,L|368:16,1,55.9999982910157,2|2,0:0|0:0,0:0:0:0:
448,7,7214,1,2,0:0:0:0:
448,7,7445,1,2,0:0:0:0:
495,76,7676,6,0,L|501:167,2,83.9999974365235,2|2|2,0:0|0:0|0:0,0:0:0:0:
416,106,8599,2,0,L|408:167,1,55.9999982910157,2|2,0:0|0:0,0:0:0:0:
342,213,9061,2,0,P|313:220|279:212,1,55.9999982910157,2|2,0:0|0:0,0:0:0:0:
195,170,9522,6,0,P|156:163|114:181,1,68.0000012969971,0|2,3:0|0:0,0:0:0:0:
52,238,9984,2,0,L|64:311,1,68.0000012969971,0|2,3:0|0:0,0:0:0:0:
141,370,10445,1,0,3:0:0:0:
234,328,10676,2,0,P|244:295|234:255,1,68.0000012969971,2|0,0:0|3:0,0:0:0:0:
195,170,11138,1,2,0:0:0:0:
99,135,11368,6,0,L|27:127,1,68.0000012969971,0|2,3:0|0:0,0:0:0:0:
85,40,11830,2,0,L|157:32,1,68.0000012969971,0|2,3:0|0:0,0:0:0:0:
231,97,12291,1,0,3:0:0:0:
312,35,12522,2,0,L|379:42,1,68.0000012969971,2|0,0:0|3:0,0:0:0:0:
467,96,12984,1,2,0:0:0:0:
389,162,13214,6,0,P|374:194|383:232,1,68.0000012969971,0|2,3:0|0:0,0:0:0:0:
396,255,13561,1,2,0:0:0:0:
396,255,13676,1,0,3:0:0:0:
468,326,13907,1,2,0:0:0:0:
373,365,14138,2,0,L|304:375,1,68.0000012969971,0|2,3:0|0:0,0:0:0:0:
278,353,14484,1,2,0:0:0:0:
278,353,14599,2,0,L|210:343,1,68.0000012969971,0|2,3:0|0:0,0:0:0:0:
30,310,15175,6,0,L|26:339,1,27.9999991455078,2|2,0:0|0:0,0:0:0:0:
103,363,15522,2,0,L|113:292,1,55.9999982910157,2|2,0:0|0:0,0:0:0:0:
130,287,15868,6,0,L|125:246,1,27.9999991455078,2|2,0:0|0:0,0:0:0:0:
39,198,16214,2,0,L|35:157,1,27.9999991455078,2|2,0:0|0:0,0:0:0:0:
60,142,16445,5,2,0:0:0:0:
71,142,16560,1,2,0:0:0:0:
82,141,16676,1,2,0:0:0:0:
93,141,16791,1,2,0:0:0:0:
104,140,16907,6,0,L|116:89,2,40,6|2|0,3:2|0:0|0:0,0:0:0:0:
193,187,17368,2,0,L|205:271,1,80,10|2,0:0|0:0,0:0:0:0:
267,355,17830,1,2,3:2:0:0:
267,355,18061,1,2,0:0:0:0:
349,292,18291,1,10,0:0:0:0:
363,296,18406,1,2,0:0:0:0:
378,300,18521,1,2,0:0:0:0:
392,303,18637,1,2,0:0:0:0:
407,306,18753,6,0,L|416:349,2,40,2|2|0,3:2|0:0|0:0,0:0:0:0:
482,233,19214,2,0,B|489:195|489:195|476:152,1,80,10|2,0:0|0:0,0:0:0:0:
431,61,19676,2,0,P|388:51|348:64,1,80,2|2,3:2|0:0,0:0:0:0:
277,132,20138,2,0,P|234:142|194:129,1,80,10|2,0:0|0:0,0:0:0:0:
120,65,20599,5,2,3:2:0:0:
120,65,20714,1,2,0:0:0:0:
34,124,20945,1,2,0:0:0:0:
34,124,21061,2,0,L|45:219,1,80,10|2,0:0|0:0,0:0:0:0:
111,282,21522,5,2,3:2:0:0:
199,226,21753,1,2,0:0:0:0:
262,308,21984,1,10,0:0:0:0:
175,365,22214,1,2,0:0:0:0:
111,282,22445,6,0,L|118:198,1,80,2|2,3:2|0:0,0:0:0:0:
145,172,22791,1,2,0:0:0:0:
145,172,22907,2,0,L|138:88,1,80,10|2,0:0|0:0,0:0:0:0:
63,20,23368,1,2,3:2:0:0:
63,20,23599,1,2,0:0:0:0:
3,105,23830,1,10,0:0:0:0:
5,120,23945,1,2,0:0:0:0:
6,135,24060,1,2,0:0:0:0:
8,150,24176,1,2,0:0:0:0:
10,164,24291,6,0,P|18:184|22:206,2,40,6|2|0,3:2|0:0|0:0,0:0:0:0:
11,291,24753,2,0,P|0:329|7:370,1,80,10|2,0:0|0:0,0:0:0:0:
109,381,25214,2,0,L|192:371,1,80,2|2,3:2|0:0,0:0:0:0:
266,301,25676,2,0,L|345:310,1,80,10|2,0:0|0:0,0:0:0:0:
387,341,26022,1,2,0:0:0:0:
387,341,26138,6,0,P|395:356|402:383,2,40,2|2|0,3:2|0:0|0:0,0:0:0:0:
370,238,26599,2,0,P|362:202|373:151,1,80,10|2,0:0|0:0,0:0:0:0:
440,83,27061,1,2,3:2:0:0:
440,83,27291,1,2,0:0:0:0:
341,48,27522,5,10,0:0:0:0:
326,45,27637,1,2,0:0:0:0:
311,43,27752,1,2,0:0:0:0:
296,40,27868,1,2,0:0:0:0:
281,38,27984,6,0,L|287:-8,2,40,2|2|0,3:2|0:0|0:0,0:0:0:0:
223,124,28445,2,0,L|134:111,1,80,10|2,0:0|0:0,0:0:0:0:
47,71,28907,1,2,3:2:0:0:
47,71,29138,1,2,0:0:0:0:
126,5,29368,1,10,0:0:0:0:
143,112,29599,2,0,L|133:196,1,80,2|0,0:0|3:0,0:0:0:0:
39,187,30060,5,2,0:0:0:0:
37,202,30176,1,2,0:0:0:0:
35,217,30291,2,0,L|43:264,3,40,10|2|2|2,0:0|0:0|0:0|0:0,0:0:0:0:
72,281,30752,1,2,3:2:0:0:
166,314,30983,1,2,0:0:0:0:
232,240,31214,2,0,L|318:229,1,80,10|0,0:0|0:0,0:0:0:0:
249,146,31676,6,0,P|237:113|247:74,1,71.9999978027344,4|2,0:0|0:0,0:0:0:0:
310,10,32138,1,0,3:0:0:0:
374,77,32368,2,0,P|381:111|369:145,1,71.9999978027344,2|0,0:0|3:0,0:0:0:0:
315,221,32830,1,2,0:0:0:0:
315,221,33061,1,0,3:0:0:0:
358,303,33291,2,0,L|469:315,1,107.999996704102,2|0,0:0|0:0,0:0:0:0:
465,314,33753,1,2,0:0:0:0:
246,350,34214,5,2,0:0:0:0:
246,350,34445,1,0,3:0:0:0:
165,302,34676,1,2,0:0:0:0:
81,344,34907,1,0,3:0:0:0:
22,271,35138,1,2,0:0:0:0:
95,212,35368,6,0,L|192:204,2,71.9999978027344,0|2|0,3:0|0:0|3:0,0:0:0:0:
17,158,36061,1,2,0:0:0:0:
90,100,36291,2,0,L|165:111,1,71.9999978027344,0|2,3:0|0:0,0:0:0:0:
238,164,36753,1,0,3:0:0:0:
279,79,36984,6,0,P|291:41|277:1,1,71.9999978027344,2|0,0:0|3:0,0:0:0:0:
189,12,37445,2,0,P|181:46|193:80,1,71.9999978027344,2|0,0:0|3:0,0:0:0:0:
238,164,37907,1,2,0:0:0:0:
317,214,38138,2,0,L|396:200,1,71.9999978027344,0|2,3:0|0:0,0:0:0:0:
475,233,38599,1,0,3:0:0:0:
475,233,38830,1,2,0:0:0:0:
343,292,39061,6,0,B|288:301|288:301|274:278,2,71.9999978027344,4|2|8,3:2|0:0|0:0,0:0:0:0:
387,201,39753,1,2,0:0:0:0:
324,131,39984,2,0,P|300:79|329:25,1,107.999996704102,0|2,3:0|0:3,0:0:0:0:
346,13,40445,1,8,0:0:0:0:
405,85,40676,1,2,0:0:0:0:
324,131,40907,6,0,B|267:125|288:168|204:162,1,107.999996704102,0|2,3:0|0:0,0:0:0:0:
189,151,41368,2,0,P|176:115|189:74,1,71.9999978027344,8|2,0:0|0:0,0:0:0:0:
119,14,41830,2,0,L|32:25,1,71.9999978027344,0|2,3:0|0:0,0:0:0:0:
8,108,42291,1,8,0:0:0:0:
8,108,42522,1,2,0:0:0:0:
80,167,42753,6,0,P|98:198|98:238,1,71.9999978027344,0|2,3:0|0:0,0:0:0:0:
33,300,43214,1,8,0:0:0:0:
100,364,43445,2,0,L|170:351,1,71.9999978027344,2|0,0:0|3:0,0:0:0:0:
259,318,43907,1,2,0:0:0:0:
300,234,44138,1,8,0:0:0:0:
236,142,44368,6,0,L|148:157,1,71.9999978027344,6|0,0:0|3:0,0:0:0:0:
72,172,44830,1,2,0:0:0:0:
111,256,45061,2,0,L|199:271,1,71.9999978027344,8|2,0:0|0:0,0:0:0:0:
286,326,45522,6,0,B|280:285|280:285|283:275|283:275|277:210,2,107.999996704102,0|0|0,3:0|3:0|3:0,0:0:0:0:
375,369,46445,6,0,L|452:377,1,71.9999978027344,4|2,3:2|0:0,0:0:0:0:
483,284,46907,1,8,0:0:0:0:
420,211,47138,2,0,P|383:221|339:209,1,71.9999978027344,2|0,0:0|3:0,0:0:0:0:
252,195,47599,2,0,L|245:116,1,71.9999978027344,2|8,0:0|0:0,0:0:0:0:
236,25,48061,1,2,0:0:0:0:
353,36,48291,6,0,B|388:60|389:108|389:108|364:122,1,107.999996704102,0|2,3:0|0:0,0:0:0:0:
328,130,48753,1,8,0:0:0:0:
252,195,48984,2,0,L|178:182,1,71.9999978027344,2|0,0:0|3:0,0:0:0:0:
86,225,49445,1,2,0:0:0:0:
148,295,49676,1,8,0:0:0:0:
88,366,49907,1,2,0:0:0:0:
7,318,50138,6,0,L|-2:235,1,71.9999978027344,0|2,3:0|0:0,0:0:0:0:
86,225,50599,2,0,L|95:142,1,71.9999978027344,8|2,0:0|0:0,0:0:0:0:
71,57,51061,2,0,L|-3:45,2,71.9999978027344,0|2|8,3:0|0:0|0:0,0:0:0:0:
157,92,51753,6,0,P|193:82|237:96,1,71.9999978027344,2|0,0:0|3:0,0:0:0:0:
270,171,52214,2,0,P|234:181|190:167,1,71.9999978027344,2|8,0:0|0:0,0:0:0:0:
104,188,52676,5,2,0:0:0:0:
37,253,52907,1,0,3:0:0:0:
87,332,53138,1,2,0:0:0:0:
171,293,53368,1,8,0:0:0:0:
252,339,53599,1,2,0:0:0:0:
319,273,53830,6,0,L|310:202,2,71.9999978027344,4|2|8,3:2|0:0|0:0,0:0:0:0:
384,339,54522,1,2,0:0:0:0:
456,279,54753,2,0,P|456:227|471:160,1,107.999996704102,0|2,3:0|0:0,0:0:0:0:
489,144,55214,1,8,0:0:0:0:
390,144,55445,1,2,0:0:0:0:
309,201,55676,6,0,B|272:209|272:209|237:196,1,71.9999978027344,0|2,3:0|0:0,0:0:0:0:
214,170,56022,1,2,0:0:0:0:
214,170,56138,2,0,P|209:132|207:89,1,71.9999978027344,8|2,0:0|0:0,0:0:0:0:
126,51,56599,2,0,P|123:86|119:122,1,71.9999978027344,0|2,3:0|0:0,0:0:0:0:
48,183,57061,1,8,0:0:0:0:
133,219,57291,1,2,0:0:0:0:
52,267,57522,6,0,L|44:341,1,71.9999978027344,0|2,3:0|0:0,0:0:0:0:
134,312,57984,1,8,0:0:0:0:
211,260,58214,2,0,P|225:225|216:186,1,71.9999978027344,2|0,0:0|3:0,0:0:0:0:
155,122,58676,1,2,0:0:0:0:
155,122,58907,1,8,0:0:0:0:
235,74,59138,6,0,P|271:83|340:62,1,107.999996704102,2|2,0:0|0:0,0:0:0:0:
362,37,59599,2,0,L|378:111,1,71.9999978027344,2|8,0:0|0:0,0:0:0:0:
443,174,60061,1,2,0:0:0:0:
443,174,60176,1,2,0:0:0:0:
443,174,60291,1,0,3:0:0:0:
368,241,60522,5,2,3:0:0:0:
354,243,60637,1,2,3:0:0:0:
341,246,60753,2,0,L|301:237,1,35.9999989013672,10|2,3:0|3:0,0:0:0:0:
269,213,60984,2,0,L|233:220,1,35.9999989013672,4|4,3:0|3:0,0:0:0:0:
204,245,61214,5,6,3:2:0:0:
116,292,61445,1,2,0:0:0:0:
116,292,61561,1,2,0:0:0:0:
181,361,61791,1,2,0:0:0:0:
181,361,61907,1,2,0:0:0:0:
300,277,62253,6,0,L|307:228,2,40,2|2|2,0:0|0:0|0:0,0:0:0:0:
311,310,62599,2,0,L|399:324,1,80,10|2,0:0|0:0,0:0:0:0:
465,269,63061,5,0,3:0:0:0:
505,182,63291,1,2,0:0:0:0:
505,182,63407,1,2,0:0:0:0:
460,97,63638,1,2,0:0:0:0:
460,97,63753,1,2,0:0:0:0:
340,47,64099,6,0,L|346:2,2,40,2|2|2,0:0|0:0|0:0,0:0:0:0:
310,69,64445,1,10,0:0:0:0:
230,21,64675,1,2,0:0:0:0:
214,18,64791,6,0,B|147:39|195:73|121:106,1,120,2|2,0:0|0:0,0:0:0:0:
93,89,65253,1,2,0:0:0:0:
81,93,65368,1,10,0:0:0:0:
69,97,65484,2,0,L|59:57,2,40,2|0|2,0:0|0:0|0:0,0:0:0:0:
10,224,66061,1,2,0:0:0:0:
10,224,66176,1,2,0:0:0:0:
10,224,66291,2,0,L|17:273,1,40,10|2,0:0|0:0,0:0:0:0:
23,306,66522,1,2,0:0:0:0:
23,306,66638,6,0,B|86:285|86:285|152:312,1,120,2|2,0:0|0:0,0:0:0:0:
237,357,67214,1,10,0:0:0:0:
237,357,67445,1,2,0:3:0:0:
304,283,67676,5,6,0:0:0:0:
247,201,67907,1,4,3:0:0:0:
247,201,68022,1,0,3:0:0:0:
247,201,68138,1,8,0:0:0:0:
309,127,68368,1,2,0:0:0:0:
251,50,68599,1,0,3:0:0:0:
179,113,68830,6,0,B|160:146|160:146|169:193,1,80,2|8,0:0|0:0,0:0:0:0:
210,273,69291,1,2,0:0:0:0:
284,212,69522,2,0,P|327:201|365:217,1,80,0|2,3:0|0:0,0:0:0:0:
411,293,69984,2,0,P|454:304|492:288,1,80,8|2,0:0|0:0,0:0:0:0:
504,197,70445,6,0,L|498:113,2,80,0|2|8,3:0|0:0|0:0,0:0:0:0:
486,292,71138,2,0,L|480:371,1,80,2|0,0:0|3:0,0:0:0:0:
384,374,71599,1,2,0:0:0:0:
316,306,71830,2,0,P|304:267|318:230,1,80,8|8,0:0|0:0,0:0:0:0:
340,198,72176,1,4,3:0:0:0:
340,198,72291,6,0,P|352:159|338:122,1,80,6|2,3:2|0:0,0:0:0:0:
263,63,72753,1,8,0:0:0:0:
187,123,72984,2,0,L|101:136,1,80,2|0,0:0|3:0,0:0:0:0:
33,195,73445,1,4,3:0:0:0:
33,195,73561,1,4,3:0:0:0:
33,195,73676,2,0,L|41:245,2,40,8|4|8,3:2|3:0|0:3,0:0:0:0:
95,294,74138,6,0,B|136:277|136:277|197:296,1,95.9999970703126,0|8,3:0|0:0,0:0:0:0:
227,315,74484,1,8,0:0:0:0:
320,283,74714,5,8,3:2:0:0:
317,267,74829,1,8,0:0:0:0:
315,251,74944,1,8,0:0:0:0:
312,235,75060,1,8,3:2:0:0:
312,235,75983,6,0,B|240:213|258:265|174:249,1,132.00000402832,14|2,3:2|0:0,0:0:0:0:
155,269,76445,2,0,P|143:235|157:183,1,88.000002685547,8|2,0:0|0:0,0:0:0:0:
218,100,76907,5,0,3:0:0:0:
218,100,77138,1,2,0:0:0:0:
311,148,77368,1,8,0:0:0:0:
404,98,77599,1,2,0:0:0:0:
315,24,77830,6,0,B|226:5|226:5|182:23,1,132.00000402832,0|2,3:0|0:0,0:0:0:0:
168,49,78291,2,0,L|180:143,1,88.000002685547,8|0,0:0|0:0,0:0:0:0:
252,213,78753,2,0,P|206:214|167:245,1,88.000002685547,0|2,3:0|0:0,0:0:0:0:
112,324,79214,1,8,0:0:0:0:
112,324,79445,1,2,0:0:0:0:
223,379,79676,6,0,L|231:288,1,88.000002685547,0|2,3:0|0:0,0:0:0:0:
334,268,80138,2,0,L|326:177,1,88.000002685547,8|2,0:0|0:0,0:0:0:0:
256,100,80599,5,0,3:0:0:0:
256,100,80830,1,2,0:0:0:0:
169,161,81061,1,8,0:0:0:0:
101,79,81291,1,2,0:0:0:0:
211,20,81522,6,0,P|254:8|313:28,1,88.000002685547,0|2,3:0|0:0,0:0:0:0:
321,41,81868,1,2,0:0:0:0:
321,41,81984,2,0,P|364:53|423:33,1,88.000002685547,8|2,0:0|0:0,0:0:0:0:
498,93,82445,2,0,P|466:124|453:185,1,88.000002685547,2|2,3:2|0:0,0:0:0:0:
496,261,82907,1,8,0:0:0:0:
496,261,83138,1,2,0:0:0:0:
415,337,83368,6,0,B|325:347|325:347|295:308,1,132.00000402832,6|2,3:2|0:0,0:0:0:0:
287,280,83830,1,8,0:0:0:0:
381,232,84061,1,2,0:0:0:0:
284,190,84291,2,0,L|185:205,1,88.000002685547,0|2,3:0|0:0,0:0:0:0:
200,309,84753,2,0,L|112:295,1,88.000002685547,8|2,0:0|0:0,0:0:0:0:
17,341,85214,5,0,3:0:0:0:
48,240,85445,1,2,0:0:0:0:
48,240,85561,1,2,0:0:0:0:
48,240,85676,1,8,0:0:0:0:
13,139,85907,1,2,0:0:0:0:
78,29,86138,6,0,P|115:24|191:94,1,132.00000402832,0|2,3:0|0:0,0:0:0:0:
192,112,86599,1,8,0:0:0:0:
192,112,86830,1,2,0:0:0:0:
280,54,87061,6,0,B|323:43|323:43|367:60,1,88.000002685547,0|2,3:0|0:0,0:0:0:0:
409,154,87522,2,0,B|366:165|366:165|322:148,1,88.000002685547,8|2,0:0|0:0,0:0:0:0:
226,187,87984,5,0,3:0:0:0:
226,187,88214,1,2,0:0:0:0:
277,279,88445,1,8,0:0:0:0:
277,279,88676,1,2,0:0:0:0:
204,356,88907,5,2,3:2:0:0:
105,258,89138,1,2,0:0:0:0:
226,187,89368,1,8,0:0:0:0:
277,279,89599,1,8,0:3:0:0:
277,279,89714,1,0,3:0:0:0:
277,279,89830,6,0,L|217:285,2,44.0000013427735,8|0|8,3:2|3:0|0:0,0:0:0:0:
364,220,90291,1,8,0:0:0:0:
385,223,90406,1,0,3:0:0:0:
407,226,90521,1,8,0:0:0:0:
429,230,90637,1,0,3:0:0:0:
450,233,90753,6,0,B|429:172|429:172|453:96,1,132.00000402832,14|2,3:2|0:0,0:0:0:0:
466,77,91214,1,8,0:0:0:0:
373,26,91445,1,2,0:0:0:0:
284,83,91676,2,0,L|274:172,1,88.000002685547,0|2,3:0|0:0,0:0:0:0:
364,220,92138,2,0,L|374:309,1,88.000002685547,8|2,0:0|0:0,0:0:0:0:
277,350,92599,6,0,B|220:359|220:359|195:341,1,88.000002685547,0|2,3:0|0:0,0:0:0:0:
172,314,92945,1,2,0:0:0:0:
172,314,93061,1,8,0:0:0:0:
240,233,93291,1,2,0:0:0:0:
121,193,93522,6,0,P|112:141|110:55,1,132.00000402832,0|0,3:0|0:0,0:0:0:0:
97,28,93984,2,0,P|139:43|190:29,1,88.000002685547,8|2,0:0|0:0,0:0:0:0:
284,15,94445,5,0,3:0:0:0:
284,15,94676,1,2,0:0:0:0:
242,112,94907,1,8,0:0:0:0:
242,112,95138,1,2,0:0:0:0:
310,191,95368,6,0,L|407:180,1,88.000002685547,0|2,3:0|0:0,0:0:0:0:
456,89,95830,2,0,L|368:79,1,88.000002685547,8|2,0:0|0:0,0:0:0:0:
284,15,96291,5,0,3:0:0:0:
192,68,96522,1,2,0:0:0:0:
97,20,96753,1,8,0:0:0:0:
97,20,96868,1,2,0:0:0:0:
97,20,96984,1,2,0:0:0:0:
4,71,97214,2,0,P|13:118|17:165,1,88.000002685547,2|0,3:2|0:0,0:0:0:0:
2,263,97676,1,8,0:0:0:0:
104,238,97907,1,2,0:0:0:0:
37,341,98138,6,0,B|121:359|97:311|166:324,1,132.00000402832,6|2,3:2|0:0,0:0:0:0:
191,344,98599,2,0,P|181:302|200:254,1,88.000002685547,8|2,0:0|0:0,0:0:0:0:
280,197,99061,1,0,3:0:0:0:
329,289,99291,1,2,0:0:0:0:
433,273,99522,1,8,0:0:0:0:
453,169,99753,1,2,0:0:0:0:
362,115,99984,6,0,L|264:103,1,88.000002685547,0|2,3:0|0:0,0:0:0:0:
194,173,100445,1,8,0:0:0:0:
109,109,100676,2,0,P|109:68|136:19,1,88.000002685547,2|0,0:0|3:0,0:0:0:0:
232,2,101138,5,2,0:0:0:0:
274,104,101368,1,8,0:0:0:0:
194,173,101599,1,2,0:0:0:0:
283,228,101830,5,4,0:3:0:0:
285,249,101945,1,2,0:3:0:0:
287,271,102060,1,2,0:3:0:0:
289,293,102176,1,2,0:3:0:0:
291,315,102291,6,0,L|286:370,1,44.0000013427735,8|2,0:0|0:3,0:0:0:0:
268,374,102521,2,0,L|209:362,1,44.0000013427735,2|6,0:3|3:0,0:0:0:0:
87,328,102984,5,4,3:0:0:0:
159,268,103214,2,0,L|163:224,3,44.0000013427735,2|2|2|2,0:0|0:0|0:0|0:0,0:0:0:0:
126,194,103676,6,0,L|41:208,1,80,6|0,3:2|0:0,0:0:0:0:
7,190,104022,1,2,0:0:0:0:
7,190,104138,2,0,P|-8:153|12:98,1,80,10|2,0:0|0:0,0:0:0:0:
81,62,104599,1,2,3:2:0:0:
81,62,104830,1,2,0:0:0:0:
168,100,105061,1,10,0:0:0:0:
182,98,105176,1,2,0:0:0:0:
197,96,105291,1,2,0:0:0:0:
212,93,105407,1,2,0:0:0:0:
227,91,105522,6,0,L|266:85,2,40,2|2|0,3:2|0:0|0:0,0:0:0:0:
275,174,105984,2,0,B|285:218|285:218|272:257,1,80,10|2,0:0|0:0,0:0:0:0:
226,334,106445,2,0,L|130:317,1,80,2|2,3:2|0:0,0:0:0:0:
84,246,106907,2,0,L|94:160,1,80,10|2,0:0|0:0,0:0:0:0:
64,79,107368,5,2,3:2:0:0:
64,79,107484,1,2,0:0:0:0:
139,19,107714,1,2,0:0:0:0:
139,19,107830,2,0,B|179:2|179:2|221:13,1,80,10|2,0:0|0:0,0:0:0:0:
271,91,108291,2,0,L|364:75,1,80,2|2,3:2|0:0,0:0:0:0:
424,138,108753,2,0,L|502:151,1,80,10|2,0:0|0:0,0:0:0:0:
465,239,109214,6,0,P|447:273|450:320,1,80,2|2,3:2|0:0,0:0:0:0:
474,360,109561,1,2,0:0:0:0:
474,360,109676,2,0,L|394:372,1,80,10|2,0:0|0:0,0:0:0:0:
304,354,110138,1,2,3:2:0:0:
304,354,110368,1,2,0:0:0:0:
249,267,110599,1,10,0:0:0:0:
251,253,110714,1,2,0:0:0:0:
253,238,110829,1,2,0:0:0:0:
255,223,110945,1,2,0:0:0:0:
258,207,111061,6,0,L|302:213,2,40,6|2|0,3:2|0:0|0:0,0:0:0:0:
200,118,111522,2,0,L|190:32,1,80,10|2,0:0|0:0,0:0:0:0:
89,13,111984,2,0,P|56:1|10:13,1,80,2|2,3:2|0:0,0:0:0:0:
51,107,112445,5,10,0:0:0:0:
52,121,112560,1,2,0:0:0:0:
54,136,112675,1,2,0:0:0:0:
55,151,112791,1,2,0:0:0:0:
57,166,112907,6,0,L|17:162,2,40,2|2|0,3:2|0:0|0:0,0:0:0:0:
132,237,113368,2,0,L|222:246,1,80,10|2,0:0|0:0,0:0:0:0:
304,197,113830,2,0,P|288:151|300:111,1,80,2|2,3:2|0:0,0:0:0:0:
395,145,114291,5,10,0:0:0:0:
396,159,114406,1,2,0:0:0:0:
398,174,114521,1,2,0:0:0:0:
400,189,114637,1,2,0:0:0:0:
402,204,114753,6,0,L|444:199,2,40,2|2|0,3:2|0:0|0:0,0:0:0:0:
331,280,115214,2,0,B|286:270|286:270|248:284,1,80,10|2,0:0|0:0,0:0:0:0:
157,320,115676,2,0,L|144:222,1,80,2|2,3:2|0:0,0:0:0:0:
102,145,116138,1,10,0:0:0:0:
197,103,116368,2,0,L|280:119,1,80,2|6,0:0|3:2,0:0:0:0:
351,194,116830,5,2,0:0:0:0:
366,196,116944,1,2,0:0:0:0:
381,198,117061,2,0,L|428:190,3,40,10|2|2|2,0:0|0:0|0:0|0:0,0:0:0:0:
449,154,117521,1,2,3:2:0:0:
482,64,117752,1,2,0:0:0:0:
400,12,117984,2,0,L|311:3,1,80,10|2,0:0|0:0,0:0:0:0:
220,96,118445,6,0,L|301:87,1,71.9999978027344,6|0,3:2|0:0,0:0:0:0:
346,166,118907,1,8,0:0:0:0:
262,208,119138,2,0,P|245:240|250:280,1,71.9999978027344,2|2,0:0|3:2,0:0:0:0:
308,345,119599,1,2,0:0:0:0:
308,345,119830,1,8,0:0:0:0:
376,281,120061,2,0,L|385:164,1,107.999996704102,2|0,0:0|0:0,0:0:0:0:
384,173,120522,1,2,0:0:0:0:
500,26,120984,5,2,0:0:0:0:
500,26,121214,1,2,3:2:0:0:
414,64,121445,1,2,0:0:0:0:
331,19,121676,1,8,0:0:0:0:
273,92,121907,1,2,0:0:0:0:
330,166,122138,6,0,L|412:155,1,71.9999978027344,2|2,3:2|0:0,0:0:0:0:
480,206,122599,1,8,0:0:0:0:
394,244,122830,1,2,0:0:0:0:
473,292,123061,2,0,P|489:327|484:365,1,71.9999978027344,2|2,3:2|0:0,0:0:0:0:
394,381,123522,1,8,0:0:0:0:
318,325,123753,2,0,P|286:315|242:325,1,71.9999978027344,2|0,0:0|3:0,0:0:0:0:
161,356,124214,2,0,P|129:366|85:356,1,71.9999978027344,2|8,0:0|0:0,0:0:0:0:
14,305,124676,1,2,0:0:0:0:
68,228,124907,6,0,L|145:222,1,71.9999978027344,2|2,3:2|0:0,0:0:0:0:
228,252,125368,1,10,0:0:0:0:
295,187,125599,1,2,0:0:0:0:
232,116,125830,6,0,B|193:111|193:111|156:126,2,71.9999978027344,2|2|10,3:2|0:0|0:0,0:0:0:0:
287,40,126522,1,2,0:0:0:0:
355,103,126753,2,0,P|397:113|437:96,1,71.9999978027344,2|2,3:2|0:0,0:0:0:0:
473,99,127098,1,2,0:0:0:0:
473,99,127214,2,0,P|460:135|460:178,1,71.9999978027344,10|2,0:0|0:0,0:0:0:0:
402,237,127676,6,0,P|363:233|322:244,1,71.9999978027344,2|2,3:2|0:0,0:0:0:0:
310,270,128022,1,2,0:0:0:0:
310,270,128138,1,10,0:0:0:0:
373,338,128368,1,2,0:0:0:0:
286,373,128599,6,0,B|214:383|214:383|184:350,1,107.999996704102,2|2,3:2|0:0,0:0:0:0:
167,315,129061,2,0,L|178:233,1,71.9999978027344,10|2,0:0|0:0,0:0:0:0:
247,181,129522,5,2,3:2:0:0:
247,181,129753,1,2,0:0:0:0:
207,95,129984,1,10,0:0:0:0:
126,135,130214,2,0,L|40:144,1,71.9999978027344,2|2,0:0|3:2,0:0:0:0:
42,241,130676,1,2,0:0:0:0:
42,241,130791,1,2,0:0:0:0:
42,241,130907,2,0,L|-2:247,2,35.9999989013672,10|2|2,0:0|0:0|0:0,0:0:0:0:
116,298,131368,1,0,3:0:0:0:
203,263,131599,6,0,B|215:236|215:236|213:221|213:221|229:175,1,71.9999978027344,2|8,0:0|0:0,0:0:0:0:
262,170,131945,2,0,B|250:143|250:143|252:128|252:128|236:82,1,71.9999978027344,2|0,0:0|0:0,0:0:0:0:
246,55,132291,1,2,3:2:0:0:
159,70,132522,1,4,3:0:0:0:
159,70,132638,1,6,3:0:0:0:
159,70,132753,2,0,L|107:77,1,35.9999989013672,8|0,0:0|0:0,0:0:0:0:
94,111,132984,2,0,L|58:106,1,35.9999989013672,2|0,0:0|0:0,0:0:0:0:
26,146,133214,6,0,B|17:184|17:184|34:227,1,80,6|2,3:2|0:0,0:0:0:0:
79,255,133561,1,2,0:0:0:0:
79,255,133676,1,10,0:0:0:0:
127,343,133907,2,0,L|115:385,2,40,2|2|2,0:0|0:0|3:2,0:0:0:0:
225,299,134368,1,2,0:0:0:0:
225,299,134484,1,2,0:0:0:0:
225,299,134599,1,10,0:0:0:0:
321,350,134830,1,2,0:0:0:0:
321,350,134945,1,2,0:0:0:0:
321,350,135061,6,0,L|338:222,1,120,2|2,3:2|0:0,0:0:0:0:
337,231,135522,1,8,0:0:0:0:
426,284,135753,1,2,0:0:0:0:
496,207,135984,1,2,3:2:0:0:
496,207,136445,5,10,0:0:0:0:
494,187,136560,1,2,0:0:0:0:
492,167,136675,1,2,0:0:0:0:
490,147,136791,1,2,0:0:0:0:
489,127,136907,6,0,B|453:121|453:121|444:126|444:126|402:120,1,80,2|2,3:2|0:0,0:0:0:0:
336,65,137368,1,10,0:0:0:0:
336,65,137484,1,2,0:0:0:0:
336,65,137599,1,2,0:0:0:0:
244,114,137830,1,2,3:2:0:0:
154,60,138061,2,0,L|142:7,2,40,2|2|10,0:0|0:0|0:0,0:0:0:0:
61,97,138522,1,2,0:0:0:0:
61,97,138638,1,2,0:0:0:0:
61,97,138753,6,0,L|50:221,1,120,2|2,3:2|0:0,0:0:0:0:
50,216,139214,1,8,0:0:0:0:
121,291,139445,1,2,0:0:0:0:
37,353,139676,1,2,3:2:0:0:
37,353,140138,5,10,0:0:0:0:
35,333,140253,1,2,0:0:0:0:
33,313,140368,1,2,0:0:0:0:
32,293,140484,1,2,0:0:0:0:
30,273,140599,6,0,L|39:184,1,80,6|2,3:2|0:0,0:0:0:0:
110,118,141061,1,10,0:0:0:0:
110,118,141176,1,2,0:0:0:0:
110,118,141291,1,2,0:0:0:0:
180,194,141522,2,0,L|259:185,1,80,2|2,3:2|0:0,0:0:0:0:
321,100,141984,5,10,0:0:0:0:
321,100,142099,1,2,0:0:0:0:
321,100,142214,1,2,0:0:0:0:
399,168,142445,2,0,L|378:252,1,80,2|2,3:2|0:0,0:0:0:0:
281,280,142907,5,10,0:0:0:0:
296,383,143138,1,2,0:0:0:0:
194,365,143368,5,2,3:2:0:0:
179,262,143599,1,2,0:0:0:0:
77,244,143830,5,8,0:0:0:0:
92,347,144061,1,2,0:0:0:0:
179,262,144291,6,0,L|190:169,1,80,4|2,3:2|0:3,0:0:0:0:
213,158,144638,1,2,0:3:0:0:
213,158,144753,1,8,0:0:0:0:
311,160,144984,1,2,0:3:0:0:
367,85,145214,6,0,P|402:85|391:119,2,80,4|2|2,3:0|0:0|3:2,0:0:0:0:
286,52,145907,1,2,0:0:0:0:
286,52,146022,1,2,0:0:0:0:
286,52,146138,6,0,L|245:45,3,32,2|2|2|2,3:2|0:0|0:0|0:0,0:0:0:0:
234,137,146714,2,0,L|275:130,2,32,2|2|2,0:0|0:0|0:0,0:0:0:0:
300,203,147176,1,2,0:0:0:0:
298,214,147291,1,2,3:2:0:0:
297,226,147406,1,2,0:0:0:0:
296,238,147522,2,0,L|294:278,3,32,10|2|2|2,0:0|0:0|0:0|0:0,0:0:0:0:
269,299,147984,6,0,L|221:304,1,32,2|2,0:0|0:0,0:0:0:0:
154,309,148330,2,0,L|149:261,1,32,2|10,0:0|0:0,0:0:0:0:
140,194,148675,2,0,L|188:189,1,32,2|2,0:0|3:2,0:0:0:0:
258,186,149022,1,2,0:0:0:0:
258,186,149138,2,0,L|263:234,4,32,2|2|10|2|2,3:2|0:0|0:0|0:0|0:0,0:0:0:0:
336,259,149830,5,2,3:2:0:0:
347,256,149945,1,2,0:0:0:0:
359,254,150060,1,2,0:0:0:0:
371,252,150176,1,2,0:0:0:0:
416,170,150407,6,0,L|452:180,2,32,2|2|2,0:0|0:0|0:0,0:0:0:0:
335,127,150867,5,2,0:0:0:0:
320,132,150984,1,2,3:2:0:0:
304,135,151099,1,2,0:0:0:0:
288,135,151214,2,0,L|248:124,3,32,10|2|2|2,0:0|0:0|0:0|0:0,0:0:0:0:
217,98,151676,6,0,L|215:54,1,32,2|2,0:0|0:0,0:0:0:0:
128,119,152022,2,0,L|126:150,1,32,2|10,0:0|0:0,0:0:0:0:
207,211,152368,2,0,L|205:167,1,32,2|2,0:0|3:2,0:0:0:0:
123,239,152714,1,2,0:0:0:0:
123,239,152830,2,0,L|121:270,4,32,2|2|10|2|2,3:2|0:0|0:0|0:0|3:2,0:0:0:0:
37,339,153522,5,2,3:2:0:0:
37,339,153638,2,0,B|73:332|73:332|114:348,1,64,2|2,0:0|0:0,0:0:0:0:
122,367,153984,1,10,0:0:0:0:
197,300,154214,1,2,0:0:0:0:
197,300,154330,1,2,0:0:0:0:
273,356,154561,1,2,0:0:0:0:
284,358,154676,1,2,0:0:0:0:
296,359,154791,1,2,0:0:0:0:
308,360,154907,2,0,L|355:353,3,32,10|2|2|2,0:0|0:0|0:0|0:0,0:0:0:0:
376,323,155368,6,0,L|372:284,1,32,2|2,3:2|0:0,0:0:0:0:
431,216,155714,1,2,0:0:0:0:
431,216,155830,1,10,0:0:0:0:
351,171,156061,2,0,L|319:167,1,32,2|2,0:0|0:0,0:0:0:0:
240,211,156407,1,2,0:0:0:0:
228,212,156522,1,2,0:0:0:0:
216,214,156637,1,2,0:0:0:0:
204,216,156753,1,10,0:0:0:0:
132,148,156984,1,2,0:0:0:0:
132,148,157099,1,2,0:0:0:0:
132,148,157214,6,0,L|20:174,1,96,2|2,3:2|0:0,0:0:0:0:
38,169,157676,1,8,0:0:0:0:
70,265,157907,1,2,0:0:0:0:
70,265,158022,1,2,0:0:0:0:
173,239,158253,1,2,0:0:0:0:
184,241,158368,1,2,0:0:0:0:
196,244,158483,1,2,0:0:0:0:
208,246,158599,2,0,L|248:255,3,32,10|2|2|2,0:0|0:0|0:0|0:0,0:0:0:0:
281,275,159061,6,0,B|294:243|294:243|285:207,1,64,2|2,3:2|0:0,0:0:0:0:
286,130,159522,2,0,B|250:135|250:135|223:157,1,64,10|2,0:0|0:0,0:0:0:0:
162,202,159984,2,0,L|108:190,3,32,2|2|2|0,3:2|0:0|0:0|0:0,0:0:0:0:
98,171,160445,5,10,0:0:0:0:
97,155,160560,1,2,0:0:0:0:
96,139,160675,1,2,0:0:0:0:
94,123,160791,1,2,0:0:0:0:
93,107,160907,6,0,B|75:64|75:64|87:14,1,88.000002685547,6|2,3:2|0:0,0:0:0:0:
125,14,161253,1,2,0:0:0:0:
125,14,161368,2,0,L|218:-1,1,88.000002685547,8|2,0:0|0:0,0:0:0:0:
304,70,161830,2,0,B|322:113|322:113|312:153,1,88.000002685547,0|2,3:0|0:0,0:0:0:0:
209,179,162291,1,8,0:0:0:0:
178,280,162522,1,2,0:0:0:0:
257,349,162753,6,0,L|354:360,1,88.000002685547,0|2,3:0|0:0,0:0:0:0:
395,268,163214,2,0,L|307:258,1,88.000002685547,8|2,0:0|0:0,0:0:0:0:
221,196,163676,1,0,3:0:0:0:
287,115,163907,1,2,0:0:0:0:
287,115,164022,1,2,0:0:0:0:
287,115,164138,1,8,0:0:0:0:
369,183,164368,1,2,0:0:0:0:
450,115,164599,6,0,P|465:76|455:31,1,88.000002685547,0|2,3:0|0:0,0:0:0:0:
358,73,165061,1,8,0:0:0:0:
273,10,165291,1,2,0:0:0:0:
181,63,165522,2,0,B|157:102|157:102|172:147,1,88.000002685547,0|2,3:0|0:0,0:0:0:0:
253,207,165984,2,0,B|277:246|277:246|263:286,1,88.000002685547,8|2,0:0|0:0,0:0:0:0:
171,338,166445,6,0,L|79:347,1,88.000002685547,0|2,3:0|0:0,0:0:0:0:
19,261,166907,1,8,0:0:0:0:
113,212,167138,1,2,0:0:0:0:
24,154,167368,2,0,P|31:107|14:10,1,132.00000402832,0|0,3:0|0:0,0:0:0:0:
19,23,167830,1,8,0:0:0:0:
111,74,168061,1,2,0:0:0:0:
241,24,168291,6,0,B|320:34|276:72|365:95,1,132.00000402832,6|2,3:2|0:0,0:0:0:0:
384,80,168753,2,0,P|370:118|374:170,1,88.000002685547,8|2,0:0|0:0,0:0:0:0:
457,227,169214,1,0,3:0:0:0:
406,319,169445,1,2,0:0:0:0:
406,319,169561,1,2,0:0:0:0:
406,319,169676,1,8,0:0:0:0:
319,257,169907,1,2,0:0:0:0:
236,323,170138,6,0,P|196:336|148:320,1,88.000002685547,0|2,3:0|0:0,0:0:0:0:
77,250,170599,1,8,0:0:0:0:
134,161,170830,1,2,0:0:0:0:
67,78,171061,2,0,L|56:-18,2,88.000002685547,0|2|8,3:0|0:0|0:0,0:0:0:0:
158,25,171753,1,2,0:0:0:0:
236,96,171984,6,0,P|258:144|249:183,1,88.000002685547,0|2,3:0|0:0,0:0:0:0:
166,239,172445,2,0,P|144:287|153:326,1,88.000002685547,8|2,0:0|0:0,0:0:0:0:
251,351,172907,2,0,L|349:340,1,88.000002685547,0|2,3:0|0:0,0:0:0:0:
439,309,173368,1,8,0:0:0:0:
357,241,173599,2,0,L|259:252,1,88.000002685547,2|0,0:0|3:0,0:0:0:0:
187,293,174061,5,2,0:0:0:0:
187,293,174176,1,2,0:0:0:0:
187,293,174291,2,0,L|138:288,2,44.0000013427735,10|2|2,0:0|0:0|0:0,0:0:0:0:
269,250,174753,5,2,3:0:0:0:
267,233,174868,1,2,0:0:0:0:
265,217,174983,1,2,0:0:0:0:
263,200,175099,1,2,0:0:0:0:
261,180,175214,1,10,0:0:0:0:
318,110,175444,1,2,0:0:0:0:
256,40,175676,6,0,L|162:30,1,80,6|2,0:0|0:0,0:0:0:0:
151,11,176022,2,0,L|71:19,1,80,2|2,0:0|0:0,0:0:0:0:
48,42,176368,1,2,0:0:0:0:
106,117,176599,1,0,3:0:0:0:
116,134,176714,1,2,0:0:0:0:
121,154,176829,1,2,0:0:0:0:
123,173,176945,1,2,0:0:0:0:
121,193,177061,2,0,P|111:240|92:284,1,80,10|2,0:0|0:0,0:0:0:0:
4,366,177522,6,0,L|95:358,1,80,0|2,3:0|0:0,0:0:0:0:
112,344,177868,2,0,L|191:351,1,80,2|2,0:0|0:0,0:0:0:0:
218,368,178214,1,2,0:0:0:0:
311,304,178445,1,0,3:0:0:0:
330,300,178560,1,2,0:0:0:0:
350,301,178675,1,2,0:0:0:0:
370,305,178791,1,2,0:0:0:0:
388,314,178907,2,0,L|394:358,2,40,10|2|2,0:0|0:0|0:0,0:0:0:0:
425,283,179253,6,0,L|435:197,1,80,2|0,0:0|0:0,0:0:0:0:
455,160,179599,1,2,0:0:0:0:
399,101,179830,1,10,0:0:0:0:
399,101,179945,1,2,0:0:0:0:
399,101,180061,1,2,0:0:0:0:
399,101,180176,2,0,L|343:111,1,40,2|0,0:0|3:0,0:0:0:0:
286,170,180522,1,2,0:0:0:0:
270,167,180637,1,2,0:0:0:0:
255,162,180752,2,0,L|248:112,2,40,10|2|2,0:0|0:0|0:0,0:0:0:0:
232,194,181099,6,0,P|200:202|124:141,1,120,2|0,0:0|3:0,0:0:0:0:
45,112,181676,2,0,P|33:138|33:166,3,40,10|2|2|2,0:0|0:0|0:0|0:0,0:0:0:0:
43,195,182138,2,0,L|53:278,1,80,6|4,3:2|0:3,0:0:0:0:
19,364,182599,1,8,0:0:0:0:
116,338,182830,1,2,0:0:0:0:
213,308,183061,6,0,L|296:321,1,80,4|2,0:0|0:0,0:0:0:0:
332,346,183407,1,2,0:0:0:0:
399,277,183638,1,2,0:0:0:0:
399,277,183753,2,0,B|385:236|385:236|396:196,1,80,2|2,0:0|3:2,0:0:0:0:
462,133,184214,2,0,L|456:72,1,40,2|2,0:0|0:0,0:0:0:0:
427,55,184444,2,0,L|387:60,3,40,10|2|2|2,0:0|0:0|0:0|0:0,0:0:0:0:
345,84,184907,6,0,B|306:72|306:72|268:88,1,80,0|2,3:0|0:0,0:0:0:0:
238,123,185253,1,2,0:0:0:0:
151,93,185484,1,2,0:0:0:0:
151,93,185599,2,0,P|161:142|161:179,1,80,2|0,0:0|3:0,0:0:0:0:
114,256,186061,1,2,0:0:0:0:
20,211,186291,1,10,0:0:0:0:
0,305,186522,1,2,0:3:0:0:
0,305,186638,1,2,0:3:0:0:
0,305,186753,6,0,B|68:318|29:362|98:376,1,120,6|2,3:2|0:0,0:0:0:0:
134,353,187214,1,8,0:0:0:0:
230,380,187445,1,2,0:0:0:0:
230,380,187561,2,0,P|234:337|244:287,1,80,2|2,0:0|0:0,0:0:0:0:
309,233,188022,1,0,3:0:0:0:
309,233,188138,2,0,P|304:190|295:140,1,80,8|2,0:0|3:2,0:0:0:0:
246,51,188599,5,6,3:2:0:0:
146,19,188830,1,2,0:0:0:0:
146,19,188945,1,2,0:0:0:0:
146,19,189061,2,0,L|138:104,1,80,10|2,0:0|0:0,0:0:0:0:
199,183,189522,5,2,3:2:0:0:
135,265,189753,1,2,0:0:0:0:
135,265,189868,1,2,0:0:0:0:
135,265,189984,1,10,0:0:0:0:
206,340,190214,2,0,L|290:331,1,80,2|0,0:0|0:0,0:0:0:0:
471,289,199676,6,0,L|401:279,1,64,0|2,3:0|0:0,0:0:0:0:
346,222,200138,2,0,L|282:231,1,64,0|2,3:0|0:0,0:0:0:0:
213,278,200599,1,0,3:0:0:0:
213,278,200830,1,2,0:0:0:0:
133,251,201061,1,0,3:0:0:0:
133,251,201291,1,2,0:0:0:0:
62,207,201522,6,0,L|53:131,1,64,0|2,3:0|0:0,0:0:0:0:
72,116,201868,1,2,0:0:0:0:
145,155,202099,2,0,P|175:163|217:149,1,64,2|0,0:0|0:0,0:0:0:0:
227,131,202445,1,0,3:0:0:0:
299,25,202907,2,0,P|298:58|306:101,1,64,0|2,3:0|0:0,0:0:0:0:
354,153,203368,6,0,L|425:143,1,64,0|2,3:0|0:0,0:0:0:0:
434,225,203830,2,0,L|370:233,1,64,0|2,3:0|0:0,0:0:0:0:
288,245,204291,1,0,3:0:0:0:
288,245,204522,1,2,0:0:0:0:
300,327,204753,1,0,3:0:0:0:
300,327,204984,1,2,0:0:0:0:
382,321,205214,5,2,0:3:0:0:
256,192,205330,12,0,206599,0:0:0:0:
364,352,207061,6,0,L|315:347,2,40,6|2|2,3:2|0:0|0:0,0:0:0:0:
406,330,207406,2,0,L|455:325,2,40,10|2|2,0:0|0:0|0:0,0:0:0:0:
377,291,207752,1,10,3:2:0:0:
413,201,207984,5,8,0:0:0:0:
410,171,208099,1,2,3:2:0:0:
408,141,208214,1,10,0:0:0:0:
405,111,208330,1,2,3:2:0:0:
403,81,208445,6,0,L|358:67,1,40,8|2,3:2|3:2,0:0:0:0:
315,52,208676,2,0,L|262:65,1,40,10|2,3:2|3:2,0:0:0:0:
239,101,208907,6,0,B|124:92|124:92|138:99|155:114,1,143.999995605469,14|0,3:2|0:0,0:0:0:0:
157,146,209368,2,0,L|170:244,1,95.9999970703126,8|2,0:0|0:0,0:0:0:0:
108,339,209830,5,0,3:0:0:0:
108,339,210061,1,2,0:0:0:0:
170,242,210291,1,8,0:0:0:0:
272,295,210522,1,2,0:0:0:0:
397,218,210753,6,0,L|388:60,1,143.999995605469,0|2,3:0|0:0,0:0:0:0:
388,74,211214,1,8,0:0:0:0:
306,155,211445,1,2,0:0:0:0:
201,106,211676,2,0,P|185:68|201:17,1,95.9999970703126,0|2,3:0|0:0,0:0:0:0:
309,58,212138,1,8,0:0:0:0:
309,58,212368,1,2,0:0:0:0:
201,106,212599,6,0,L|94:126,1,95.9999970703126,0|2,3:0|0:0,0:0:0:0:
83,154,212945,1,2,0:0:0:0:
83,154,213061,1,8,0:0:0:0:
191,191,213291,1,2,0:0:0:0:
96,257,213522,2,0,B|23:251|23:251|58:231,1,95.9999970703126,0|2,3:0|0:0,0:0:0:0:
191,191,213984,2,0,B|264:197|264:197|229:217,1,95.9999970703126,8|2,0:0|0:0,0:0:0:0:
182,384,214445,6,0,L|173:286,1,95.9999970703126,0|2,3:0|0:0,0:0:0:0:
173,288,214791,1,2,0:0:0:0:
173,288,214907,1,8,0:0:0:0:
280,331,215138,1,2,0:0:0:0:
341,237,215368,2,0,B|359:190|359:190|342:147,1,95.9999970703126,2|0,3:2|0:0,0:0:0:0:
251,75,215830,1,8,0:0:0:0:
251,75,216061,1,2,0:0:0:0:
390,14,216291,6,0,P|367:55|373:162,1,143.999995605469,6|0,3:2|0:0,0:0:0:0:
367,149,216753,1,8,0:0:0:0:
423,249,216984,1,2,0:0:0:0:
341,329,217214,2,0,P|300:342|242:325,1,95.9999970703126,0|2,3:0|0:0,0:0:0:0:
215,219,217676,2,0,P|174:206|116:223,1,95.9999970703126,8|2,0:0|0:0,0:0:0:0:
31,364,218138,6,0,P|48:315|36:268,1,95.9999970703126,0|2,3:0|0:0,0:0:0:0:
25,238,218484,1,2,0:0:0:0:
25,238,218599,1,8,0:0:0:0:
127,291,218830,1,2,0:0:0:0:
215,219,219061,2,0,L|226:118,1,95.9999970703126,0|0,3:0|0:0,0:0:0:0:
132,55,219522,1,8,0:0:0:0:
108,167,219753,1,2,0:0:0:0:
24,87,219984,5,0,3:0:0:0:
132,55,220214,1,2,0:0:0:0:
225,123,220445,1,8,0:0:0:0:
331,79,220676,1,2,0:0:0:0:
430,138,220907,2,0,L|438:234,1,95.9999970703126,0|2,3:0|0:0,0:0:0:0:
509,323,221368,1,8,0:0:0:0:
393,328,221599,1,2,0:0:0:0:
277,335,221830,6,0,L|177:341,1,95.9999970703126,2|0,3:2|0:0,0:0:0:0:
65,343,222291,1,8,0:0:0:0:
104,234,222522,1,10,0:3:0:0:
104,234,222638,1,0,3:0:0:0:
104,234,222753,1,10,3:2:0:0:
216,258,222984,1,10,0:0:0:0:
216,258,223099,1,0,3:0:0:0:
216,258,223214,2,0,L|266:250,1,47.9999985351563,10|0,0:0|3:0,0:0:0:0:
309,230,223445,2,0,L|356:237,1,47.9999985351563,10|0,0:0|3:0,0:0:0:0:
407,263,223676,6,0,B|391:214|391:214|404:164,1,95.9999970703126,14|0,3:2|0:0,0:0:0:0:
495,101,224138,1,8,0:0:0:0:
495,101,224368,1,2,0:0:0:0:
396,41,224599,2,0,B|348:26|348:26|299:45,1,95.9999970703126,0|2,3:0|0:0,0:0:0:0:
189,40,225061,2,0,B|174:88|174:88|193:137,1,95.9999970703126,8|2,0:0|0:0,0:0:0:0:
271,212,225522,5,0,3:0:0:0:
195,295,225753,1,2,0:0:0:0:
195,295,225868,1,2,0:0:0:0:
195,295,225984,2,0,B|110:281|156:235|59:226,1,143.999995605469,8|0,0:0|0:0,0:0:0:0:
72,227,226445,1,0,3:0:0:0:
269,352,226907,5,8,0:0:0:0:
269,352,227138,1,2,0:0:0:0:
308,244,227368,6,0,P|347:233|401:257,1,95.9999970703126,0|2,3:0|0:0,0:0:0:0:
459,350,227830,1,8,0:0:0:0:
459,350,228061,1,2,0:0:0:0:
498,242,228291,2,0,L|509:144,1,95.9999970703126,0|2,3:0|0:0,0:0:0:0:
392,147,228753,2,0,L|381:49,1,95.9999970703126,8|2,0:0|0:0,0:0:0:0:
278,103,229214,5,0,3:0:0:0:
172,55,229445,1,2,0:0:0:0:
172,55,229561,1,2,0:0:0:0:
172,55,229676,1,8,0:0:0:0:
79,123,229907,1,2,0:0:0:0:
176,183,230138,1,2,3:2:0:0:
11,343,230599,5,8,0:0:0:0:
11,343,230830,1,2,0:0:0:0:
91,260,231061,6,0,P|129:255|188:287,1,95.9999970703126,6|0,3:2|0:0,0:0:0:0:
261,359,231522,2,0,P|299:364|358:332,1,95.9999970703126,8|2,0:0|0:0,0:0:0:0:
441,269,231984,1,0,3:0:0:0:
351,197,232214,2,0,B|327:181|327:181|258:192,2,95.9999970703126,2|8|2,0:0|0:0|0:0,0:0:0:0:
461,163,232907,5,0,3:0:0:0:
447,47,233137,1,2,0:0:0:0:
336,11,233368,1,8,0:0:0:0:
258,97,233599,1,2,0:0:0:0:
294,206,233830,1,0,3:0:0:0:
358,110,234061,5,2,0:0:0:0:
199,174,234291,1,8,0:0:0:0:
334,281,234522,2,0,L|346:176,1,95.9999970703126,2|0,0:0|3:0,0:0:0:0:
241,252,234984,5,2,0:0:0:0:
241,252,235214,1,8,0:0:0:0:
224,366,235445,1,2,0:0:0:0:
224,366,235676,1,0,3:0:0:0:
109,381,235907,1,2,0:0:0:0:
31,295,236138,1,8,0:0:0:0:
83,192,236368,1,2,0:0:0:0:
217,229,236599,5,2,3:2:0:0:
165,125,236830,1,2,0:0:0:0:
165,125,236945,1,2,0:0:0:0:
165,125,237061,2,0,P|156:78|168:22,1,95.9999970703126,10|2,0:0|0:0,0:0:0:0:
268,80,237522,2,0,B|319:71|319:71|389:91,1,95.9999970703126,2|2,3:2|0:0,0:0:0:0:
469,41,237984,2,0,P|478:88|466:144,1,95.9999970703126,10|2,0:0|0:0,0:0:0:0:
368,190,238445,6,0,L|261:201,1,95.9999970703126,4|2,3:2|0:0,0:0:0:0:
160,230,238907,1,8,0:0:0:0:
160,230,239138,1,2,0:0:0:0:
242,310,239368,1,0,3:0:0:0:
272,199,239599,1,2,0:0:0:0:
180,129,239830,1,8,0:0:0:0:
71,169,240061,1,2,0:0:0:0:
40,297,240291,5,2,3:2:0:0:
140,353,240522,1,2,0:0:0:0:
140,353,240638,1,2,0:0:0:0:
140,353,240753,2,0,L|253:340,1,95.9999970703126,8|2,0:0|0:0,0:0:0:0:
349,325,241214,1,2,3:2:0:0:
349,325,241445,1,2,0:0:0:0:
297,221,241676,1,8,0:0:0:0:
356,122,241907,1,2,0:0:0:0:
480,187,242138,6,0,L|466:285,1,95.9999970703126,6|2,3:2|0:3,0:0:0:0:
449,310,242484,1,2,0:3:0:0:
449,310,242599,1,8,0:0:0:0:
351,258,242830,1,2,0:3:0:0:
351,258,242945,2,0,B|341:210|341:210|361:153,1,95.9999970703126,6|0,3:2|0:0,0:0:0:0:
395,137,243291,1,8,0:0:0:0:
341,71,243522,6,0,L|267:93,1,60.0000022888184,2|2,0:0|0:0,0:0:0:0:
224,164,243984,6,0,L|308:179,1,80,6|0,3:2|0:0,0:0:0:0:
341,170,244330,1,2,0:0:0:0:
341,170,244444,2,0,L|433:188,1,80,10|0,0:0|0:0,0:0:0:0:
452,281,244907,1,2,3:2:0:0:
452,281,245138,1,2,0:0:0:0:
357,290,245367,5,10,0:0:0:0:
360,309,245484,1,2,0:0:0:0:
364,328,245599,1,2,0:0:0:0:
368,347,245715,1,2,0:0:0:0:
373,366,245830,6,0,L|408:384,2,40,2|2|0,3:2|0:0|0:0,0:0:0:0:
276,361,246292,2,0,B|232:371|232:371|193:358,1,80,10|2,0:0|0:0,0:0:0:0:
123,300,246753,2,0,P|120:256|113:214,1,80,2|2,3:2|0:0,0:0:0:0:
216,199,247214,2,0,P|218:155|226:113,1,80,10|2,0:0|0:0,0:0:0:0:
170,27,247676,5,2,3:2:0:0:
170,27,247791,1,2,0:0:0:0:
81,78,248022,1,2,0:0:0:0:
81,78,248138,2,0,B|64:118|64:118|75:160,1,80,10|2,0:0|0:0,0:0:0:0:
121,245,248599,6,0,L|111:337,1,80,2|2,3:2|0:0,0:0:0:0:
211,358,249061,2,0,L|219:278,1,80,10|2,0:0|0:0,0:0:0:0:
278,191,249522,6,0,P|310:203|358:193,1,80,2|2,3:2|0:0,0:0:0:0:
382,166,249868,1,2,0:0:0:0:
382,166,249984,2,0,L|375:68,1,80,10|2,0:0|0:0,0:0:0:0:
291,26,250445,1,2,3:2:0:0:
291,26,250676,1,2,0:0:0:0:
202,62,250907,5,10,0:0:0:0:
182,56,251022,1,2,0:0:0:0:
163,49,251138,1,2,0:0:0:0:
143,43,251253,1,2,0:0:0:0:
123,37,251368,6,0,L|63:44,2,40,6|2|0,3:2|0:0|0:0,0:0:0:0:
145,130,251830,2,0,L|135:209,1,80,10|2,0:0|0:0,0:0:0:0:
61,267,252291,2,0,L|70:346,1,80,2|2,3:2|0:0,0:0:0:0:
186,322,252753,5,10,0:0:0:0:
205,319,252868,1,2,0:0:0:0:
225,317,252983,1,2,0:0:0:0:
245,315,253099,1,2,0:0:0:0:
265,313,253214,6,0,L|276:355,2,40,2|2|0,3:2|0:0|0:0,0:0:0:0:
331,232,253676,2,0,L|430:224,1,80,8|2,0:0|0:0,0:0:0:0:
466,136,254138,2,0,P|486:96|472:52,1,80,2|2,3:2|0:0,0:0:0:0:
380,98,254598,5,10,0:0:0:0:
360,100,254715,1,2,0:0:0:0:
340,102,254830,1,2,0:0:0:0:
320,104,254944,1,2,0:0:0:0:
300,107,255061,6,0,L|306:162,2,40,2|2|0,3:2|0:0|0:0,0:0:0:0:
221,38,255522,2,0,L|134:45,1,80,10|2,0:0|0:0,0:0:0:0:
82,130,255984,2,0,L|89:217,1,80,2|2,3:2|0:0,0:0:0:0:
135,302,256445,1,10,0:0:0:0:
211,231,256676,2,0,B|254:219|254:219|305:238,1,80,2|4,0:0|3:0,0:0:0:0:
360,306,257138,5,2,0:3:0:0:
375,308,257252,1,2,0:3:0:0:
390,310,257367,2,0,L|437:302,3,40,2|2|8|8,3:0|0:3|0:3|0:3,0:0:0:0:
465,264,257830,6,0,L|475:181,1,80,2|2,3:2|0:0,0:0:0:0:
429,158,258176,2,0,L|419:75,1,80,2|2,3:2|0:0,0:0:0:0:
455,40,258522,1,10,3:2:0:0:
