osu file format v14

[General]
AudioFilename: audio.mp3
AudioLeadIn: 0
PreviewTime: 75175
Countdown: 0
SampleSet: Soft
StackLeniency: 0.4
Mode: 0
LetterboxInBreaks: 0
EpilepsyWarning: 1
WidescreenStoryboard: 1

[Editor]
Bookmarks: 16907,31676,46445,61214,75984,90753,103676,118445,133214,146138,160907,175676,199676,208907,223676,243984
DistanceSpacing: 1.1
BeatDivisor: 4
GridSize: 32
TimelineZoom: 3.099999

[Metadata]
Title:Yoru ni Kakeru
TitleUnicode:夜に駆ける
Artist:YOASOBI
ArtistUnicode:YOASOBI
Creator:Petal
Version:Keirelia's Insane
Source:
Tags:幾田りら Japanese pop racing into the night Ayase female ikura Ikuta matha -light- battle -keitaro shurelia Error- lilas J-pop Jpop 藍にいな Ai Niina
BeatmapID:2608001
BeatmapSetID:1238759

[Difficulty]
HPDrainRate:6
CircleSize:4.2
OverallDifficulty:8
ApproachRate:9
SliderMultiplier:2.2
SliderTickRate:1

[Events]
//Background and Video events
0,0,"BG.jpg",0,0
Video,130,"video.mp4"
//Break Periods
2,146138,158461
2,192291,199076
//Storyboard Layer 0 (Background)
//Storyboard Layer 1 (Fail)
//Storyboard Layer 2 (Pass)
//Storyboard Layer 3 (Foreground)
//Storyboard Layer 4 (Overlay)
//Storyboard Sound Samples

[TimingPoints]
291,461.538461538462,4,2,1,40,1,0
2138,-125,4,2,1,25,0,0
9522,-125,4,2,1,50,0,0
15291,-125,4,2,1,25,0,0
16907,-100,4,2,2,60,0,0
17022,-100,4,2,1,60,0,0
17541,-100,4,2,1,5,0,0
17599,-100,4,2,1,60,0,0
19388,-100,4,2,1,5,0,0
19445,-100,4,2,1,60,0,0
21234,-100,4,2,1,5,0,0
21291,-100,4,2,1,60,0,0
21695,-100,4,2,1,5,0,0
21753,-100,4,2,1,60,0,0
23080,-100,4,2,1,5,0,0
23138,-100,4,2,1,60,0,0
23311,-100,4,2,1,5,0,0
23368,-100,4,2,1,60,0,0
24926,-100,4,2,1,5,0,0
24984,-100,4,2,1,60,0,0
26772,-100,4,2,1,5,0,0
26830,-100,4,2,1,60,0,0
28618,-100,4,2,1,5,0,0
28676,-100,4,2,1,60,0,0
29080,-100,4,2,1,5,0,0
29138,-100,4,2,1,60,0,0
31618,-100,4,2,1,5,0,0
31676,-111.111111111111,4,2,1,40,0,0
39061,-111.111111111111,4,2,1,50,0,0
39695,-111.111111111111,4,2,1,5,0,0
39753,-111.111111111111,4,2,1,50,0,0
40618,-111.111111111111,4,2,1,5,0,0
40676,-111.111111111111,4,2,1,50,0,0
41772,-111.111111111111,4,2,1,5,0,0
41830,-111.111111111111,4,2,1,50,0,0
43388,-111.111111111111,4,2,1,5,0,0
43445,-111.111111111111,4,2,1,50,0,0
45868,-142.857142857143,4,2,1,50,0,0
46214,-111.111111111111,4,2,1,50,0,0
46445,-111.111111111111,4,2,1,60,0,0
47080,-111.111111111111,4,2,1,5,0,0
47138,-111.111111111111,4,2,1,60,0,0
48926,-111.111111111111,4,2,1,5,0,0
48984,-111.111111111111,4,2,1,60,0,0
68599,-111.111111111111,4,2,3,60,0,0
70388,-111.111111111111,4,2,3,5,0,0
70445,-111.111111111111,4,2,3,60,0,0
72291,-111.111111111111,4,2,1,60,0,0
74714,-111.111111111111,4,2,1,65,0,0
75983,-71.4285714285714,4,2,2,85,0,1
76214,-71.4285714285714,4,2,1,85,0,1
76618,-71.4285714285714,4,2,1,5,0,1
76676,-71.4285714285714,4,2,1,85,0,1
77080,-71.4285714285714,4,2,1,5,0,1
77138,-71.4285714285714,4,2,1,85,0,1
78926,-71.4285714285714,4,2,1,5,0,1
78984,-71.4285714285714,4,2,1,85,0,1
83368,-71.4285714285714,4,2,2,85,0,1
83599,-71.4285714285714,4,2,1,85,0,1
84003,-71.4285714285714,4,2,1,5,0,1
84061,-71.4285714285714,4,2,1,85,0,1
86772,-71.4285714285714,4,2,1,5,0,1
86830,-71.4285714285714,4,2,1,85,0,1
90637,-71.4285714285714,4,2,1,85,0,0
90752,-71.4285714285714,4,2,2,85,0,1
90984,-71.4285714285714,4,2,1,85,0,1
91388,-71.4285714285714,4,2,1,5,0,1
91445,-71.4285714285714,4,2,1,85,0,1
91849,-71.4285714285714,4,2,1,5,0,1
91907,-71.4285714285714,4,2,1,85,0,1
92541,-71.4285714285714,4,2,1,5,0,1
92599,-71.4285714285714,4,2,1,85,0,1
93695,-71.4285714285714,4,2,1,5,0,1
93753,-71.4285714285714,4,2,1,85,0,1
98138,-71.4285714285714,4,2,2,85,0,1
98368,-71.4285714285714,4,2,1,85,0,1
98772,-71.4285714285714,4,2,1,5,0,1
98830,-71.4285714285714,4,2,1,85,0,1
99234,-71.4285714285714,4,2,1,5,0,1
99291,-71.4285714285714,4,2,1,85,0,1
103214,-71.4285714285714,4,2,1,60,0,1
103675,-90.9090909090909,4,2,2,60,0,0
103791,-90.9090909090909,4,2,1,60,0,0
104311,-90.9090909090909,4,2,1,5,0,0
104368,-90.9090909090909,4,2,1,60,0,0
106157,-90.9090909090909,4,2,1,5,0,0
106214,-90.9090909090909,4,2,1,60,0,0
108003,-90.9090909090909,4,2,1,5,0,0
108061,-90.9090909090909,4,2,1,60,0,0
109849,-90.9090909090909,4,2,1,5,0,0
109907,-90.9090909090909,4,2,1,60,0,0
111695,-90.9090909090909,4,2,1,5,0,0
111753,-90.9090909090909,4,2,1,60,0,0
113541,-90.9090909090909,4,2,1,5,0,0
113599,-90.9090909090909,4,2,1,60,0,0
115388,-90.9090909090909,4,2,1,5,0,0
115445,-90.9090909090909,4,2,1,60,0,0
118445,-90.9090909090909,4,2,1,50,0,0
125829,-90.9090909090909,4,2,1,50,0,0
131599,-90.9090909090909,4,2,1,50,0,0
133214,-90.9090909090909,4,2,1,75,0,0
140772,-90.9090909090909,4,2,1,5,0,0
140830,-90.9090909090909,4,2,1,75,0,0
145676,-90.9090909090909,4,2,1,35,0,0
160907,-90.9090909090909,4,2,1,65,0,0
162464,-90.9090909090909,4,2,1,5,0,0
162522,-90.9090909090909,4,2,1,65,0,0
165695,-90.9090909090909,4,2,1,5,0,0
165753,-90.9090909090909,4,2,1,65,0,0
168926,-90.9090909090909,4,2,1,5,0,0
168984,-90.9090909090909,4,2,1,65,0,0
170080,-90.9090909090909,4,2,1,5,0,0
170138,-90.9090909090909,4,2,1,65,0,0
173080,-90.9090909090909,4,2,1,5,0,0
173138,-90.9090909090909,4,2,1,65,0,0
175676,-111.111111111111,4,2,1,60,0,0
183061,-90.9090909090909,4,2,3,60,0,0
190330,-90.9090909090909,4,2,1,60,0,0
199676,-125,4,2,1,50,0,0
206599,-125,4,2,1,15,0,0
207061,-125,4,2,1,75,0,0
208906,-66.6666666666667,4,2,2,90,0,1
209253,-66.6666666666667,4,2,1,90,0,1
209541,-66.6666666666667,4,2,1,5,0,1
209599,-66.6666666666667,4,2,1,90,0,1
210003,-66.6666666666667,4,2,1,5,0,1
210061,-66.6666666666667,4,2,1,90,0,1
211849,-66.6666666666667,4,2,1,5,0,1
211907,-66.6666666666667,4,2,1,90,0,1
216291,-66.6666666666667,4,2,2,90,0,1
216638,-66.6666666666667,4,2,1,90,0,1
216926,-66.6666666666667,4,2,1,5,0,1
216984,-66.6666666666667,4,2,1,90,0,1
217388,-66.6666666666667,4,2,1,5,0,1
217445,-66.6666666666667,4,2,1,90,0,1
219695,-66.6666666666667,4,2,1,5,0,1
219753,-66.6666666666667,4,2,1,90,0,1
223560,-66.6666666666667,4,2,1,90,0,0
223675,-66.6666666666667,4,2,2,90,0,1
224022,-66.6666666666667,4,2,1,90,0,1
224311,-66.6666666666667,4,2,1,5,0,1
224368,-66.6666666666667,4,2,1,90,0,1
224772,-66.6666666666667,4,2,1,5,0,1
224830,-66.6666666666667,4,2,1,90,0,1
226618,-66.6666666666667,4,2,1,5,0,1
226676,-66.6666666666667,4,2,1,90,0,1
231061,-66.6666666666667,4,2,2,90,0,1
231407,-66.6666666666667,4,2,1,90,0,1
231695,-66.6666666666667,4,2,1,5,0,1
231753,-66.6666666666667,4,2,1,90,0,1
232157,-66.6666666666667,4,2,1,5,0,1
232214,-66.6666666666667,4,2,1,90,0,1
234926,-66.6666666666667,4,2,1,5,0,1
234984,-66.6666666666667,4,2,1,90,0,1
243522,-66.6666666666667,4,2,1,30,0,1
243983,-83.3333333333333,4,2,2,60,0,0
244099,-83.3333333333333,4,2,1,60,0,0
244618,-83.3333333333333,4,2,1,5,0,0
244676,-83.3333333333333,4,2,1,60,0,0
246464,-83.3333333333333,4,2,1,5,0,0
246522,-83.3333333333333,4,2,1,60,0,0
248311,-83.3333333333333,4,2,1,5,0,0
248368,-83.3333333333333,4,2,1,60,0,0
250157,-83.3333333333333,4,2,1,5,0,0
250214,-83.3333333333333,4,2,1,60,0,0
252003,-83.3333333333333,4,2,1,5,0,0
252061,-83.3333333333333,4,2,1,60,0,0
253849,-83.3333333333333,4,2,1,5,0,0
253907,-83.3333333333333,4,2,1,60,0,0
255695,-83.3333333333333,4,2,1,5,0,0
255753,-83.3333333333333,4,2,1,60,0,0

[Colours]
Combo1 : 228,226,177
Combo2 : 222,189,200
Combo3 : 182,176,222
Combo4 : 188,128,156

[HitObjects]
67,341,2138,6,0,P|133:339|199:333,2,132,2|2|2,0:0|0:0|0:0,0:0:0:0:
220,224,3061,2,0,P|264:226|308:227,1,88,2|2,0:0|0:0,0:0:0:0:
126,138,3522,1,2,0:0:0:0:
410,70,3984,6,0,P|407:113|405:157,1,88,2|2,0:0|0:0,0:0:0:0:
441,177,4330,2,0,P|443:220|445:264,1,88,2|0,0:0|0:0,0:0:0:0:
413,291,4676,1,2,0:0:0:0:
256,194,4907,1,2,0:0:0:0:
30,353,5368,1,2,0:0:0:0:
78,258,5599,1,2,0:0:0:0:
28,163,5830,6,0,P|32:120|40:76,1,88,2|0,0:0|0:0,0:0:0:0:
63,37,6176,1,2,0:0:0:0:
475,36,6522,1,2,0:0:0:0:
432,132,6753,1,2,0:0:0:0:
360,344,6984,1,2,0:0:0:0:
285,270,7214,1,2,0:0:0:0:
179,272,7445,1,2,0:0:0:0:
118,358,7676,5,2,0:0:0:0:
179,272,8022,1,2,0:0:0:0:
285,270,8368,1,2,0:0:0:0:
360,344,8599,5,2,0:0:0:0:
436,271,8830,1,2,0:0:0:0:
361,196,9061,1,2,0:0:0:0:
433,120,9291,1,2,0:0:0:0:
357,45,9522,6,0,P|314:51|270:56,1,88,0|2,3:0|0:0,0:0:0:0:
251,192,9984,2,0,P|207:187|164:181,1,88,0|2,3:0|0:0,0:0:0:0:
155,334,10445,2,0,P|113:318|73:300,1,88,0|2,3:0|0:0,0:0:0:0:
39,178,10907,5,0,3:0:0:0:
73,78,11138,1,2,0:0:0:0:
257,21,11368,5,0,3:0:0:0:
229,123,11599,1,2,0:0:0:0:
431,68,11830,5,0,3:0:0:0:
395,167,12061,2,0,P|388:210|385:254,1,88,2|0,0:0|3:0,0:0:0:0:
506,380,12522,1,2,0:0:0:0:
406,343,12753,1,0,3:0:0:0:
300,332,12984,1,2,0:0:0:0:
195,347,13214,6,0,B|115:322|79:318|79:318|91:313,2,132,0|2|2,3:0|0:0|0:0,0:0:0:0:
256,192,14138,1,0,3:0:0:0:
27,23,14599,2,0,P|30:89|31:155,1,132,0|2,3:0|0:0,0:0:0:0:
12,233,15061,5,2,0:0:0:0:
12,233,16445,5,2,0:0:0:0:
62,249,16561,1,2,0:0:0:0:
114,253,16676,1,2,0:0:0:0:
166,247,16791,1,2,0:0:0:0:
209,220,16907,5,6,3:2:0:0:
209,220,17022,2,0,L|196:131,1,55,2|0,0:0|0:0,0:0:0:0:
241,96,17253,2,0,P|298:114|289:184,1,110,2|0,0:0|0:0,0:0:0:0:
294,237,17599,1,2,0:0:0:0:
495,206,17830,6,0,P|449:196|414:222,1,82.5,2|0,3:2|0:0,0:0:0:0:
403,226,18061,2,0,P|407:270|427:294,1,55,2|0,0:0|0:0,0:0:0:0:
486,369,18291,5,10,0:0:0:0:
452,354,18407,1,2,0:0:0:0:
414,350,18522,1,2,0:0:0:0:
380,361,18638,1,2,0:0:0:0:
348,382,18753,5,2,3:2:0:0:
348,382,18868,2,0,L|272:374,1,55,2|0,0:0|0:0,0:0:0:0:
236,308,19099,2,0,P|234:256|324:249,1,110,2|0,0:0|0:0,0:0:0:0:
345,167,19445,1,2,0:0:0:0:
228,2,19676,6,0,P|210:36|239:91,1,82.5,2|0,3:2|0:0,0:0:0:0:
228,93,19907,2,0,P|273:98|298:85,1,55,2|0,0:0|0:0,0:0:0:0:
369,69,20138,6,0,L|447:80,1,55,10|0,0:0|0:0,0:0:0:0:
512,173,20368,2,0,L|434:184,1,55,2|0,0:0|0:0,0:0:0:0:
368,252,20599,5,2,3:2:0:0:
368,252,20714,2,0,L|245:237,1,110,2|2,0:0|0:0,0:0:0:0:
183,269,21061,2,0,L|197:346,1,55,10|0,0:0|0:0,0:0:0:0:
137,384,21291,1,2,0:0:0:0:
13,265,21522,6,0,P|20:214|67:200,1,82.5,2|0,3:2|0:0,0:0:0:0:
68,182,21753,2,0,L|138:194,1,55,2|0,0:0|0:0,0:0:0:0:
154,65,21984,2,0,L|108:119,1,55,10|0,0:0|0:0,0:0:0:0:
212,197,22214,2,0,L|187:130,1,55,2|0,0:0|0:0,0:0:0:0:
244,73,22445,6,0,B|303:56|283:111|367:93,1,110,2|2,3:2|0:0,0:0:0:0:
408,45,22791,1,2,0:0:0:0:
495,196,23022,1,2,0:0:0:0:
495,196,23138,2,0,P|449:193|420:241,1,82.5,2|0,0:0|0:0,0:0:0:0:
415,225,23368,2,0,L|428:295,1,55,2|0,3:2|0:0,0:0:0:0:
319,329,23599,2,0,L|329:274,1,55,2|0,0:0|0:0,0:0:0:0:
277,185,23830,5,10,0:0:0:0:
258,153,23945,1,2,0:0:0:0:
244,110,24061,1,2,0:0:0:0:
255,69,24176,1,2,0:0:0:0:
276,29,24291,5,6,3:2:0:0:
276,29,24407,2,0,L|202:20,1,55,2|0,0:0|0:0,0:0:0:0:
154,81,24638,2,0,P|172:174|175:212,1,110,2|0,0:0|0:0,0:0:0:0:
105,238,24984,1,2,0:0:0:0:
249,329,25214,6,0,P|223:287|171:291,1,82.5,2|0,3:2|0:0,0:0:0:0:
168,308,25445,2,0,L|98:324,1,55,2|0,0:0|0:0,0:0:0:0:
21,268,25676,5,10,0:0:0:0:
10,230,25791,1,2,0:0:0:0:
21,188,25907,1,2,0:0:0:0:
56,158,26022,1,2,0:0:0:0:
96,150,26138,5,2,3:2:0:0:
96,150,26253,2,0,L|106:74,1,55,2|0,0:0|0:0,0:0:0:0:
162,36,26484,2,0,P|211:46|212:116,1,110,2|0,0:0|0:0,0:0:0:0:
185,176,26830,1,2,0:0:0:0:
324,273,27061,6,0,L|314:165,1,82.5,2|0,3:2|0:0,0:0:0:0:
302,183,27291,2,0,L|314:110,1,55,2|0,0:0|0:0,0:0:0:0:
386,76,27522,5,10,0:0:0:0:
422,89,27638,1,2,0:0:0:0:
452,124,27753,1,2,0:0:0:0:
456,165,27868,1,2,0:0:0:0:
437,204,27984,5,2,3:2:0:0:
437,204,28099,2,0,L|451:276,1,55,2|0,0:0|0:0,0:0:0:0:
481,346,28330,2,0,P|429:375|376:344,1,110,2|0,0:0|0:0,0:0:0:0:
368,274,28676,1,2,0:0:0:0:
219,384,28907,6,0,L|225:314,1,55,2|0,3:2|0:0,0:0:0:0:
154,210,29138,2,0,L|158:264,1,55,2|0,0:0|0:0,0:0:0:0:
234,245,29368,1,10,0:0:0:0:
147,345,29599,1,2,0:0:0:0:
19,180,29830,5,0,3:0:0:0:
44,177,29945,1,2,0:0:0:0:
49,206,30061,1,2,0:0:0:0:
21,210,30176,5,2,0:0:0:0:
5,189,30291,1,10,0:0:0:0:
2,147,30407,1,2,0:0:0:0:
26,113,30522,1,2,0:0:0:0:
76,91,30638,1,2,0:0:0:0:
131,98,30753,6,0,P|141:131|131:172,1,55,2|2,3:2|0:0,0:0:0:0:
225,201,30984,2,0,P|202:236|174:249,1,55,2|2,0:0|0:0,0:0:0:0:
63,315,31214,6,0,B|152:286|125:368|225:339,1,165,10|0,0:0|0:0,0:0:0:0:
288,272,31676,6,0,P|338:270|386:280,1,98.9999969787599,4|2,0:0|0:0,0:0:0:0:
484,352,32138,1,0,3:0:0:0:
470,198,32368,2,0,P|463:148|454:100,1,98.9999969787599,2|0,0:0|3:0,0:0:0:0:
231,120,32830,2,0,P|237:70|246:22,2,98.9999969787599,2|0|2,0:0|3:0|0:0,0:0:0:0:
34,53,33522,5,0,3:0:0:0:
80,120,33753,2,0,P|72:168|71:218,1,98.9999969787599,2|0,0:0|3:0,0:0:0:0:
99,333,34214,1,2,0:0:0:0:
173,278,34445,1,0,3:0:0:0:
312,173,34676,1,2,0:0:0:0:
229,143,34907,1,0,3:0:0:0:
308,303,35138,1,2,0:0:0:0:
390,248,35368,6,0,P|438:255|487:265,1,98.9999969787599,0|2,3:0|0:0,0:0:0:0:
310,323,35830,1,0,3:0:0:0:
237,354,36061,1,2,0:0:0:0:
159,340,36291,1,0,3:0:0:0:
25,235,36522,1,2,0:0:0:0:
44,158,36753,1,0,3:0:0:0:
39,78,36984,2,0,P|43:34|0:38,1,98.9999969787599,2|0,0:0|3:0,0:0:0:0:
207,21,37445,6,0,P|255:32|302:45,1,98.9999969787599,2|0,0:0|3:0,0:0:0:0:
165,160,37907,1,2,0:0:0:0:
241,137,38138,1,0,3:0:0:0:
378,257,38368,1,2,0:0:0:0:
302,234,38599,1,0,3:0:0:0:
404,82,38830,1,2,0:0:0:0:
485,106,39061,6,0,P|487:156|491:205,1,98.9999969787599,4|2,3:2|0:0,0:0:0:0:
496,234,39407,1,2,0:0:0:0:
496,234,39522,1,8,0:0:0:0:
451,308,39753,1,2,0:0:0:0:
259,205,39984,2,0,P|209:209|162:225,1,98.9999969787599,0|2,3:0|0:0,0:0:0:0:
144,250,40330,1,2,0:3:0:0:
144,250,40445,1,8,0:0:0:0:
234,346,40676,1,2,0:0:0:0:
32,371,40907,6,0,P|29:322|18:274,1,98.9999969787599,0|2,3:0|0:0,0:0:0:0:
3,237,41253,1,2,0:0:0:0:
5,197,41368,1,8,0:0:0:0:
14,158,41484,2,0,P|54:131|73:86,1,98.9999969787599,2|0,0:0|0:0,0:0:0:0:
73,86,41830,2,0,P|77:110|91:130,1,49.4999984893799,0|0,3:0|0:0,0:0:0:0:
257,348,42291,5,8,0:0:0:0:
257,379,42522,1,2,0:0:0:0:
189,258,42753,1,0,3:0:0:0:
256,215,42984,1,2,0:0:0:0:
323,255,43214,1,8,0:0:0:0:
256,139,43445,2,0,P|255:89|255:40,1,98.9999969787599,2|0,0:0|3:0,0:0:0:0:
362,157,43907,1,2,0:0:0:0:
468,93,44138,1,8,0:0:0:0:
484,207,44368,6,0,P|477:255|476:305,1,98.9999969787599,6|0,0:0|3:0,0:0:0:0:
476,305,44830,1,2,0:0:0:0:
363,367,45061,1,8,0:0:0:0:
242,312,45291,1,2,0:0:0:0:
204,326,45407,1,2,0:0:0:0:
166,337,45522,2,0,P|116:330|67:323,1,98.9999969787599,0|0,3:0|0:0,0:0:0:0:
177,257,45868,2,0,L|100:245,1,76.9999976501466,0|0,3:0|0:0,0:0:0:0:
187,176,46214,2,0,L|127:168,1,49.4999984893799,0|0,3:0|0:0,0:0:0:0:
20,151,46445,5,4,3:2:0:0:
192,0,46676,2,0,L|200:77,1,49.4999984893799,2|2,0:0|0:0,0:0:0:0:
261,108,46907,2,0,P|322:96|332:22,1,98.9999969787599,8|2,0:0|0:0,0:0:0:0:
408,17,47253,1,2,0:0:0:0:
417,45,47368,1,0,3:0:0:0:
510,172,47599,2,0,L|436:161,1,49.4999984893799,2|0,0:0|0:0,0:0:0:0:
380,149,47830,1,8,0:0:0:0:
478,317,48061,1,2,0:0:0:0:
491,297,48176,1,2,0:0:0:0:
485,273,48291,6,0,L|366:296,1,98.9999969787599,0|2,3:0|0:0,0:0:0:0:
321,326,48638,1,2,0:0:0:0:
305,331,48753,1,8,0:0:0:0:
195,177,48984,1,2,0:0:0:0:
136,236,49214,2,0,B|124:262|124:262|141:361,1,98.9999969787599,0|2,3:0|0:0,0:0:0:0:
267,221,49676,1,8,0:0:0:0:
77,166,49907,1,2,0:0:0:0:
213,18,50138,6,0,B|238:5|238:5|345:21,1,98.9999969787599,0|2,3:0|0:0,0:0:0:0:
356,78,50484,2,0,L|429:61,1,49.4999984893799,2|8,0:0|0:0,0:0:0:0:
277,91,50830,1,2,0:0:0:0:
388,258,51061,2,0,B|405:239|405:239|420:140,1,98.9999969787599,0|2,3:0|0:0,0:0:0:0:
479,118,51407,1,2,0:0:0:0:
489,139,51522,1,8,0:0:0:0:
267,221,51753,1,2,0:0:0:0:
294,384,51984,6,0,P|317:335|299:280,1,98.9999969787599,0|2,3:0|0:0,0:0:0:0:
117,187,52445,2,0,P|147:231|204:243,1,98.9999969787599,8|2,0:0|0:0,0:0:0:0:
267,221,52791,1,2,0:0:0:0:
281,203,52907,2,0,L|290:120,1,49.4999984893799,0|0,3:0|0:0,0:0:0:0:
339,101,53138,2,0,L|348:18,1,49.4999984893799,2|0,0:0|0:0,0:0:0:0:
264,3,53368,1,8,0:0:0:0:
361,178,53599,1,2,0:0:0:0:
509,125,53830,6,0,B|490:109|490:109|400:122,1,98.9999969787599,4|2,3:2|0:0,0:0:0:0:
361,178,54176,2,0,L|375:263,1,49.4999984893799,2|8,0:0|0:0,0:0:0:0:
472,370,54522,1,2,0:0:0:0:
325,310,54753,2,0,B|273:300|273:300|234:353,1,98.9999969787599,0|2,3:0|0:0,0:0:0:0:
180,370,55099,2,0,L|55:349,1,98.9999969787599,2|0,0:0|0:0,0:0:0:0:
8,384,55445,2,0,L|0:325,1,49.4999984893799,2|0,0:0|0:0,0:0:0:0:
59,271,55676,5,0,3:0:0:0:
38,153,55907,1,2,0:0:0:0:
23,156,56022,2,0,L|-32:169,1,49.4999984893799,2|8,0:0|0:0,0:0:0:0:
127,88,56253,2,0,L|18:72,1,98.9999969787599,2|0,0:0|0:0,0:0:0:0:
73,2,56599,2,0,L|180:18,1,98.9999969787599,0|2,3:0|0:0,0:0:0:0:
218,199,57061,1,8,0:0:0:0:
127,88,57291,1,2,0:0:0:0:
324,1,57522,6,0,B|332:23|332:23|314:120,1,98.9999969787599,0|2,3:0|0:0,0:0:0:0:
303,181,57868,1,0,0:0:0:0:
342,178,57984,1,8,0:0:0:0:
283,268,58214,2,0,L|402:286,1,98.9999969787599,2|0,0:0|3:0,0:0:0:0:
380,282,58676,1,2,0:0:0:0:
221,378,58907,1,8,0:0:0:0:
142,350,59138,6,0,B|116:333|116:333|89:224,1,98.9999969787599,2|0,0:0|3:0,0:0:0:0:
227,155,59599,2,0,B|210:220|210:220|184:237,1,98.9999969787599,2|8,0:0|0:0,0:0:0:0:
11,268,60061,1,2,0:0:0:0:
4,241,60176,1,2,0:0:0:0:
4,212,60291,1,0,3:0:0:0:
40,117,60522,1,2,3:0:0:0:
127,60,60753,1,10,3:0:0:0:
166,53,60868,1,2,3:0:0:0:
204,52,60984,1,4,3:0:0:0:
244,62,61099,1,4,3:0:0:0:
273,82,61214,6,0,P|270:132|271:181,1,98.9999969787599,6|2,3:2|0:0,0:0:0:0:
351,163,61561,2,0,P|335:211|323:259,1,98.9999969787599,2|2,0:0|0:0,0:0:0:0:
404,267,61907,2,0,P|377:308|352:351,1,98.9999969787599,2|0,0:0|3:0,0:0:0:0:
314,360,62253,1,2,0:0:0:0:
281,337,62368,1,2,0:0:0:0:
246,318,62483,1,0,0:0:0:0:
206,315,62599,1,10,0:0:0:0:
99,340,62830,1,2,0:0:0:0:
99,340,62945,1,2,0:0:0:0:
98,339,63061,6,0,P|111:292|128:245,1,98.9999969787599,0|2,3:0|0:0,0:0:0:0:
44,249,63407,2,0,P|69:206|97:165,1,98.9999969787599,2|2,0:0|0:0,0:0:0:0:
14,147,63753,2,0,P|49:112|87:80,1,98.9999969787599,2|0,0:0|3:0,0:0:0:0:
118,56,64099,1,2,0:0:0:0:
157,58,64214,1,2,0:0:0:0:
192,75,64329,1,0,0:0:0:0:
202,111,64444,2,0,P|198:136|196:161,2,49.4999984893799,10|0|2,0:0|0:0|0:0,0:0:0:0:
282,53,64791,1,2,0:0:0:0:
281,53,64906,6,0,P|330:43|378:31,1,98.9999969787599,0|2,3:0|0:0,0:0:0:0:
372,175,65253,1,2,0:0:0:0:
372,174,65368,2,0,P|368:198|366:223,2,49.4999984893799,10|2|2,0:0|0:0|0:0,0:0:0:0:
229,120,65714,1,2,0:0:0:0:
229,120,65830,2,0,P|180:110|132:98,1,98.9999969787599,0|2,3:0|0:0,0:0:0:0:
21,177,66176,1,2,0:0:0:0:
21,177,66291,2,0,P|27:200|32:225,2,49.4999984893799,10|2|2,0:0|0:0|0:0,0:0:0:0:
136,211,66638,1,2,0:0:0:0:
136,211,66753,6,0,P|121:258|110:306,1,98.9999969787599,0|2,3:0|0:0,0:0:0:0:
204,359,67099,1,0,0:0:0:0:
204,359,67214,2,0,P|228:361|253:365,3,49.4999984893799,10|2|2|2,0:0|0:0|0:3|0:3,0:0:0:0:
231,267,67676,6,0,P|234:242|239:218,1,49.4999984893799,6|0,0:0|0:0,0:0:0:0:
330,294,67907,2,0,P|326:269|321:245,1,49.4999984893799,4|0,3:0|3:0,0:0:0:0:
421,327,68138,5,8,0:0:0:0:
430,288,68253,1,2,0:0:0:0:
439,249,68368,1,2,0:3:0:0:
448,210,68484,1,2,0:3:0:0:
401,179,68599,5,0,3:0:0:0:
343,98,68830,1,2,0:0:0:0:
246,74,69061,1,8,0:0:0:0:
147,79,69291,1,2,0:0:0:0:
57,36,69522,1,0,3:0:0:0:
57,36,69753,1,2,0:0:0:0:
41,133,69984,1,8,0:0:0:0:
16,228,70214,1,2,0:0:0:0:
99,357,70445,5,0,3:0:0:0:
183,304,70676,1,2,0:0:0:0:
282,303,70907,1,8,0:0:0:0:
373,340,71138,1,2,0:0:0:0:
373,340,71599,5,2,0:0:0:0:
392,242,71830,1,8,0:0:0:0:
414,145,72061,1,8,0:0:0:0:
428,47,72291,6,0,P|380:38|330:35,1,98.9999969787599,6|2,3:2|0:0,0:0:0:0:
194,141,72753,1,8,0:0:0:0:
118,152,72984,2,0,P|112:102|108:53,1,98.9999969787599,2|0,0:0|3:0,0:0:0:0:
279,156,73445,2,0,P|275:205|269:254,1,98.9999969787599,4|8,3:0|3:2,0:0:0:0:
261,293,73791,1,4,3:0:0:0:
221,294,73907,1,8,0:3:0:0:
181,294,74022,1,8,0:3:0:0:
141,296,74138,5,0,3:0:0:0:
11,200,74368,1,8,0:0:0:0:
11,200,74484,1,8,0:0:0:0:
104,52,74714,1,8,3:2:0:0:
153,46,74830,1,8,0:0:0:0:
202,44,74945,1,8,0:0:0:0:
250,52,75061,1,8,3:2:0:0:
250,52,75984,6,0,P|367:36|459:27,1,153.999995300293,14|2,3:2|0:0,0:0:0:0:
485,22,76330,2,0,P|493:62|435:83,1,76.9999976501466,2|8,0:0|0:0,0:0:0:0:
329,213,76561,1,0,0:0:0:0:
399,175,76676,2,0,P|435:166|512:176,1,76.9999976501466,2|0,0:0|0:0,0:0:0:0:
352,380,76907,6,0,L|439:355,1,76.9999976501466,0|0,3:0|0:0,0:0:0:0:
394,281,77138,2,0,L|295:310,1,76.9999976501466,2|0,0:0|0:0,0:0:0:0:
273,159,77368,2,0,L|347:230,1,76.9999976501466,8|0,0:0|0:0,0:0:0:0:
235,332,77599,2,0,L|259:231,1,76.9999976501466,2|0,0:0|0:0,0:0:0:0:
200,125,77830,6,0,B|120:130|161:210|50:200,1,153.999995300293,0|2,3:0|0:0,0:0:0:0:
15,141,78176,2,0,L|29:42,1,76.9999976501466,2|8,0:0|0:0,0:0:0:0:
117,302,78407,2,0,P|64:275|0:356,1,153.999995300293,2|0,0:0|0:0,0:0:0:0:
73,377,78753,5,0,3:0:0:0:
235,332,78984,1,2,0:0:0:0:
345,200,79214,1,8,0:0:0:0:
321,19,79445,1,2,0:0:0:0:
313,13,79561,1,2,0:0:0:0:
307,8,79676,6,0,P|299:53|347:88,1,76.9999976501466,0|0,3:0|0:0,0:0:0:0:
390,103,79907,2,0,P|432:87|439:28,1,76.9999976501466,2|0,0:0|0:0,0:0:0:0:
213,34,80138,6,0,P|220:78|257:127,1,76.9999976501466,8|0,0:0|0:0,0:0:0:0:
462,179,80368,2,0,P|496:150|520:94,1,76.9999976501466,2|0,0:0|0:0,0:0:0:0:
270,174,80599,6,0,P|260:216|283:261,1,76.9999976501466,0|0,3:0|0:0,0:0:0:0:
348,251,80830,2,0,P|359:214|348:178,1,76.9999976501466,2|0,0:0|0:0,0:0:0:0:
235,105,81061,6,0,P|202:138|194:193,1,76.9999976501466,8|0,0:0|0:0,0:0:0:0:
385,326,81291,2,0,P|418:293|426:238,1,76.9999976501466,2|0,0:0|0:0,0:0:0:0:
192,246,81522,6,0,B|122:250|150:328|56:319,1,153.999995300293,0|2,3:0|0:0,0:0:0:0:
8,263,81868,2,0,B|23:224|23:224|81:253,1,76.9999976501466,2|8,0:0|0:0,0:0:0:0:
131,35,82099,2,0,P|72:85|88:184,1,153.999995300293,2|0,0:0|0:0,0:0:0:0:
143,186,82445,5,2,3:2:0:0:
270,174,82676,1,2,0:0:0:0:
395,118,82907,1,8,0:0:0:0:
491,10,83138,1,2,0:0:0:0:
484,6,83253,1,2,0:0:0:0:
478,1,83368,6,0,P|472:90|540:111,1,153.999995300293,14|2,3:2|0:0,0:0:0:0:
474,305,83714,2,0,P|480:216|412:195,1,153.999995300293,2|0,0:0|0:0,0:0:0:0:
374,247,84061,2,0,P|375:288|429:319,1,76.9999976501466,2|0,0:0|0:0,0:0:0:0:
431,192,84291,5,0,3:0:0:0:
251,274,84522,1,2,0:0:0:0:
94,253,84753,1,8,0:0:0:0:
22,119,84984,1,2,0:0:0:0:
30,106,85099,1,2,0:0:0:0:
42,98,85214,6,0,P|101:90|87:190,1,153.999995300293,0|2,3:0|0:0,0:0:0:0:
94,253,85561,2,0,P|50:241|-12:239,1,76.9999976501466,2|8,0:0|0:0,0:0:0:0:
191,384,85791,2,0,P|178:294|171:215,1,153.999995300293,2|0,0:0|0:0,0:0:0:0:
229,156,86138,5,0,3:0:0:0:
291,62,86368,1,2,0:0:0:0:
394,21,86599,1,8,0:0:0:0:
510,32,86830,1,2,0:0:0:0:
510,47,86945,1,2,0:0:0:0:
512,66,87061,6,0,B|496:103|496:103|524:200,1,76.9999976501466,0|0,3:0|0:0,0:0:0:0:
500,210,87291,2,0,B|516:173|516:173|488:76,1,76.9999976501466,2|0,0:0|0:0,0:0:0:0:
394,21,87522,6,0,B|378:58|378:58|406:155,1,76.9999976501466,8|0,0:0|0:0,0:0:0:0:
405,249,87752,2,0,B|421:212|421:212|393:115,1,76.9999976501466,2|0,0:0|0:0,0:0:0:0:
229,156,87984,6,0,P|246:199|296:228,1,76.9999976501466,0|0,3:0|0:0,0:0:0:0:
238,307,88214,2,0,P|283:313|333:284,1,76.9999976501466,2|0,0:0|0:0,0:0:0:0:
373,374,88445,2,0,P|401:337|401:279,1,76.9999976501466,8|0,0:0|0:0,0:0:0:0:
498,290,88676,2,0,P|481:246|430:218,1,76.9999976501466,2|0,0:0|0:0,0:0:0:0:
310,146,88907,5,2,3:2:0:0:
373,374,89138,1,2,0:0:0:0:
505,137,89368,1,8,0:0:0:0:
229,156,89599,1,8,0:3:0:0:
217,157,89714,1,0,3:0:0:0:
206,159,89830,6,0,B|167:150|167:150|129:170,1,76.9999976501466,8|0,3:2|3:0,0:0:0:0:
148,253,90061,2,0,B|187:262|187:262|225:242,1,76.9999976501466,8|0,0:0|3:0,0:0:0:0:
264,76,90291,1,8,0:0:0:0:
71,223,90522,1,8,0:0:0:0:
65,261,90638,1,0,3:0:0:0:
56,298,90753,6,0,P|133:296|200:332,1,153.999995300293,14|2,3:2|0:0,0:0:0:0:
341,350,91098,2,0,P|331:314|295:309,1,76.9999976501466,2|8,0:0|0:0,0:0:0:0:
440,359,91329,1,0,0:0:0:0:
440,359,91445,2,0,P|440:321|432:284,1,76.9999976501466,2|0,0:0|0:0,0:0:0:0:
371,216,91675,1,0,3:0:0:0:
264,185,91907,1,2,0:0:0:0:
132,178,92138,1,8,0:0:0:0:
0,96,92368,1,2,0:0:0:0:
60,13,92599,6,0,P|130:44|206:37,1,153.999995300293,0|2,3:0|0:0,0:0:0:0:
318,10,92945,1,2,0:0:0:0:
382,58,93061,2,0,P|397:93|398:131,1,76.9999976501466,8|2,0:0|0:0,0:0:0:0:
275,165,93291,2,0,P|276:126|291:91,1,76.9999976501466
364,233,93522,1,0,3:0:0:0:
278,286,93753,1,2,0:0:0:0:
188,224,93984,1,8,0:0:0:0:
94,355,94214,1,2,0:0:0:0:
94,355,94330,1,2,0:0:0:0:
94,355,94445,6,0,P|88:316|83:278,1,76.9999976501466,0|0,3:0|0:0,0:0:0:0:
177,300,94676,2,0,P|182:261|187:223,1,76.9999976501466,2|0,0:0|0:0,0:0:0:0:
70,194,94907,6,0,P|64:155|59:117,1,76.9999976501466,8|0,0:0|0:0,0:0:0:0:
153,139,95138,2,0,P|158:100|163:62,1,76.9999976501466,2|0,0:0|0:0,0:0:0:0:
0,34,95368,6,0,P|37:26|75:21,1,76.9999976501466,0|0,3:0|0:0,0:0:0:0:
163,62,95599,2,0,P|200:69|238:74,1,76.9999976501466,2|0,0:0|0:0,0:0:0:0:
388,12,95830,6,0,P|425:4|463:0,1,76.9999976501466,8|0,0:0|0:0,0:0:0:0:
492,136,96061,2,0,P|454:143|416:148,1,76.9999976501466,2|0,0:0|0:0,0:0:0:0:
237,74,96291,6,0,P|200:138|217:211,1,153.999995300293,0|2,3:0|0:0,0:0:0:0:
273,329,96637,1,2,0:0:0:0:
273,329,96752,2,0,P|238:313|200:318,1,76.9999976501466,8|2,0:0|0:0,0:0:0:0:
149,337,96983,1,0,0:0:0:0:
101,312,97099,1,2,0:0:0:0:
69,268,97214,2,0,P|64:191|60:114,1,153.999995300293,2|0,3:2|0:0,0:0:0:0:
60,114,97676,6,0,P|95:112|140:106,1,76.9999976501466,8|0,0:0|0:0,0:0:0:0:
230,215,97907,2,0,P|195:212|150:206,1,76.9999976501466,2|0,0:0|0:0,0:0:0:0:
4,375,98138,6,0,P|71:339|148:336,1,153.999995300293,14|2,3:2|0:0,0:0:0:0:
264,349,98483,1,2,0:0:0:0:
264,349,98598,2,0,P|298:364|335:356,1,76.9999976501466,8|0,0:0|0:0,0:0:0:0:
443,272,98830,2,0,P|465:302|477:339,1,76.9999976501466,2|0,0:0|0:0,0:0:0:0:
357,269,99061,1,0,3:0:0:0:
240,245,99291,1,2,0:0:0:0:
194,85,99522,1,8,0:0:0:0:
382,15,99753,1,2,0:0:0:0:
469,77,99984,6,0,P|482:112|476:150,1,76.9999976501466,0|0,3:0|0:0,0:0:0:0:
340,191,100214,2,0,P|333:153|347:118,1,76.9999976501466,2|0,0:0|0:0,0:0:0:0:
494,234,100445,6,0,P|497:271|481:306,1,76.9999976501466,8|0,0:0|0:0,0:0:0:0:
252,132,100676,2,0,P|255:94|277:62,1,76.9999976501466,2|0,0:0|0:0,0:0:0:0:
340,191,100907,5,0,3:0:0:0:
300,284,101138,1,2,0:0:0:0:
203,228,101368,1,8,0:0:0:0:
160,326,101599,1,2,0:0:0:0:
53,350,101830,6,0,P|52:312|46:274,1,76.9999976501466,4|2,0:3|0:3,0:0:0:0:
5,201,102061,2,0,P|6:162|12:124,1,76.9999976501466,2|2,0:3|0:3,0:0:0:0:
66,36,102291,5,8,0:0:0:0:
102,48,102407,1,2,0:3:0:0:
140,48,102522,1,2,0:3:0:0:
178,44,102638,1,6,3:0:0:0:
182,47,102984,5,4,3:0:0:0:
182,47,103214,5,2,0:0:0:0:
243,38,103330,1,2,0:0:0:0:
304,43,103445,1,2,0:0:0:0:
361,66,103561,1,2,0:0:0:0:
392,113,103676,5,6,3:2:0:0:
392,113,103791,2,0,L|381:205,1,60.5000018463135,2|0,0:0|0:0,0:0:0:0:
425,250,104022,2,0,P|490:244|495:176,1,121.000003692627,2|0,0:0|0:0,0:0:0:0:
466,129,104368,1,2,0:0:0:0:
336,252,104599,6,0,L|350:356,1,90.7500027694703,2|0,3:2|0:0,0:0:0:0:
341,351,104830,2,0,P|309:360|268:335,1,60.5000018463135,2|0,0:0|0:0,0:0:0:0:
209,292,105061,1,10,0:0:0:0:
177,272,105176,1,2,0:0:0:0:
136,264,105291,1,2,0:0:0:0:
96,272,105407,1,2,0:0:0:0:
65,297,105522,5,2,3:2:0:0:
65,297,105638,2,0,L|-7:289,1,60.5000018463135,2|0,0:0|0:0,0:0:0:0:
0,202,105868,2,0,P|30:145|100:164,1,121.000003692627,2|0,0:0|0:0,0:0:0:0:
146,193,106214,1,2,0:0:0:0:
302,126,106445,6,0,L|292:16,1,90.7500027694703,2|0,3:2|0:0,0:0:0:0:
315,24,106676,2,0,L|401:38,1,60.5000018463135,2|0,0:0|0:0,0:0:0:0:
449,114,106907,2,0,L|363:128,1,60.5000018463135,10|0,0:0|0:0,0:0:0:0:
337,211,107138,2,0,L|423:225,1,60.5000018463135,2|0,0:0|0:0,0:0:0:0:
497,305,107368,5,2,3:2:0:0:
497,299,107484,2,0,B|447:289|447:289|417:312|422:365,1,121.000003692627,2|2,0:0|0:0,0:0:0:0:
347,382,107830,2,0,P|335:347|330:297,1,60.5000018463135,10|0,0:0|0:0,0:0:0:0:
337,211,108061,1,2,0:0:0:0:
191,324,108291,6,0,P|129:316|82:312,1,90.7500027694703,2|0,3:2|0:0,0:0:0:0:
86,297,108522,2,0,P|75:257|96:216,1,60.5000018463135,2|0,0:0|0:0,0:0:0:0:
192,167,108753,2,0,P|162:196|116:198,1,60.5000018463135,10|0,0:0|0:0,0:0:0:0:
26,140,108984,2,0,P|66:150|91:189,1,60.5000018463135,2|0,0:0|0:0,0:0:0:0:
148,50,109214,6,0,L|294:35,1,121.000003692627,2|2,3:2|0:0,0:0:0:0:
344,61,109561,1,2,0:0:0:0:
297,193,109791,1,2,0:0:0:0:
297,193,109907,2,0,P|357:225|398:205,1,90.7500027694703,2|0,0:0|0:0,0:0:0:0:
400,221,110138,2,0,L|392:133,1,60.5000018463135,2|0,3:2|0:0,0:0:0:0:
473,304,110368,2,0,L|467:364,1,60.5000018463135,2|0,0:0|0:0,0:0:0:0:
365,321,110599,5,10,0:0:0:0:
335,327,110714,1,2,0:0:0:0:
305,333,110829,1,2,0:0:0:0:
276,340,110945,1,2,0:0:0:0:
246,346,111060,5,6,3:2:0:0:
246,346,111176,2,0,L|256:248,1,60.5000018463135,2|0,0:0|0:0,0:0:0:0:
205,222,111407,2,0,P|138:249|149:318,1,121.000003692627,2|0,0:0|0:0,0:0:0:0:
169,363,111753,1,2,0:0:0:0:
287,208,111984,2,0,L|278:106,1,90.7500027694703,2|0,3:2|0:0,0:0:0:0:
258,107,112214,2,0,P|214:125|181:114,1,60.5000018463135,2|0,0:0|0:0,0:0:0:0:
57,39,112445,5,10,0:0:0:0:
54,69,112560,1,2,0:0:0:0:
51,99,112675,1,2,0:0:0:0:
64,127,112791,1,2,0:0:0:0:
81,151,112906,5,2,3:2:0:0:
81,151,113022,2,0,L|69:224,1,60.5000018463135,2|0,0:0|0:0,0:0:0:0:
94,289,113253,2,0,P|176:294|180:257,1,121.000003692627,2|0,0:0|0:0,0:0:0:0:
151,198,113599,1,2,0:0:0:0:
260,376,113830,6,0,P|285:340|343:334,1,90.7500027694703,2|0,3:2|0:0,0:0:0:0:
348,316,114061,2,0,P|385:337|400:361,1,60.5000018463135,2|0,0:0|0:0,0:0:0:0:
499,231,114291,5,10,0:0:0:0:
470,245,114407,1,2,0:0:0:0:
438,250,114522,1,2,0:0:0:0:
400,238,114638,1,2,0:0:0:0:
376,215,114753,5,2,3:2:0:0:
376,215,114868,2,0,L|392:141,1,60.5000018463135,2|0,0:0|0:0,0:0:0:0:
344,77,115099,2,0,P|423:63|484:50,1,121.000003692627,2|0,0:0|0:0,0:0:0:0:
497,133,115445,1,2,0:0:0:0:
191,0,115676,6,0,L|186:79,1,60.5000018463135,2|0,3:2|0:0,0:0:0:0:
250,199,115907,2,0,L|246:138,1,60.5000018463135,2|0,0:0|0:0,0:0:0:0:
165,141,116138,1,10,0:0:0:0:
271,52,116368,1,2,0:0:0:0:
372,261,116599,5,6,3:2:0:0:
382,277,116714,1,2,0:0:0:0:
367,287,116830,1,2,0:0:0:0:
357,271,116945,1,2,0:0:0:0:
382,256,117061,5,10,0:0:0:0:
423,293,117176,1,2,0:0:0:0:
414,353,117291,1,2,0:0:0:0:
362,377,117407,1,2,0:0:0:0:
306,362,117522,6,0,P|283:328|277:285,1,60.5000018463135,2|2,3:2|0:0,0:0:0:0:
221,206,117753,2,0,P|211:234|192:258,1,60.5000018463135,2|2,0:0|0:0,0:0:0:0:
90,372,117984,6,0,B|42:285|125:292|71:185,1,181.500005538941,10|0,0:0|0:0,0:0:0:0:
130,62,118445,6,0,P|97:110|39:114,1,121.000003692627,6|0,3:2|0:0,0:0:0:0:
279,21,118907,2,0,P|282:51|291:80,1,60.5000018463135,8|0,0:0|0:0,0:0:0:0:
355,39,119138,2,0,P|414:27|472:42,1,121.000003692627,2|2,0:0|3:2,0:0:0:0:
502,230,119599,1,2,0:0:0:0:
502,230,119714,1,2,0:0:0:0:
502,230,119830,1,8,0:0:0:0:
410,110,120061,6,0,P|403:170|405:230,1,121.000003692627,2|0,0:0|3:0,0:0:0:0:
289,82,120522,1,2,0:0:0:0:
289,82,120638,1,2,0:0:0:0:
289,82,120753,1,8,0:0:0:0:
222,353,120984,6,0,P|220:323|213:294,1,60.5000018463135,2|0,0:0|0:0,0:0:0:0:
116,339,121214,2,0,P|129:312|137:283,1,60.5000018463135,2|0,3:2|0:0,0:0:0:0:
296,269,121445,2,0,P|282:242|274:213,1,60.5000018463135,2|0,0:0|0:0,0:0:0:0:
381,203,121675,2,0,P|355:186|334:165,1,60.5000018463135,8|0,0:0|0:0,0:0:0:0:
174,114,121907,5,2,0:0:0:0:
174,114,122022,1,2,0:0:0:0:
174,113,122137,2,0,P|155:137|141:164,1,60.5000018463135,2|0,3:2|0:0,0:0:0:0:
150,38,122368,5,2,0:0:0:0:
150,38,122483,1,2,0:0:0:0:
150,37,122598,2,0,P|122:48|96:64,1,60.5000018463135,8|0,0:0|0:0,0:0:0:0:
258,32,122830,6,0,L|265:91,1,60.5000018463135,2|0,0:0|0:0,0:0:0:0:
347,191,123061,2,0,B|370:132|370:132|347:79,2,121.000003692627,2|2|8,3:2|0:0|0:0,0:0:0:0:
466,233,123638,1,2,0:0:0:0:
464,232,123753,2,0,P|409:244|398:300,1,121.000003692627,2|0,0:0|3:0,0:0:0:0:
226,228,124214,2,0,P|281:240|292:296,1,121.000003692627,2|8,0:0|0:0,0:0:0:0:
26,366,124676,1,2,0:0:0:0:
59,326,124791,1,2,0:0:0:0:
51,285,124907,6,0,P|54:255|60:226,1,60.5000018463135,2|2,3:2|0:0,0:0:0:0:
136,215,125138,2,0,P|132:184|126:155,1,60.5000018463135,2|2,0:0|0:0,0:0:0:0:
107,16,125368,6,0,P|103:46|97:75,1,60.5000018463135,10|2,0:0|0:0,0:0:0:0:
22,87,125599,2,0,P|25:117|31:146,1,60.5000018463135,2|2,0:0|0:0,0:0:0:0:
135,296,125830,6,0,P|199:305|274:313,1,121.000003692627,2|2,3:2|0:0,0:0:0:0:
330,363,126176,1,2,0:0:0:0:
330,362,126291,2,0,P|361:313|419:304,1,121.000003692627,10|2,0:0|0:0,0:0:0:0:
269,109,126753,2,0,P|279:170|290:228,1,121.000003692627,2|2,3:2|0:0,0:0:0:0:
321,226,127099,1,2,0:0:0:0:
321,226,127214,1,10,0:0:0:0:
478,139,127445,1,2,0:0:0:0:
374,40,127676,6,0,P|313:34|253:31,1,121.000003692627,2|2,3:2|0:0,0:0:0:0:
208,50,128022,1,2,0:0:0:0:
159,57,128138,1,10,0:0:0:0:
112,42,128253,2,0,P|121:101|123:162,1,121.000003692627,2|2,0:0|0:0,0:0:0:0:
74,167,128599,1,2,3:2:0:0:
378,333,128945,5,2,0:0:0:0:
378,333,129061,2,0,P|407:327|437:321,1,60.5000018463135,10|2,0:0|0:0,0:0:0:0:
318,270,129291,2,0,P|288:264|258:258,1,60.5000018463135,2|2,0:0|0:0,0:0:0:0:
410,124,129522,6,0,P|397:186|395:244,1,121.000003692627,2|2,3:2|0:0,0:0:0:0:
443,249,129868,1,2,0:0:0:0:
443,249,129984,1,10,0:0:0:0:
292,355,130214,2,0,P|235:339|174:342,1,121.000003692627,2|2,0:0|3:2,0:0:0:0:
28,176,130791,1,2,0:0:0:0:
23,160,130907,1,10,0:0:0:0:
86,85,131138,1,2,0:0:0:0:
180,122,131368,6,0,P|237:130|273:84,1,121.000003692627,0|2,3:0|0:0,0:0:0:0:
498,25,131830,2,0,P|448:55|447:113,1,121.000003692627,8|2,0:0|3:0,0:0:0:0:
466,137,132176,1,2,3:0:0:0:
480,163,132291,1,2,3:2:0:0:
487,192,132407,1,2,0:3:0:0:
484,222,132522,1,2,0:3:0:0:
473,250,132638,1,2,0:3:0:0:
458,276,132753,6,0,P|399:276|361:321,1,121.000003692627,8|2,0:0|0:0,0:0:0:0:
342,365,133099,1,2,0:0:0:0:
292,337,133214,1,6,3:2:0:0:
158,256,133445,5,2,0:0:0:0:
169,284,133560,1,2,0:0:0:0:
180,312,133675,1,10,0:0:0:0:
333,161,133907,1,2,0:0:0:0:
322,189,134022,1,2,0:0:0:0:
311,217,134137,1,2,3:2:0:0:
83,100,134368,1,2,0:0:0:0:
94,128,134483,1,2,0:0:0:0:
105,156,134598,1,10,0:0:0:0:
300,27,134830,1,2,0:0:0:0:
290,55,134945,1,2,0:0:0:0:
279,83,135061,2,0,B|330:119|330:119|396:78,1,121.000003692627,2|2,3:2|0:0,0:0:0:0:
450,63,135407,2,0,P|445:40|405:21,1,60.5000018463135,2|8,0:0|0:0,0:0:0:0:
445,143,135638,1,2,0:0:0:0:
445,143,135753,2,0,P|493:151|530:165,1,60.5000018463135,2|2,0:0|0:0,0:0:0:0:
462,232,135984,1,2,3:2:0:0:
492,384,136214,5,10,0:0:0:0:
373,196,136445,2,0,P|354:262|354:337,1,121.000003692627,10|2,0:0|0:0,0:0:0:0:
365,351,136791,1,0,0:0:0:0:
393,376,136907,1,2,3:2:0:0:
191,281,137138,5,2,0:0:0:0:
169,313,137253,1,2,0:0:0:0:
141,334,137368,1,10,0:0:0:0:
279,203,137599,1,2,0:0:0:0:
301,235,137714,1,2,0:0:0:0:
329,256,137829,1,2,3:2:0:0:
147,96,138061,1,2,0:0:0:0:
125,128,138176,1,2,0:0:0:0:
97,149,138291,1,10,0:0:0:0:
289,14,138522,1,2,0:0:0:0:
311,46,138637,1,2,0:0:0:0:
339,67,138753,2,0,B|398:74|398:74|438:4,1,121.000003692627,2|2,3:2|0:0,0:0:0:0:
497,55,139099,2,0,L|463:121,1,60.5000018463135,2|8,0:0|0:0,0:0:0:0:
507,188,139330,1,2,0:0:0:0:
507,188,139445,2,0,L|428:211,1,60.5000018463135,2|0,0:0|0:0,0:0:0:0:
402,270,139676,1,2,3:2:0:0:
259,111,139907,5,10,0:0:0:0:
507,188,140138,2,0,P|505:260|471:350,1,121.000003692627,10|2,0:0|0:0,0:0:0:0:
470,335,140484,1,2,0:0:0:0:
438,358,140599,1,6,3:2:0:0:
342,344,140830,1,2,0:0:0:0:
275,272,141061,2,0,P|237:213|226:116,1,121.000003692627,10|2,0:0|0:0,0:0:0:0:
220,119,141407,1,2,0:0:0:0:
197,72,141522,1,2,3:2:0:0:
96,27,141753,1,2,0:0:0:0:
11,93,141984,2,0,P|5:179|59:234,1,121.000003692627,10|2,0:0|0:0,0:0:0:0:
52,231,142330,1,2,0:0:0:0:
97,242,142445,5,2,3:2:0:0:
181,210,142676,1,2,0:0:0:0:
220,119,142907,1,10,0:0:0:0:
278,28,143138,1,2,0:0:0:0:
383,0,143368,1,2,3:2:0:0:
484,39,143599,1,2,0:0:0:0:
508,145,143830,1,8,0:0:0:0:
484,247,144061,1,2,0:0:0:0:
403,308,144291,5,4,3:2:0:0:
394,290,144407,1,2,0:3:0:0:
390,271,144522,1,2,0:3:0:0:
402,246,144638,1,2,0:3:0:0:
424,233,144753,2,0,L|505:251,1,60.5000018463135,8|2,0:0|0:3,0:0:0:0:
345,368,144984,2,0,L|264:386,1,60.5000018463135,2|2,0:3|0:3,0:0:0:0:
332,159,145214,1,4,3:0:0:0:
335,142,145676,1,2,3:2:0:0:
256,192,159061,12,2,160676,0:0:0:0:
198,93,160907,6,0,P|143:110|139:167,1,121.000003692627,6|2,3:2|0:0,0:0:0:0:
219,173,161253,1,2,0:0:0:0:
219,173,161368,2,0,P|214:233|213:293,1,121.000003692627,8|2,0:0|0:0,0:0:0:0:
137,309,161714,1,2,0:0:0:0:
136,309,161830,2,0,P|76:313|12:323,1,121.000003692627,0|2,3:0|0:0,0:0:0:0:
13,244,162176,1,2,0:0:0:0:
13,243,162291,2,0,P|55:203|52:144,1,121.000003692627,8|2,0:0|0:0,0:0:0:0:
222,24,162753,6,0,P|164:24|133:73,1,121.000003692627,0|2,3:0|0:0,0:0:0:0:
349,47,163214,1,8,0:0:0:0:
251,109,163445,1,2,0:0:0:0:
460,189,163676,1,0,3:0:0:0:
444,77,163907,1,2,0:0:0:0:
440,61,164022,1,2,0:0:0:0:
340,190,164253,1,2,0:0:0:0:
468,351,164484,6,0,P|459:294|403:285,1,121.000003692627,2|0,0:0|0:0,0:0:0:0:
388,311,164830,1,2,0:0:0:0:
360,324,164945,1,2,0:0:0:0:
329,319,165061,2,0,P|328:288|330:258,2,60.5000018463135,8|2|0,0:0|0:0|0:0,0:0:0:0:
255,255,165407,2,0,P|196:254|151:215,1,121.000003692627,2|0,0:0|0:0,0:0:0:0:
149,185,165753,1,2,0:0:0:0:
2,372,165984,6,0,P|28:358|57:350,1,60.5000018463135,8|0,0:0|0:0,0:0:0:0:
199,336,166214,2,0,P|172:321|143:313,1,60.5000018463135,2|0,0:0|0:0,0:0:0:0:
51,148,166445,6,0,P|67:206|72:266,1,121.000003692627,0|2,3:0|0:0,0:0:0:0:
143,312,166791,2,0,P|197:293|242:329,1,121.000003692627,2|2,0:0|0:0,0:0:0:0:
300,380,167138,2,0,P|331:381|359:372,1,60.5000018463135,0|2,0:0|0:0,0:0:0:0:
436,315,167368,5,0,3:0:0:0:
386,236,167599,1,2,0:0:0:0:
399,161,167830,1,8,0:0:0:0:
435,135,168061,1,2,0:0:0:0:
435,134,168291,6,0,P|462:82|442:27,1,121.000003692627,6|2,3:2|0:0,0:0:0:0:
411,28,168638,1,2,0:0:0:0:
411,28,168753,1,8,0:0:0:0:
283,188,168984,1,2,0:0:0:0:
283,188,169099,1,2,0:0:0:0:
282,187,169214,2,0,P|222:185|162:178,1,121.000003692627,0|2,3:0|0:0,0:0:0:0:
107,81,169561,2,0,P|167:82|227:89,1,121.000003692627,2|2,0:0|0:0,0:0:0:0:
83,384,170138,6,0,P|74:326|20:307,1,121.000003692627,0|2,3:0|0:0,0:0:0:0:
32,23,170599,2,0,P|26:51|20:82,1,60.5000018463135,8|0,0:0|0:0,0:0:0:0:
107,81,170830,2,0,P|108:109|111:141,1,60.5000018463135,2|0,0:0|0:0,0:0:0:0:
210,278,171061,6,0,P|204:250|198:218,1,60.5000018463135,0|0,3:0|0:0,0:0:0:0:
285,220,171292,2,0,P|286:191|289:159,1,60.5000018463135,2|0,0:0|0:0,0:0:0:0:
392,25,171522,6,0,P|386:53|380:84,1,60.5000018463135,8|0,0:0|0:0,0:0:0:0:
467,83,171753,2,0,P|468:111|471:143,1,60.5000018463135,2|0,0:0|0:0,0:0:0:0:
495,267,171984,5,0,3:0:0:0:
406,201,172214,1,2,0:0:0:0:
371,371,172445,1,8,0:0:0:0:
285,293,172676,1,2,0:0:0:0:
91,366,172907,1,0,3:0:0:0:
162,276,173138,1,2,0:0:0:0:
162,276,173253,1,0,0:0:0:0:
162,276,173368,1,8,0:0:0:0:
71,203,173599,6,0,P|64:142|53:83,1,121.000003692627,2|0,0:0|3:0,0:0:0:0:
317,39,174061,2,0,P|285:44|256:52,1,60.5000018463135,2|2,0:0|0:0,0:0:0:0:
229,60,174291,5,10,0:0:0:0:
206,80,174407,1,2,0:0:0:0:
204,97,174522,1,2,0:0:0:0:
218,107,174638,1,2,0:0:0:0:
211,77,174753,5,2,3:0:0:0:
181,73,174868,1,2,0:0:0:0:
163,78,174984,1,2,0:0:0:0:
157,95,175099,1,2,0:0:0:0:
155,125,175214,5,10,0:0:0:0:
156,161,175330,1,2,0:0:0:0:
161,202,175445,1,2,0:0:0:0:
171,249,175561,1,2,0:0:0:0:
182,302,175676,6,0,B|245:338|306:273,1,98.9999969787599,6|2,0:0|0:0,0:0:0:0:
320,377,176022,2,0,B|382:340|355:251,1,98.9999969787599,2|2,0:0|0:0,0:0:0:0:
450,295,176368,2,0,B|449:222|373:206,1,98.9999969787599,2|0,0:0|3:0,0:0:0:0:
365,195,176714,1,2,0:0:0:0:
365,195,176830,1,2,0:0:0:0:
411,68,177061,1,10,0:0:0:0:
265,7,177291,1,2,0:0:0:0:
265,7,177407,1,2,0:0:0:0:
265,7,177522,6,0,P|229:53|249:121,1,98.9999969787599,0|2,3:0|0:0,0:0:0:0:
153,95,177868,2,0,P|174:149|244:167,1,98.9999969787599,2|2,0:0|0:0,0:0:0:0:
174,243,178214,2,0,P|231:251|281:206,1,98.9999969787599,2|0,0:0|3:0,0:0:0:0:
288,210,178561,1,2,0:0:0:0:
288,210,178676,1,2,0:0:0:0:
264,367,178907,1,10,0:0:0:0:
115,312,179138,1,2,0:0:0:0:
115,312,179253,1,2,0:0:0:0:
115,312,179368,6,0,P|45:300|-3:292,1,98.9999969787599,0|2,3:0|0:0,0:0:0:0:
30,218,179714,1,2,0:0:0:0:
30,218,179830,2,0,L|20:159,2,49.4999984893799,10|2|2,0:0|0:0|0:0,0:0:0:0:
111,224,180176,1,2,0:0:0:0:
111,224,180291,6,0,P|97:147|87:80,1,98.9999969787599,0|2,3:0|0:0,0:0:0:0:
166,62,180638,1,2,0:0:0:0:
166,62,180753,2,0,L|156:6,2,49.4999984893799,10|2|2,0:0|0:0|0:0,0:0:0:0:
243,158,181099,1,2,0:0:0:0:
243,158,181214,2,0,P|250:247|256:298,1,98.9999969787599,0|2,3:0|0:0,0:0:0:0:
230,336,181561,1,0,0:0:0:0:
254,341,181676,1,10,0:0:0:0:
476,221,181907,5,2,0:0:0:0:
472,198,182022,1,2,0:0:0:0:
470,178,182138,2,0,P|424:189|410:222,1,49.4999984893799,6|0,3:2|0:0,0:0:0:0:
362,129,182368,2,0,P|343:176|349:207,1,49.4999984893799,4|4,0:3|0:3,0:0:0:0:
419,374,182599,6,0,P|432:328|412:298,1,49.4999984893799,8|0,0:0|0:0,0:0:0:0:
509,297,182829,2,0,P|477:257|447:247,1,49.4999984893799,2|0,0:0|0:0,0:0:0:0:
289,239,183061,6,0,L|140:223,1,121.000003692627,4|2,0:0|0:0,0:0:0:0:
261,308,183407,2,0,L|112:292,1,121.000003692627,2|2,0:0|0:0,0:0:0:0:
224,377,183753,2,0,L|75:361,1,121.000003692627,2|2,0:0|3:2,0:0:0:0:
75,342,184099,1,2,0:0:0:0:
53,317,184214,1,2,0:0:0:0:
133,170,184445,1,10,0:0:0:0:
30,25,184676,1,2,0:0:0:0:
30,25,184791,1,2,0:0:0:0:
30,25,184907,6,0,L|183:-3,1,121.000003692627,0|2,3:0|0:0,0:0:0:0:
83,97,185253,2,0,L|236:69,1,121.000003692627,2|2,0:0|0:0,0:0:0:0:
133,170,185599,2,0,L|286:142,1,121.000003692627,2|0,0:0|3:0,0:0:0:0:
354,47,186061,1,2,0:0:0:0:
478,159,186291,2,0,B|501:218|501:218|460:273,1,121.000003692627,10|2,0:0|0:3,0:0:0:0:
438,335,186638,1,2,0:3:0:0:
438,335,186753,6,0,B|329:295|388:410|243:349,1,181.500005538941,6|2,3:2|0:0,0:0:0:0:
193,320,187214,2,0,B|202:255|202:255|288:278,1,121.000003692627,8|2,0:0|0:0,0:0:0:0:
325,247,187561,1,2,0:0:0:0:
356,239,187676,1,0,3:0:0:0:
133,170,187907,1,2,0:0:0:0:
224,30,188138,1,8,0:0:0:0:
225,42,188253,1,2,0:0:0:0:
226,54,188368,1,2,3:2:0:0:
227,66,188484,1,0,3:0:0:0:
228,80,188599,5,6,3:2:0:0:
257,109,188714,1,2,0:0:0:0:
298,120,188829,1,2,0:0:0:0:
338,109,188945,1,2,0:0:0:0:
367,79,189061,1,10,0:0:0:0:
425,66,189176,1,2,0:0:0:0:
478,94,189291,1,2,0:0:0:0:
499,149,189407,1,2,0:0:0:0:
476,209,189522,6,0,P|429:205|400:158,1,60.5000018463135,2|2,3:2|0:0,0:0:0:0:
367,79,189753,2,0,P|366:49|389:-1,1,60.5000018463135,2|2,0:0|0:0,0:0:0:0:
319,188,189984,6,0,P|320:232|346:270,1,60.5000018463135,10|2,0:0|0:0,0:0:0:0:
415,342,190214,2,0,P|462:367|507:367,1,60.5000018463135,2|2,0:0|0:0,0:0:0:0:
23,166,199676,5,0,3:0:0:0:
156,50,200022,2,0,P|221:61|287:66,1,132,2|2,0:0|0:0,0:0:0:0:
396,47,200599,1,0,3:0:0:0:
358,126,200830,1,2,0:0:0:0:
391,207,201061,1,0,3:0:0:0:
330,270,201291,2,0,P|344:311|354:354,1,88,2|0,0:0|3:0,0:0:0:0:
236,209,201753,1,2,0:0:0:0:
236,209,201868,2,0,P|250:167|260:124,1,88,2|2,0:0|0:0,0:0:0:0:
92,303,202445,1,0,3:0:0:0:
96,331,202907,5,0,3:0:0:0:
49,277,203138,1,2,0:0:0:0:
47,206,203368,1,0,3:0:0:0:
187,237,203599,5,2,0:0:0:0:
165,151,203830,1,0,3:0:0:0:
179,64,204061,1,2,0:0:0:0:
354,236,204291,5,0,3:0:0:0:
300,144,204522,1,2,0:0:0:0:
315,39,204753,1,0,3:0:0:0:
493,225,204984,5,2,0:0:0:0:
454,44,205214,5,2,0:3:0:0:
44,47,205907,1,2,0:0:0:0:
454,44,206598,1,2,0:0:0:0:
166,120,207061,6,0,P|144:119|122:113,2,44,6|2|2,3:2|0:0|0:0,0:0:0:0:
260,165,207407,2,0,P|281:163|303:157,2,44,10|2|2,3:2|0:0|0:0,0:0:0:0:
151,226,207753,2,0,P|129:227|107:222,1,44,10|2,3:2|3:2,0:0:0:0:
251,280,207984,5,8,0:0:0:0:
303,272,208099,1,2,3:2:0:0:
351,275,208214,1,10,0:0:0:0:
381,307,208330,1,2,3:2:0:0:
422,282,208445,5,8,3:2:0:0:
420,238,208561,1,2,3:2:0:0:
420,190,208676,1,10,3:2:0:0:
417,141,208791,1,2,3:2:0:0:
368,112,208907,6,0,B|301:62|301:62|222:103,1,165.000006294251,14|0,3:2|0:0,0:0:0:0:
226,194,209253,2,0,P|275:178|299:121,1,82.5000031471254,2|8,0:0|0:0,0:0:0:0:
213,19,209484,1,0,0:0:0:0:
213,19,209599,2,0,P|164:35|140:92,1,82.5000031471254,2|0,0:0|0:0,0:0:0:0:
129,161,209830,5,0,3:0:0:0:
223,321,210061,1,2,0:0:0:0:
428,289,210291,1,8,0:0:0:0:
485,123,210522,1,2,0:0:0:0:
485,123,210638,1,2,0:0:0:0:
485,123,210753,6,0,P|438:124|413:251,1,165.000006294251,0|2,3:0|0:0,0:0:0:0:
504,335,211099,2,0,P|514:293|479:228,1,82.5000031471254,2|8,0:0|0:0,0:0:0:0:
391,219,211330,1,2,0:0:0:0:
391,219,211445,2,0,L|293:240,1,82.5000031471254,2|0,0:0|0:0,0:0:0:0:
223,321,211676,5,0,3:0:0:0:
30,267,211907,1,2,0:0:0:0:
5,72,212138,1,8,0:0:0:0:
170,2,212368,1,2,0:0:0:0:
170,2,212484,1,2,0:0:0:0:
170,2,212599,6,0,L|176:112,1,82.5000031471254,0|0,3:0|0:0,0:0:0:0:
324,197,212830,2,0,L|328:114,1,82.5000031471254,2|0,0:0|0:0,0:0:0:0:
86,75,213061,6,0,L|80:185,1,82.5000031471254,8|0,0:0|0:0,0:0:0:0:
252,82,213291,2,0,L|247:0,1,82.5000031471254,2|0,0:0|0:0,0:0:0:0:
30,268,213522,6,0,P|92:236|172:277,1,165.000006294251,0|2,3:0|0:0,0:0:0:0:
162,363,213868,1,2,0:0:0:0:
162,363,213984,2,0,P|105:332|93:287,1,82.5000031471254,8|0,0:0|0:0,0:0:0:0:
254,242,214214,2,0,P|256:306|222:339,1,82.5000031471254,2|0,0:0|0:0,0:0:0:0:
160,176,214445,6,0,P|303:194|369:202,1,165.000006294251,0|2,3:0|0:0,0:0:0:0:
412,148,214791,2,0,P|358:102|319:110,1,82.5000031471254,2|8,0:0|0:0,0:0:0:0:
406,250,215022,2,0,P|501:213|491:93,1,165.000006294251,2|0,0:0|0:0,0:0:0:0:
468,53,215368,5,2,3:2:0:0:
268,5,215599,1,2,0:0:0:0:
160,176,215830,1,8,0:0:0:0:
307,363,216061,1,2,0:0:0:0:
307,363,216176,1,2,0:0:0:0:
307,363,216291,6,0,B|356:295|356:295|304:222,1,165.000006294251,14|0,3:2|0:0,0:0:0:0:
216,228,216638,2,0,B|168:294|168:294|217:362,1,165.000006294251,2|0,0:0|0:0,0:0:0:0:
264,158,216984,2,0,L|265:64,1,82.5000031471254,2|0,0:0|0:0,0:0:0:0:
196,30,217214,5,0,3:0:0:0:
26,112,217445,1,2,0:0:0:0:
140,136,217676,1,8,0:0:0:0:
264,158,217907,1,2,0:0:0:0:
509,43,218138,6,0,P|423:35|402:136,1,165.000006294251,0|2,3:0|0:0,0:0:0:0:
424,173,218484,2,0,P|467:136|467:89,1,82.5000031471254,2|8,0:0|0:0,0:0:0:0:
304,4,218714,1,2,0:0:0:0:
304,4,218830,2,0,L|320:132,1,82.5000031471254,2|0,0:0|0:0,0:0:0:0:
344,170,219061,5,0,3:0:0:0:
279,329,219291,1,2,0:0:0:0:
113,353,219522,1,8,0:0:0:0:
36,271,219753,1,2,0:0:0:0:
36,271,219868,1,2,0:0:0:0:
36,271,219984,6,0,B|12:240|12:240|20:178,1,82.5000031471254,0|0,3:0|0:0,0:0:0:0:
0,123,220214,2,0,B|24:154|24:154|16:216,1,82.5000031471254,2|0,0:0|0:0,0:0:0:0:
193,322,220445,6,0,B|169:291|169:291|177:229,1,82.5000031471254,8|0,0:0|0:0,0:0:0:0:
174,71,220675,2,0,B|198:102|198:102|190:164,1,82.5000031471254,2|0,0:0|0:0,0:0:0:0:
348,354,220907,6,0,P|378:353|428:298,1,82.5000031471254,0|0,3:0|0:0,0:0:0:0:
488,363,221138,2,0,P|502:336|479:265,1,82.5000031471254,2|0,0:0|0:0,0:0:0:0:
338,213,221368,6,0,P|323:186|346:115,1,82.5000031471254,8|0,0:0|0:0,0:0:0:0:
260,96,221599,2,0,P|275:70|348:54,1,82.5000031471254,2|0,0:0|0:0,0:0:0:0:
398,85,221830,5,2,3:2:0:0:
294,289,222061,1,2,0:0:0:0:
184,78,222291,1,8,0:0:0:0:
433,241,222522,1,10,0:3:0:0:
439,239,222638,1,0,3:0:0:0:
445,238,222753,2,0,L|542:222,1,82.5000031471254,10|0,3:2|3:0,0:0:0:0:
429,320,222984,2,0,L|526:304,1,82.5000031471254,10|0,0:0|3:0,0:0:0:0:
278,379,223214,5,10,0:0:0:0:
236,375,223329,1,0,3:0:0:0:
195,372,223444,1,10,0:0:0:0:
154,368,223560,1,0,3:0:0:0:
108,363,223676,6,0,P|87:284|38:219,1,165.000006294251,14|0,3:2|0:0,0:0:0:0:
0,60,224022,2,0,P|71:55|57:126,1,165.000006294251,2|0,0:0|0:0,0:0:0:0:
159,245,224368,2,0,P|141:208|145:162,1,82.5000031471254,2|0,0:0|0:0,0:0:0:0:
178,34,224599,5,0,3:0:0:0:
238,117,224830,1,2,0:0:0:0:
264,210,225061,1,8,0:0:0:0:
238,316,225291,1,2,0:0:0:0:
482,348,225522,6,0,P|423:291|344:272,1,165.000006294251,0|2,3:0|0:0,0:0:0:0:
481,198,225868,1,2,0:0:0:0:
481,198,225984,2,0,P|473:157|482:117,1,82.5000031471254,8|0,0:0|0:0,0:0:0:0:
332,100,226214,2,0,P|359:130|373:168,1,82.5000031471254,2|0,0:0|0:0,0:0:0:0:
223,137,226445,1,0,3:0:0:0:
146,186,226676,1,2,0:0:0:0:
49,162,226907,1,8,0:0:0:0:
9,80,227137,1,2,0:0:0:0:
9,80,227253,1,2,0:0:0:0:
8,80,227368,6,0,P|49:75|90:68,1,82.5000031471254,0|0,3:0|0:0,0:0:0:0:
178,51,227599,2,0,P|137:46|96:39,1,82.5000031471254,2|0,0:0|0:0,0:0:0:0:
156,201,227830,6,0,P|196:196|237:189,1,82.5000031471254,8|0,0:0|0:0,0:0:0:0:
325,172,228061,2,0,P|284:167|243:160,1,82.5000031471254,2|0,0:0|0:0,0:0:0:0:
285,336,228291,6,0,P|325:331|366:324,1,82.5000031471254,0|0,3:0|0:0,0:0:0:0:
454,307,228522,2,0,P|413:302|372:295,1,82.5000031471254,2|0,0:0|0:0,0:0:0:0:
325,172,228753,6,0,P|365:167|406:160,1,82.5000031471254,8|0,0:0|0:0,0:0:0:0:
494,143,228984,2,0,P|453:138|412:131,1,82.5000031471254,2|0,0:0|0:0,0:0:0:0:
361,23,229214,6,0,P|369:103|325:171,1,165.000006294251,0|2,3:0|0:0,0:0:0:0:
218,293,229561,2,0,P|184:232|253:221,1,165.000006294251,2|2,0:0|0:0,0:0:0:0:
251,179,229907,1,0,0:0:0:0:
218,154,230022,1,0,0:0:0:0:
179,138,230137,2,0,P|111:180|95:258,1,165.000006294251,2|0,3:2|0:0,0:0:0:0:
426,29,230599,6,0,P|467:26|507:19,1,82.5000031471254,8|0,0:0|0:0,0:0:0:0:
346,81,230830,2,0,P|304:78|264:71,1,82.5000031471254,2|0,0:0|0:0,0:0:0:0:
368,206,231061,6,0,P|432:157|512:167,1,165.000006294251,14|0,3:2|0:0,0:0:0:0:
468,316,231407,2,0,P|435:252|507:261,1,165.000006294251,2|0,0:0|0:0,0:0:0:0:
365,353,231753,2,0,P|352:314|324:283,1,82.5000031471254,2|0,0:0|0:0,0:0:0:0:
202,213,231984,1,0,3:0:0:0:
188,290,232214,1,2,0:0:0:0:
14,291,232445,1,8,0:0:0:0:
33,370,232676,1,2,0:0:0:0:
144,122,232907,6,0,P|138:82|131:41,1,82.5000031471254,0|0,3:0|0:0,0:0:0:0:
276,183,233138,2,0,P|268:223|263:264,1,82.5000031471254,2|0,0:0|0:0,0:0:0:0:
66,127,233368,6,0,P|60:86|53:45,1,82.5000031471254,8|0,0:0|0:0,0:0:0:0:
356,192,233599,2,0,P|348:232|343:273,1,82.5000031471254,2|0,0:0|0:0,0:0:0:0:
208,356,233830,5,0,3:0:0:0:
294,344,234061,1,2,0:0:0:0:
384,347,234291,1,8,0:0:0:0:
467,370,234522,1,2,0:0:0:0:
445,294,234753,6,0,P|444:252|458:214,1,82.5000031471254,0|0,3:0|0:0,0:0:0:0:
484,138,234984,2,0,P|498:176|497:217,1,82.5000031471254,2|0,0:0|0:0,0:0:0:0:
360,221,235214,6,0,P|348:181|352:140,1,82.5000031471254,8|0,0:0|0:0,0:0:0:0:
357,60,235445,2,0,P|380:93|390:133,1,82.5000031471254,2|0,0:0|0:0,0:0:0:0:
245,186,235676,6,0,P|224:150|216:110,1,82.5000031471254,0|0,3:0|0:0,0:0:0:0:
200,31,235907,2,0,P|231:57|251:93,1,82.5000031471254,2|0,0:0|0:0,0:0:0:0:
112,137,236138,6,0,P|82:108|65:71,1,82.5000031471254,8|0,0:0|0:0,0:0:0:0:
26,0,236367,2,0,P|63:17|91:46,1,82.5000031471254,2|0,0:0|0:0,0:0:0:0:
96,272,236599,6,0,P|56:269|23:293,1,82.5000031471254,2|2,3:2|0:0,0:0:0:0:
104,286,236830,2,0,P|64:286|33:312,1,82.5000031471254,2|2,0:0|0:0,0:0:0:0:
191,334,237061,6,0,P|231:330|264:354,1,82.5000031471254,10|2,0:0|0:0,0:0:0:0:
183,347,237292,2,0,P|223:347|254:373,1,82.5000031471254,2|2,0:0|0:0,0:0:0:0:
178,233,237522,6,0,P|219:240|259:247,1,82.5000031471254,2|0,3:2|0:0,0:0:0:0:
334,296,237753,2,0,P|374:282|411:267,1,82.5000031471254,2|0,0:0|0:0,0:0:0:0:
490,166,237984,6,0,P|497:124|504:84,1,82.5000031471254,10|0,0:0|0:0,0:0:0:0:
408,78,238214,2,0,P|394:37|379:0,1,82.5000031471254,2|0,0:0|0:0,0:0:0:0:
337,148,238445,6,0,P|254:139|172:131,1,165.000006294251,4|2,3:2|0:0,0:0:0:0:
63,116,238791,1,2,0:0:0:0:
62,116,238907,2,0,P|62:76|95:54,1,82.5000031471254,8|0,0:0|0:0,0:0:0:0:
199,52,239138,2,0,P|232:73|231:113,1,82.5000031471254,2|0,0:0|0:0,0:0:0:0:
151,200,239368,6,0,P|129:279|113:360,1,165.000006294251,0|2,3:0|0:0,0:0:0:0:
241,306,239714,1,2,0:0:0:0:
241,306,239830,2,0,P|280:315|297:351,1,82.5000031471254,8|0,0:0|0:0,0:0:0:0:
320,245,240061,2,0,P|336:208|375:199,1,82.5000031471254,2|0,0:0|0:0,0:0:0:0:
422,361,240291,6,0,P|422:320|428:280,1,82.5000031471254,2|0,3:2|0:0,0:0:0:0:
483,206,240522,1,2,0:0:0:0:
477,164,240638,1,2,0:0:0:0:
461,124,240753,6,0,P|424:107|383:102,1,82.5000031471254,8|0,0:0|0:0,0:0:0:0:
232,46,240984,2,0,P|269:28|310:23,1,82.5000031471254,2|0,0:0|0:0,0:0:0:0:
233,170,241215,2,0,P|152:184|95:241,2,165.000006294251,2|2|8,3:2|0:0|0:0,0:0:0:0:
233,170,241907,1,2,0:0:0:0:
196,286,242138,6,0,P|196:327|200:368,1,82.5000031471254,6|2,3:2|0:3,0:0:0:0:
331,314,242368,1,2,0:3:0:0:
372,309,242484,1,2,0:3:0:0:
406,321,242599,6,0,P|447:320|488:316,1,82.5000031471254,8|2,0:0|0:3,0:0:0:0:
442,182,242830,1,2,0:3:0:0:
439,130,242945,1,6,3:2:0:0:
79,53,243291,1,8,0:0:0:0:
79,53,243984,5,6,3:2:0:0:
79,53,244099,2,0,L|90:132,1,65.9999979858399,2|0,0:0|0:0,0:0:0:0:
127,182,244330,2,0,P|196:145|175:78,1,131.99999597168,2|0,0:0|0:0,0:0:0:0:
151,39,244676,1,2,0:0:0:0:
9,258,244907,6,0,P|66:260|92:320,1,98.9999969787599,2|0,3:2|0:0,0:0:0:0:
93,307,245138,2,0,B|80:336|58:358|30:349,1,65.9999979858399,2|0,0:0|0:0,0:0:0:0:
171,382,245368,5,10,0:0:0:0:
169,328,245484,1,2,0:0:0:0:
190,275,245599,1,2,0:0:0:0:
233,242,245714,1,2,0:0:0:0:
293,241,245830,5,2,3:2:0:0:
313,253,245945,2,0,P|316:282|297:311,1,65.9999979858399,2|0,0:0|0:0,0:0:0:0:
233,242,246176,2,0,P|224:173|213:93,1,131.99999597168,2|0,0:0|0:0,0:0:0:0:
211,24,246522,1,2,0:0:0:0:
369,0,246753,6,0,P|353:54|397:84,1,98.9999969787599,2|0,3:2|0:0,0:0:0:0:
393,89,246984,2,0,P|425:75|434:39,1,65.9999979858399,2|0,0:0|0:0,0:0:0:0:
512,183,247214,6,0,P|479:178|424:168,1,65.9999979858399,10|0,0:0|0:0,0:0:0:0:
501,260,247445,2,0,P|468:255|413:245,1,65.9999979858399,2|0,0:0|0:0,0:0:0:0:
292,90,247676,5,2,0:0:0:0:
292,90,247791,2,0,L|275:240,1,131.99999597168,2|2,0:0|0:0,0:0:0:0:
226,281,248138,2,0,P|272:302|303:296,1,65.9999979858399,10|0,0:0|0:0,0:0:0:0:
351,252,248368,1,2,0:0:0:0:
165,373,248599,6,0,P|127:322|74:328,1,98.9999969787599,2|0,3:2|0:0,0:0:0:0:
80,334,248830,2,0,P|39:341|-4:347,1,65.9999979858399,2|0,0:0|0:0,0:0:0:0:
91,241,249061,2,0,P|50:248|7:254,1,65.9999979858399,10|0,0:0|0:0,0:0:0:0:
102,151,249291,2,0,P|61:158|18:164,1,65.9999979858399,2|0,0:0|0:0,0:0:0:0:
199,0,249522,6,0,P|180:65|176:132,1,131.99999597168,2|2,3:2|0:0,0:0:0:0:
207,205,249868,1,2,0:0:0:0:
269,43,250099,1,2,0:0:0:0:
269,43,250214,2,0,P|257:83|258:152,1,98.9999969787599,2|0,0:0|0:0,0:0:0:0:
271,156,250445,2,0,P|315:163|343:135,1,65.9999979858399,2|0,3:2|0:0,0:0:0:0:
467,74,250676,2,0,P|423:67|395:95,1,65.9999979858399,2|0,0:0|0:0,0:0:0:0:
371,224,250907,5,10,0:0:0:0:
381,276,251022,1,2,0:0:0:0:
394,330,251138,1,2,0:0:0:0:
454,315,251253,1,2,0:0:0:0:
510,297,251368,5,6,3:2:0:0:
503,267,251484,2,0,L|486:198,1,65.9999979858399,2|0,0:0|0:0,0:0:0:0:
371,224,251714,2,0,P|317:217|236:207,1,131.99999597168,2|0,0:0|0:0,0:0:0:0:
199,125,252061,1,2,0:0:0:0:
353,0,252291,6,0,P|376:40|344:95,1,98.9999969787599,2|0,3:2|0:0,0:0:0:0:
342,100,252522,2,0,P|296:91|250:84,1,65.9999979858399,2|0,0:0|0:0,0:0:0:0:
122,14,252753,5,10,0:0:0:0:
68,38,252868,1,2,0:0:0:0:
32,81,252984,1,2,0:0:0:0:
29,142,253099,1,2,0:0:0:0:
56,192,253214,5,2,3:2:0:0:
52,218,253330,2,0,L|41:288,1,65.9999979858399,2|0,0:0|0:0,0:0:0:0:
236,276,253561,2,0,B|193:227|193:227|111:246,1,131.99999597168,2|0,0:0|0:0,0:0:0:0:
110,319,253907,1,2,0:0:0:0:
307,377,254138,6,0,P|316:315|324:263,1,98.9999969787599,2|0,3:2|0:0,0:0:0:0:
340,269,254368,2,0,P|336:221|330:191,1,65.9999979858399,2|0,0:0|0:0,0:0:0:0:
286,57,254599,5,10,0:0:0:0:
324,17,254714,1,2,0:0:0:0:
380,3,254830,1,2,0:0:0:0:
437,17,254945,1,2,0:0:0:0:
476,60,255061,5,2,3:2:0:0:
473,90,255176,2,0,P|430:103|396:106,1,65.9999979858399,2|0,0:0|0:0,0:0:0:0:
286,57,255407,2,0,P|196:43|137:42,1,131.99999597168,2|0,0:0|0:0,0:0:0:0:
84,86,255753,1,2,0:0:0:0:
218,223,255984,6,0,P|227:188|165:157,1,98.9999969787599,2|0,3:2|0:0,0:0:0:0:
155,160,256214,2,0,P|144:201|133:239,1,65.9999979858399,2|0,0:0|0:0,0:0:0:0:
221,337,256445,2,0,P|190:306|163:278,1,65.9999979858399,10|0,0:0|0:0,0:0:0:0:
34,305,256676,2,0,P|75:294|113:284,1,65.9999979858399,2|0,0:0|0:0,0:0:0:0:
303,225,256907,5,4,3:0:0:0:
303,225,257138,5,2,0:3:0:0:
335,268,257253,1,2,0:3:0:0:
390,267,257368,1,2,3:0:0:0:
372,316,257484,5,2,0:3:0:0:
432,306,257599,1,8,0:3:0:0:
473,264,257714,1,8,0:3:0:0:
476,210,257830,6,0,P|469:189|434:161,1,65.9999979858399,2|0,3:2|0:0,0:0:0:0:
507,99,258061,5,2,0:0:0:0:
461,69,258175,2,0,P|439:64|397:80,1,65.9999979858399,2|0,3:2|0:0,0:0:0:0:
380,0,258407,5,2,0:0:0:0:
331,24,258521,2,0,P|316:40|309:84,1,65.9999979858399,10|0,3:2|0:0,0:0:0:0:
