osu file format v14

[General]
AudioFilename: audio.mp3
AudioLeadIn: 0
PreviewTime: 75175
Countdown: 0
SampleSet: Soft
StackLeniency: 0.4
Mode: 0
LetterboxInBreaks: 0
EpilepsyWarning: 1
WidescreenStoryboard: 1

[Editor]
Bookmarks: 82272,111984
DistanceSpacing: 1.7
BeatDivisor: 4
GridSize: 32
TimelineZoom: 2.1

[Metadata]
Title:Yoru ni Kakeru
TitleUnicode:夜に駆ける
Artist:YOASOBI
ArtistUnicode:YOASOBI
Creator:Petal
Version:Battle's Extra
Source:
Tags:幾田りら Japanese pop racing into the night Ayase female ikura Ikuta matha -light- battle -keitaro shurelia Error- lilas J-pop Jpop 藍にいな Ai Niina
BeatmapID:2596103
BeatmapSetID:1238759

[Difficulty]
HPDrainRate:5
CircleSize:3.6
OverallDifficulty:8.7
ApproachRate:9.3
SliderMultiplier:2.3
SliderTickRate:1

[Events]
//Background and Video events
0,0,"BG2.jpg",0,0
Video,130,"video.mp4"
//Break Periods
2,103876,110045
2,192291,199122
//Storyboard Layer 0 (Background)
//Storyboard Layer 1 (Fail)
//Storyboard Layer 2 (Pass)
//Storyboard Layer 3 (Foreground)
//Storyboard Layer 4 (Overlay)
//Storyboard Sound Samples

[TimingPoints]
291,461.538461538462,4,2,1,25,1,0
2138,-125,4,2,1,25,0,0
9522,-111.111111111111,4,2,1,50,0,0
15291,-142.857142857143,4,2,1,25,0,0
16907,-62.5,4,2,2,60,0,0
17022,-62.5,4,2,1,60,0,0
17368,-50,4,2,1,60,0,0
17541,-62.5,4,2,1,5,0,0
17599,-62.5,4,2,1,60,0,0
19214,-50,4,2,1,60,0,0
19388,-62.5,4,2,1,5,0,0
19445,-62.5,4,2,1,60,0,0
20138,-83.3333333333333,4,2,1,60,0,0
20599,-62.5,4,2,1,60,0,0
21061,-50,4,2,1,60,0,0
21234,-62.5,4,2,1,5,0,0
21291,-62.5,4,2,1,60,0,0
21695,-62.5,4,2,1,5,0,0
21753,-62.5,4,2,1,60,0,0
22907,-50,4,2,1,60,0,0
23080,-62.5,4,2,1,5,0,0
23138,-62.5,4,2,1,60,0,0
23311,-62.5,4,2,1,5,0,0
23368,-62.5,4,2,1,60,0,0
24753,-50,4,2,1,60,0,0
24926,-62.5,4,2,1,5,0,0
24984,-62.5,4,2,1,60,0,0
26599,-50,4,2,1,60,0,0
26772,-62.5,4,2,1,5,0,0
26830,-62.5,4,2,1,60,0,0
28445,-50,4,2,1,60,0,0
28618,-62.5,4,2,1,5,0,0
28676,-62.5,4,2,1,60,0,0
29080,-62.5,4,2,1,5,0,0
29138,-62.5,4,2,1,60,0,0
31618,-111.111111111111,4,2,1,5,0,0
31676,-125,4,2,1,40,0,0
39061,-76.9230769230769,4,2,1,50,0,0
39522,-76.9230769230769,4,2,1,50,0,0
39695,-62.5,4,2,1,5,0,0
39753,-76.9230769230769,4,2,1,50,0,0
39984,-76.9230769230769,4,2,1,50,0,0
40445,-76.9230769230769,4,2,1,50,0,0
40618,-76.9230769230769,4,2,1,5,0,0
40676,-76.9230769230769,4,2,1,50,0,0
41772,-76.9230769230769,4,2,1,5,0,0
41830,-76.9230769230769,4,2,1,50,0,0
43214,-76.9230769230769,4,2,1,50,0,0
43388,-62.5,4,2,1,5,0,0
43445,-76.9230769230769,4,2,1,50,0,0
44830,-76.9230769230769,4,2,1,50,0,0
45061,-62.5,4,2,1,50,0,0
46214,-100,4,2,1,50,0,0
46445,-71.4285714285714,4,2,1,60,0,0
46907,-71.4285714285714,4,2,1,60,0,0
47080,-71.4285714285714,4,2,1,5,0,0
47138,-71.4285714285714,4,2,1,60,0,0
48753,-71.4285714285714,4,2,1,60,0,0
48926,-71.4285714285714,4,2,1,5,0,0
48984,-71.4285714285714,4,2,1,60,0,0
61214,-71.4285714285714,4,2,1,60,0,0
61561,-100,4,2,1,60,0,0
61907,-166.666666666667,4,2,1,60,0,0
62253,-71.4285714285714,4,2,1,60,0,0
63407,-100,4,2,1,60,0,0
63753,-166.666666666667,4,2,1,60,0,0
64214,-71.4285714285714,4,2,1,60,0,0
68599,-71.4285714285714,4,2,3,60,0,0
70388,-71.4285714285714,4,2,3,5,0,0
70445,-71.4285714285714,4,2,3,60,0,0
72291,-71.4285714285714,4,2,1,60,0,0
74714,-71.4285714285714,4,2,1,65,0,0
75983,-55.5555555555556,4,2,2,85,0,1
76214,-55.5555555555556,4,2,1,85,0,1
76445,-55.5555555555556,4,2,1,85,0,1
76618,-55.5555555555556,4,2,1,5,0,1
76676,-62.5,4,2,1,85,0,1
76907,-55.5555555555556,4,2,1,85,0,1
77080,-55.5555555555556,4,2,1,5,0,1
77138,-62.5,4,2,1,85,0,1
77830,-55.5555555555556,4,2,1,85,0,1
78176,-62.5,4,2,1,85,0,1
78753,-55.5555555555556,4,2,1,85,0,1
78926,-55.5555555555556,4,2,1,5,0,1
78984,-62.5,4,2,1,85,0,1
79214,-62.5,4,2,1,85,0,1
81522,-55.5555555555556,4,2,1,85,0,1
81868,-62.5,4,2,1,85,0,1
82099,-55.5555555555556,4,2,1,85,0,1
82445,-55.5555555555556,4,2,1,85,0,1
82907,-55.5555555555556,4,2,1,85,0,1
83368,-55.5555555555556,4,2,2,85,0,1
83599,-55.5555555555556,4,2,1,85,0,1
83830,-55.5555555555556,4,2,1,85,0,1
84003,-55.5555555555556,4,2,1,5,0,1
84061,-62.5,4,2,1,85,0,1
84291,-55.5555555555556,4,2,1,85,0,1
84522,-62.5,4,2,1,85,0,1
85214,-55.5555555555556,4,2,1,85,0,1
85561,-62.5,4,2,1,85,0,1
86138,-55.5555555555556,4,2,1,85,0,1
86772,-55.5555555555556,4,2,1,5,0,1
86830,-55.5555555555556,4,2,1,85,0,1
88907,-55.5555555555556,4,2,1,85,0,1
90753,-55.5555555555556,4,2,2,85,0,1
90984,-55.5555555555556,4,2,1,85,0,1
91214,-55.5555555555556,4,2,1,85,0,1
91388,-55.5555555555556,4,2,1,5,0,1
91445,-55.5555555555556,4,2,1,85,0,1
91676,-55.5555555555556,4,2,1,85,0,1
91849,-55.5555555555556,4,2,1,5,0,1
91907,-55.5555555555556,4,2,1,85,0,1
92368,-55.5555555555556,4,2,1,85,0,1
92541,-55.5555555555556,4,2,1,5,0,1
92599,-55.5555555555556,4,2,1,85,0,1
92945,-55.5555555555556,4,2,1,85,0,1
93522,-55.5555555555556,4,2,1,85,0,1
93695,-55.5555555555556,4,2,1,5,0,1
93753,-55.5555555555556,4,2,1,85,0,1
96291,-55.5555555555556,4,2,1,85,0,1
96638,-55.5555555555556,4,2,1,85,0,1
96868,-55.5555555555556,4,2,1,85,0,1
97214,-55.5555555555556,4,2,1,85,0,1
97676,-55.5555555555556,4,2,1,85,0,1
98138,-55.5555555555556,4,2,2,85,0,1
98368,-55.5555555555556,4,2,1,85,0,1
98599,-55.5555555555556,4,2,1,85,0,1
98772,-55.5555555555556,4,2,1,5,0,1
98830,-55.5555555555556,4,2,1,85,0,1
99061,-55.5555555555556,4,2,1,85,0,1
99234,-55.5555555555556,4,2,1,5,0,1
99291,-55.5555555555556,4,2,1,85,0,1
100907,-55.5555555555556,4,2,1,85,0,1
101368,-55.5555555555556,4,2,1,85,0,1
102983,-76.9230769230769,4,2,1,75,0,0
103214,-76.9230769230769,4,2,1,60,0,0
103676,-62.5,4,2,2,60,0,0
103791,-62.5,4,2,1,60,0,0
104138,-50,4,2,1,60,0,0
104311,-50,4,2,1,5,0,0
104368,-62.5,4,2,1,60,0,0
105984,-50,4,2,1,60,0,0
106157,-50,4,2,1,5,0,0
106214,-62.5,4,2,1,60,0,0
106907,-83.3333333333333,4,2,1,60,0,0
107368,-62.5,4,2,1,60,0,0
107830,-50,4,2,1,60,0,0
108003,-50,4,2,1,5,0,0
108061,-62.5,4,2,1,60,0,0
109676,-50,4,2,1,60,0,0
109849,-50,4,2,1,5,0,0
109907,-62.5,4,2,1,60,0,0
111522,-50,4,2,1,60,0,0
111695,-50,4,2,1,5,0,0
111753,-62.5,4,2,1,60,0,0
113368,-50,4,2,1,60,0,0
113541,-50,4,2,1,5,0,0
113599,-62.5,4,2,1,60,0,0
115214,-50,4,2,1,60,0,0
115388,-50,4,2,1,5,0,0
115445,-62.5,4,2,1,60,0,0
117984,-90.9090909090909,4,2,1,60,0,0
118445,-125,4,2,1,50,0,0
125830,-125,4,2,1,50,0,0
130791,-83.3333333333333,4,2,1,50,0,0
131253,-125,4,2,1,50,0,0
131599,-71.4285714285714,4,2,1,50,0,0
132984,-58.8235294117647,4,2,1,50,0,0
133214,-58.8235294117647,4,2,1,75,0,1
138753,-58.8235294117647,4,2,1,75,0,1
140599,-45.4545454545455,4,2,1,75,0,1
140772,-45.4545454545455,4,2,1,5,0,1
140830,-58.8235294117647,4,2,1,75,0,1
145214,-58.8235294117647,4,2,1,50,0,0
145676,-58.8235294117647,4,2,1,35,0,0
146138,-100,4,2,1,35,0,0
153522,-83.3333333333333,4,2,1,35,0,0
160907,-62.5,4,2,1,65,0,0
161368,-62.5,4,2,1,65,0,0
161830,-62.5,4,2,1,65,0,0
162464,-62.5,4,2,1,5,0,0
162522,-62.5,4,2,1,65,0,0
162753,-62.5,4,2,1,65,0,0
164022,-62.5,4,2,1,65,0,0
164599,-62.5,4,2,1,65,0,0
164945,-62.5,4,2,1,65,0,0
165522,-62.5,4,2,1,65,0,0
165695,-62.5,4,2,1,5,0,0
165753,-62.5,4,2,1,65,0,0
166791,-62.5,4,2,1,65,0,0
168291,-62.5,4,2,1,65,0,0
168926,-62.5,4,2,1,5,0,0
168984,-62.5,4,2,1,65,0,0
170080,-62.5,4,2,1,5,0,0
170138,-62.5,4,2,1,65,0,0
172907,-50,4,2,1,65,0,0
173080,-50,4,2,1,5,0,0
173138,-62.5,4,2,1,65,0,0
175676,-71.4285714285714,4,2,1,60,0,0
176022,-100,4,2,1,60,0,0
176368,-166.666666666667,4,2,1,60,0,0
176714,-71.4285714285714,4,2,1,60,0,0
177868,-100,4,2,1,60,0,0
178214,-166.666666666667,4,2,1,60,0,0
178676,-71.4285714285714,4,2,1,60,0,0
183061,-71.4285714285714,4,2,3,60,0,0
183407,-100,4,2,3,60,0,0
183638,-166.666666666667,4,2,3,60,0,0
183984,-71.4285714285714,4,2,3,60,0,0
185253,-100,4,2,3,60,0,0
185599,-166.666666666667,4,2,3,60,0,0
185830,-71.4285714285714,4,2,3,60,0,0
186753,-71.4285714285714,4,2,3,60,0,0
187099,-71.4285714285714,4,2,3,60,0,0
188599,-100,4,2,3,60,0,0
190330,-1000,4,2,1,60,0,0
199676,-100,4,2,1,50,0,0
205214,-500,4,2,1,45,0,0
206599,-500,4,2,1,15,0,0
207061,-500,4,2,1,75,0,0
207984,-71.4285714285714,4,2,1,75,0,0
208906,-55.5555555555556,4,2,2,90,0,1
209253,-55.5555555555556,4,2,1,90,0,1
209368,-55.5555555555556,4,2,1,90,0,1
209541,-55.5555555555556,4,2,1,5,0,1
209599,-55.5555555555556,4,2,1,90,0,1
209830,-55.5555555555556,4,2,1,90,0,1
210003,-55.5555555555556,4,2,1,5,0,1
210061,-55.5555555555556,4,2,1,90,0,1
211099,-55.5555555555556,4,2,1,90,0,1
211676,-55.5555555555556,4,2,1,90,0,1
211849,-55.5555555555556,4,2,1,5,0,1
211907,-55.5555555555556,4,2,1,90,0,1
213984,-55.5555555555556,4,2,1,90,0,1
214445,-55.5555555555556,4,2,1,90,0,1
215022,-55.5555555555556,4,2,1,90,0,1
215368,-55.5555555555556,4,2,1,90,0,1
216291,-55.5555555555556,4,2,2,90,0,1
216638,-55.5555555555556,4,2,1,90,0,1
216753,-55.5555555555556,4,2,1,90,0,1
216926,-55.5555555555556,4,2,1,5,0,1
216984,-55.5555555555556,4,2,1,90,0,1
217214,-55.5555555555556,4,2,1,90,0,1
217388,-55.5555555555556,4,2,1,5,0,1
217445,-55.5555555555556,4,2,1,90,0,1
219061,-55.5555555555556,4,2,1,90,0,1
219695,-55.5555555555556,4,2,1,5,0,1
219753,-55.5555555555556,4,2,1,90,0,1
221830,-55.5555555555556,4,2,1,90,0,1
223676,-55.5555555555556,4,2,2,90,0,1
224022,-55.5555555555556,4,2,1,90,0,1
224138,-55.5555555555556,4,2,1,90,0,1
224311,-55.5555555555556,4,2,1,5,0,1
224368,-55.5555555555556,4,2,1,90,0,1
224599,-55.5555555555556,4,2,1,90,0,1
224772,-55.5555555555556,4,2,1,5,0,1
224830,-55.5555555555556,4,2,1,90,0,1
226445,-55.5555555555556,4,2,1,90,0,1
226618,-55.5555555555556,4,2,1,5,0,1
226676,-55.5555555555556,4,2,1,90,0,1
228753,-55.5555555555556,4,2,1,90,0,1
229214,-55.5555555555556,4,2,1,90,0,1
229791,-55.5555555555556,4,2,1,90,0,1
230138,-55.5555555555556,4,2,1,90,0,1
231061,-55.5555555555556,4,2,2,90,0,1
231407,-55.5555555555556,4,2,1,90,0,1
231522,-55.5555555555556,4,2,1,90,0,1
231695,-55.5555555555556,4,2,1,5,0,1
231753,-55.5555555555556,4,2,1,90,0,1
231984,-55.5555555555556,4,2,1,90,0,1
232157,-55.5555555555556,4,2,1,5,0,1
232214,-55.5555555555556,4,2,1,90,0,1
234753,-55.5555555555556,4,2,1,90,0,1
234926,-55.5555555555556,4,2,1,5,0,1
234984,-55.5555555555556,4,2,1,90,0,1
236599,-55.5555555555556,4,2,1,90,0,1
237061,-55.5555555555556,4,2,1,90,0,1
237984,-55.5555555555556,4,2,1,90,0,1
240291,-55.5555555555556,4,2,1,90,0,1
240753,-55.5555555555556,4,2,1,90,0,1
241214,-55.5555555555556,4,2,1,90,0,1
241676,-55.5555555555556,4,2,1,90,0,1
243291,-58.8235294117647,4,2,1,75,0,0
243522,-333.333333333333,4,2,1,30,0,0
243984,-62.5,4,2,2,60,0,0
244099,-62.5,4,2,1,60,0,0
244445,-50,4,2,1,60,0,0
244618,-50,4,2,1,5,0,0
244676,-62.5,4,2,1,60,0,0
246291,-50,4,2,1,60,0,0
246464,-50,4,2,1,5,0,0
246522,-62.5,4,2,1,60,0,0
247214,-83.3333333333333,4,2,1,60,0,0
247676,-62.5,4,2,1,60,0,0
248138,-50,4,2,1,60,0,0
248311,-50,4,2,1,5,0,0
248368,-62.5,4,2,1,60,0,0
249984,-50,4,2,1,60,0,0
250157,-50,4,2,1,5,0,0
250214,-62.5,4,2,1,60,0,0
251830,-50,4,2,1,60,0,0
252003,-50,4,2,1,5,0,0
252061,-62.5,4,2,1,60,0,0
253676,-50,4,2,1,60,0,0
253849,-50,4,2,1,5,0,0
253907,-62.5,4,2,1,60,0,0
255522,-50,4,2,1,60,0,0
255695,-50,4,2,1,5,0,0
255753,-62.5,4,2,1,60,0,0

[Colours]
Combo1 : 111,180,217
Combo2 : 215,57,69
Combo3 : 95,211,188
Combo4 : 220,97,210

[HitObjects]
47,377,1676,5,2,0:0:0:0:
120,293,1907,1,2,0:0:0:0:
233,301,2138,2,0,B|276:322|284:348|284:348|278:318|312:277,2,138,2|2|2,0:0|0:0|0:0,0:0:0:0:
36,263,3061,2,0,P|91:201|135:209,1,92,2|2,0:0|0:0,0:0:0:0:
276,216,3522,2,0,P|211:225|183:203,1,92,2|2,0:0|0:0,0:0:0:0:
146,15,3984,6,0,B|128:55|128:55|151:127,1,92,2|2,0:0|0:0,0:0:0:0:
234,136,4330,2,0,B|252:176|252:176|229:248,1,92,2|0,0:0|2:0,0:0:0:0:
89,277,4676,2,0,P|100:249|133:231,1,46,2|0,0:0|0:0,0:0:0:0:
205,343,4907,1,2,0:0:0:0:
206,362,5368,5,2,0:0:0:0:
266,259,5598,1,2,0:0:0:0:
381,361,5830,2,0,B|358:286|414:312|382:219,2,138,2|2|2,0:0|0:0|0:0,0:0:0:0:
488,226,6753,1,2,0:0:0:0:
268,123,6984,1,2,0:0:0:0:
377,20,7214,1,2,0:0:0:0:
377,20,7445,1,2,0:0:0:0:
377,20,7676,6,0,P|350:77|370:154,2,138,2|2|2,0:0|0:0|0:0,0:0:0:0:
512,271,8599,2,0,P|470:202|436:200,1,92,2|2,0:0|0:0,0:0:0:0:
339,242,9061,2,0,P|320:288|330:333,1,92,2|2,0:0|0:0,0:0:0:0:
437,333,9522,5,0,3:0:0:0:
351,253,9752,1,2,0:0:0:0:
351,253,9868,1,2,0:0:0:0:
351,253,9984,1,0,3:0:0:0:
452,192,10214,1,2,0:0:0:0:
334,140,10445,2,0,B|293:141|293:141|270:131|270:131|221:130,1,103.499996841431,0|2,3:0|0:0,0:0:0:0:
156,11,10907,2,0,B|197:10|197:10|220:20|220:20|269:21,1,103.499996841431,0|2,3:0|0:0,0:0:0:0:
175,228,11368,5,0,3:0:0:0:
115,125,11599,1,2,0:0:0:0:
257,20,11830,1,0,3:0:0:0:
233,130,12061,1,2,0:0:0:0:
96,20,12291,1,0,3:0:0:0:
245,142,12522,1,2,0:0:0:0:
245,142,12638,1,2,0:0:0:0:
245,143,12753,2,0,P|219:207|237:246,1,103.499996841431,0|2,3:0|0:0,0:0:0:0:
339,347,13099,1,2,0:0:0:0:
339,347,13214,6,0,B|284:340|284:340|241:358|241:358|183:345,2,155.249995262146,0|2|2,3:0|0:0|0:0,0:0:0:0:
512,294,14138,2,0,P|454:252|404:288,1,103.499996841431,0|2,3:0|0:0,0:0:0:0:
204,144,14599,1,0,3:0:0:0:
236,106,14714,1,2,0:0:0:0:
286,109,14829,1,2,0:0:0:0:
322,134,14945,1,2,0:0:0:0:
327,186,15061,1,0,0:0:0:0:
471,20,15291,6,0,L|462:62,1,40.2499987716675,2|0,0:0|0:0,0:0:0:0:
358,130,15522,2,0,P|368:173|371:231,1,80.499997543335,2|0,0:0|0:0,0:0:0:0:
512,310,15868,1,0,0:0:0:0:
512,310,15984,2,0,P|475:300|415:292,1,80.499997543335,2|2,0:0|0:0,0:0:0:0:
387,301,16330,1,0,0:0:0:0:
304,350,16445,1,2,0:0:0:0:
227,285,16561,1,2,0:0:0:0:
278,190,16676,1,2,0:0:0:0:
221,87,16791,1,2,0:0:0:0:
118,120,16907,6,0,P|66:116|35:66,1,92,6|2,3:2|0:0,0:0:0:0:
307,49,17138,1,0,0:0:0:0:
224,0,17253,2,0,B|189:104|255:75|215:187,1,184,2|0,0:0|2:0,0:0:0:0:
36,293,17599,6,0,P|66:260|123:263,1,92,2|0,0:0|0:0,0:0:0:0:
142,270,17830,2,0,P|167:346|151:372,1,92,2|0,3:2|0:0,0:0:0:0:
217,179,18061,6,0,P|247:212|304:209,1,92,2|0,0:0|0:0,0:0:0:0:
323,202,18292,2,0,P|348:126|332:100,1,92,10|2,0:0|0:0,0:0:0:0:
319,362,18522,5,2,0:0:0:0:
390,307,18638,1,2,0:0:0:0:
496,353,18753,2,0,P|486:291|510:244,1,92,2|2,3:2|0:0,0:0:0:0:
339,90,18984,1,2,0:0:0:0:
419,7,19099,2,0,P|455:108|401:192,1,184,2|0,0:0|2:0,0:0:0:0:
234,95,19445,2,0,P|308:60|335:71,1,92,2|0,0:0|0:0,0:0:0:0:
321,269,19676,6,0,P|301:188|324:152,1,92,2|0,3:2|0:0,0:0:0:0:
466,295,19907,2,0,P|473:340|450:384,1,92,2|0,0:0|0:0,0:0:0:0:
256,288,20138,6,0,P|331:270|363:282,1,68.9999978942872,10|0,0:0|0:0,0:0:0:0:
489,191,20368,2,0,P|454:187|424:171,1,68.9999978942872,2|0,0:0|0:0,0:0:0:0:
228,60,20599,1,2,3:2:0:0:
338,10,20714,2,0,P|329:57|321:169,1,92,2|0,0:0|0:0,0:0:0:0:
373,342,20945,2,0,P|314:259|246:309,1,184,2|0,0:0|2:0,0:0:0:0:
53,136,21291,6,0,P|115:177|149:160,1,92,2|0,0:0|0:0,0:0:0:0:
212,123,21522,2,0,P|228:54|212:27,1,92,2|0,3:2|0:0,0:0:0:0:
89,250,21753,6,0,P|142:170|161:171,1,92,2|0,0:0|0:0,0:0:0:0:
225,274,21984,2,0,P|201:360|171:367,1,92,10|0,0:0|0:0,0:0:0:0:
46,94,22214,6,0,P|149:72|181:98,1,92,2|0,0:0|0:0,0:0:0:0:
345,175,22445,6,0,B|256:186|224:124|224:124|247:147|301:150,1,184,2|2,3:2|0:0,0:0:0:0:
291,20,22791,2,0,B|380:9|412:71|412:71|389:48|335:45,1,184,2|0,0:0|2:0,0:0:0:0:
314,247,23138,2,0,P|329:181|374:177,1,92,2|0,0:0|0:0,0:0:0:0:
492,310,23368,2,0,P|468:227|437:278,1,184,2|2,3:2|0:0,0:0:0:0:
420,280,23830,5,10,0:0:0:0:
333,323,23945,1,2,0:0:0:0:
277,236,24061,1,2,0:0:0:0:
333,145,24176,1,2,0:0:0:0:
270,70,24291,5,6,3:2:0:0:
184,114,24407,2,0,P|181:28|214:6,1,92,2|0,0:0|0:0,0:0:0:0:
406,224,24638,2,0,P|279:165|240:222,1,184,2|0,0:0|2:0,0:0:0:0:
295,377,24984,2,0,P|299:332|319:274,1,92,2|0,0:0|0:0,0:0:0:0:
113,188,25214,6,0,P|67:194|23:205,1,92,2|0,3:2|0:0,0:0:0:0:
202,333,25445,2,0,P|157:322|111:316,1,92,2|0,0:0|0:0,0:0:0:0:
72,101,25676,5,10,0:0:0:0:
164,87,25791,1,2,0:0:0:0:
218,162,25907,1,2,0:0:0:0:
174,255,26022,1,2,0:0:0:0:
242,342,26138,6,0,P|313:304|354:320,1,92,2|2,3:2|0:0,0:0:0:0:
452,135,26368,1,2,0:0:0:0:
504,226,26484,2,0,P|413:230|359:159,1,184,2|0,0:0|2:0,0:0:0:0:
308,28,26830,6,0,P|246:93|226:89,1,92,2|0,0:0|0:0,0:0:0:0:
203,88,27061,2,0,P|176:41|185:8,1,92,2|0,3:2|0:0,0:0:0:0:
0,235,27291,6,0,P|11:145|30:137,1,92,2|0,0:0|0:0,0:0:0:0:
49,124,27522,2,0,P|98:146|110:178,1,92,10|2,0:0|0:0,0:0:0:0:
88,274,27753,5,2,0:0:0:0:
150,330,27868,1,2,0:0:0:0:
230,282,27984,2,0,B|211:323|211:323|230:379,1,92,2|2,3:2|0:0,0:0:0:0:
383,158,28214,1,2,0:0:0:0:
460,195,28330,2,0,P|414:269|333:236,1,184,2|0,0:0|2:0,0:0:0:0:
246,99,28676,2,0,B|268:141|268:141|248:200,1,92,2|0,0:0|0:0,0:0:0:0:
100,344,28907,6,0,P|95:246|168:265,1,184,2|2,3:2|0:0,0:0:0:0:
75,41,29253,1,2,0:0:0:0:
75,41,29368,2,0,P|32:129|17:131,1,92,10|0,0:0|0:0,0:0:0:0:
237,23,29599,2,0,P|178:108|144:107,1,92,2|0,0:0|0:0,0:0:0:0:
214,336,29830,5,0,3:0:0:0:
197,291,29945,1,2,0:0:0:0:
213,246,30061,1,2,0:0:0:0:
279,187,30176,1,2,0:0:0:0:
363,223,30291,5,10,0:0:0:0:
459,166,30407,1,2,0:0:0:0:
460,54,30522,1,2,0:0:0:0:
364,8,30638,1,2,0:0:0:0:
280,75,30753,6,0,L|148:76,1,92,2|2,3:2|0:0,0:0:0:0:
84,216,30984,2,0,L|216:215,1,92,2|2,0:0|0:0,0:0:0:0:
405,330,31214,2,0,P|333:232|287:254,1,184,10|0,0:0|0:0,0:0:0:0:
216,315,31560,1,2,0:0:0:0:
216,315,31676,6,0,L|106:326,1,92,4|2,0:0|0:0,0:0:0:0:
43,233,32138,1,0,3:0:0:0:
158,93,32368,2,0,B|178:142|178:142|155:239,1,138,2|0,0:0|0:0,0:0:0:0:
158,224,32830,1,2,0:0:0:0:
58,138,33061,1,0,3:0:0:0:
233,38,33291,6,0,P|270:74|313:63,1,92,2|0,0:0|3:0,0:0:0:0:
487,39,33753,2,0,P|450:3|407:14,1,92,2|0,0:0|3:0,0:0:0:0:
275,183,34214,1,2,0:0:0:0:
275,183,34330,1,0,0:0:0:0:
275,183,34445,2,0,P|341:177|380:150,1,92,0|2,3:0|0:0,0:0:0:0:
510,304,34907,2,0,P|469:278|411:281,1,92,0|2,3:0|0:0,0:0:0:0:
338,384,35367,5,0,3:0:0:0:
264,189,35599,1,2,0:0:0:0:
426,276,35830,1,0,3:0:0:0:
216,321,36061,1,2,0:0:0:0:
382,161,36291,1,0,3:0:0:0:
196,55,36522,1,2,0:0:0:0:
196,55,36638,1,0,0:0:0:0:
196,55,36753,1,0,3:0:0:0:
276,216,36984,6,0,P|261:168|290:124,1,92,2|0,0:0|3:0,0:0:0:0:
400,0,37445,2,0,P|418:41|402:83,1,92,2|0,0:0|3:0,0:0:0:0:
278,132,37907,1,2,0:0:0:0:
206,24,38138,1,0,3:0:0:0:
371,181,38368,1,2,0:0:0:0:
155,194,38599,1,0,3:0:0:0:
328,43,38830,1,2,0:0:0:0:
265,283,39061,6,0,P|193:291|180:367,1,149.499993156433,4|2,3:2|0:0,0:0:0:0:
10,302,39407,1,2,0:0:0:0:
10,302,39522,2,0,L|88:285,1,74.7499965782167,8|0,0:0|0:0,0:0:0:0:
103,178,39753,2,0,P|45:180|26:205,1,74.7499965782167,2|0,0:0|0:0,0:0:0:0:
189,293,39984,2,0,B|172:210|229:224|216:138,1,149.499993156433,0|2,3:0|0:0,0:0:0:0:
74,35,40330,2,0,B|57:118|114:104|101:190,1,149.499993156433,2|0,0:3|0:0,0:0:0:0:
284,86,40676,2,0,P|248:59|214:60,1,74.7499965782167,2|0,0:0|0:0,0:0:0:0:
39,206,40907,6,0,P|86:176|115:182,2,74.7499965782167,0|2|2,3:0|0:0|0:0,0:0:0:0:
121,356,41253,2,0,P|111:302|101:278,1,74.7499965782167,2|8,0:0|0:0,0:0:0:0:
234,168,41484,2,0,P|221:203|216:240,1,74.7499965782167,0|2,0:0|0:0,0:0:0:0:
327,383,41714,1,2,0:0:0:0:
245,327,41830,2,0,P|293:302|393:303,1,149.499993156433,0|2,3:0|0:0,0:0:0:0:
500,334,42291,6,0,P|453:330|413:306,1,74.7499965782167,8|0,0:0|0:0,0:0:0:0:
362,115,42522,2,0,P|409:151|422:181,1,74.7499965782167,2|0,0:0|0:0,0:0:0:0:
319,372,42753,2,0,P|331:295|276:236,1,149.499993156433,0|2,3:0|0:0,0:0:0:0:
216,335,43099,1,2,0:0:0:0:
216,335,43214,2,0,P|172:322|114:333,1,74.7499965782167,8|0,0:0|0:0,0:0:0:0:
0,226,43445,2,0,P|89:222|138:176,1,149.499993156433,2|0,0:0|3:0,0:0:0:0:
128,69,43907,6,0,P|123:116|151:160,1,74.7499965782167,2|0,0:0|0:0,0:0:0:0:
253,298,44138,2,0,P|228:229|202:215,1,74.7499965782167,8|0,0:0|0:0,0:0:0:0:
264,30,44368,2,0,P|235:107|331:72,1,224.24998973465,6|0,0:0|2:0,0:0:0:0:
470,30,44830,2,0,P|442:44|433:90,1,74.7499965782167,2|2,0:0|0:0,0:0:0:0:
487,281,45061,2,0,P|465:201|376:232,1,184,8|2,0:0|0:0,0:0:0:0:
329,295,45407,1,2,0:0:0:0:
376,375,45522,5,0,3:0:0:0:
382,218,45868,5,0,3:0:0:0:
229,304,46214,5,0,3:0:0:0:
300,151,46445,6,0,P|229:187|197:164,1,80.499997543335,4|0,3:2|0:0,0:0:0:0:
86,65,46676,2,0,P|128:67|165:116,1,80.499997543335,2|2,0:0|0:0,0:0:0:0:
257,291,46907,2,0,P|181:268|163:237,1,80.499997543335,8|0,0:0|0:0,0:0:0:0:
51,181,47138,2,0,B|14:279|83:247|52:350,1,160.99999508667,2|0,0:0|3:0,0:0:0:0:
24,379,47599,2,0,P|74:329|111:328,1,80.499997543335,2|0,0:0|0:0,0:0:0:0:
196,330,47830,2,0,P|241:361|254:398,1,80.499997543335,8|0,0:0|0:0,0:0:0:0:
24,165,48061,6,0,P|99:236|158:209,1,160.99999508667,2|0,0:0|3:0,0:0:0:0:
246,52,48522,2,0,P|158:20|105:81,1,160.99999508667,2|8,0:0|0:0,0:0:0:0:
78,37,48984,2,0,P|114:92|99:125,1,80.499997543335,2|0,0:0|0:0,0:0:0:0:
221,101,49214,2,0,P|194:185|166:198,1,80.499997543335,0|0,3:0|0:0,0:0:0:0:
44,288,49445,2,0,P|81:209|103:203,1,80.499997543335,2|0,0:0|0:0,0:0:0:0:
151,384,49676,2,0,B|141:344|141:344|165:303,1,80.499997543335,8|0,0:0|0:0,0:0:0:0:
250,311,49907,2,0,B|269:344|269:344|259:384,1,80.499997543335,2|0,0:0|0:0,0:0:0:0:
19,158,50138,6,0,P|71:232|138:215,1,160.99999508667,0|2,3:0|0:0,0:0:0:0:
193,127,50484,1,2,0:0:0:0:
193,127,50599,2,0,P|181:51|198:34,1,80.499997543335,8|0,0:0|0:0,0:0:0:0:
297,67,50830,2,0,P|319:12|350:4,1,80.499997543335,2|0,0:0|0:0,0:0:0:0:
227,283,51061,2,0,P|270:195|345:202,1,160.99999508667,0|2,3:0|0:0,0:0:0:0:
470,106,51407,1,2,0:0:0:0:
470,106,51522,2,0,P|403:98|384:69,1,80.499997543335,8|0,0:0|0:0,0:0:0:0:
344,351,51753,6,0,L|321:173,1,160.99999508667,2|0,0:0|3:0,0:0:0:0:
408,21,52214,2,0,L|431:199,1,160.99999508667,2|8,0:0|0:0,0:0:0:0:
449,211,52676,2,0,P|388:180|356:198,1,80.499997543335,2|0,0:0|0:0,0:0:0:0:
234,106,52907,2,0,P|273:104|301:76,1,80.499997543335,0|0,3:0|0:0,0:0:0:0:
388,284,53138,2,0,L|293:266,1,80.499997543335,2|0,0:0|0:0,0:0:0:0:
200,221,53368,2,0,B|180:274|180:274|192:329|192:329|170:386,1,160.99999508667,8|2,0:0|0:0,0:0:0:0:
11,334,53714,1,2,0:0:0:0:
11,334,53830,6,0,L|106:309,1,80.499997543335,4|0,3:2|0:0,0:0:0:0:
154,126,54061,2,0,P|107:153|105:197,1,80.499997543335,2|2,0:0|0:0,0:0:0:0:
218,358,54291,2,0,P|201:262|246:235,1,160.99999508667,8|2,0:0|0:0,0:0:0:0:
322,292,54638,1,2,0:0:0:0:
407,247,54753,2,0,B|391:183|391:183|398:150|398:150|379:70,1,160.99999508667,0|2,3:0|0:0,0:0:0:0:
512,0,55099,2,0,B|497:59|497:59|504:92|504:92|488:156,1,160.99999508667,2|0,0:0|0:0,0:0:0:0:
311,40,55445,2,0,P|371:-1|397:4,1,80.499997543335,2|0,0:0|0:0,0:0:0:0:
357,174,55676,6,0,B|250:158,1,80.499997543335,0|0,3:0|0:0,0:0:0:0:
118,88,55907,1,2,0:0:0:0:
179,7,56022,2,0,P|214:63|207:101,1,80.499997543335,2|8,0:0|0:0,0:0:0:0:
50,152,56253,2,0,P|17:105|27:65,1,80.499997543335,2|2,0:0|0:0,0:0:0:0:
177,177,56484,1,2,0:0:0:0:
177,177,56599,2,0,B|163:221|163:221|175:285|175:285|149:354,1,160.99999508667,0|2,3:0|0:0,0:0:0:0:
128,338,57061,6,0,P|200:316|225:332,1,80.499997543335,8|0,0:0|0:0,0:0:0:0:
372,224,57291,2,0,P|303:233|264:200,1,80.499997543335,2|0,0:0|0:0,0:0:0:0:
154,62,57522,2,0,P|187:135|189:226,1,160.99999508667,0|2,3:0|0:0,0:0:0:0:
7,210,57868,1,2,0:0:0:0:
7,210,57984,2,0,P|53:205|116:182,1,80.499997543335,8|0,0:0|0:0,0:0:0:0:
95,363,58214,2,0,P|183:317|257:335,1,160.99999508667,2|0,0:0|3:0,0:0:0:0:
274,336,58676,6,0,P|262:279|282:254,1,80.499997543335,2|0,0:0|0:0,0:0:0:0:
407,124,58907,2,0,P|419:181|399:206,1,80.499997543335,8|0,0:0|0:0,0:0:0:0:
164,302,59138,2,0,P|179:213|260:172,1,160.99999508667,2|0,0:0|3:0,0:0:0:0:
312,65,59484,1,2,0:0:0:0:
312,65,59599,2,0,P|232:58|215:36,1,80.499997543335,2|0,0:0|0:0,0:0:0:0:
68,3,59830,2,0,P|137:57|126:122,1,160.99999508667,8|2,0:0|0:0,0:0:0:0:
48,193,60176,1,2,0:0:0:0:
48,193,60291,2,0,P|49:277|67:291,1,80.499997543335,0|0,3:0|0:0,0:0:0:0:
281,267,60522,5,2,3:0:0:0:
209,230,60638,1,2,3:0:0:0:
141,278,60753,2,0,P|148:332|153:377,1,80.499997543335,10|2,3:0|3:0,0:0:0:0:
298,102,60984,2,0,P|292:141|288:181,1,80.499997543335,4|4,3:0|3:0,0:0:0:0:
6,156,61214,6,0,B|58:185|58:185|174:161,1,160.99999508667,6|2,3:2|0:0,0:0:0:0:
99,271,61561,2,0,L|232:244,1,115,2|2,0:0|0:0,0:0:0:0:
188,354,61907,2,0,L|276:334,1,68.9999978942872,2|0,0:0|3:0,0:0:0:0:
408,255,62253,5,2,0:0:0:0:
354,186,62368,1,2,0:0:0:0:
311,267,62484,1,2,0:0:0:0:
366,344,62599,2,0,L|472:334,1,80.499997543335,10|0,0:0|0:0,0:0:0:0:
231,192,62830,2,0,L|337:182,1,80.499997543335,2|0,0:0|0:0,0:0:0:0:
458,2,63061,6,0,P|418:62|450:152,1,160.99999508667,0|2,3:0|0:0,0:0:0:0:
416,333,63407,2,0,P|412:262|364:231,1,115,2|2,0:0|0:0,0:0:0:0:
247,129,63753,2,0,P|250:188|273:206,1,68.9999978942872,2|0,0:0|3:0,0:0:0:0:
298,340,64099,5,2,0:0:0:0:
298,340,64214,2,0,P|259:305|221:313,1,80.499997543335,2|2,0:0|0:0,0:0:0:0:
22,241,64445,1,10,0:0:0:0:
109,290,64561,1,2,0:0:0:0:
181,224,64676,1,2,0:0:0:0:
134,128,64791,2,0,P|128:53|212:33,1,160.99999508667,2|0,0:0|0:0,0:0:0:0:
139,381,65138,5,2,0:0:0:0:
109,290,65253,1,2,0:0:0:0:
181,224,65367,1,10,0:0:0:0:
269,263,65484,1,2,0:0:0:0:
195,317,65599,1,2,0:0:0:0:
290,171,65714,2,0,P|360:230|342:315,1,160.99999508667,2|0,0:0|0:0,0:0:0:0:
181,224,66061,5,2,0:0:0:0:
145,140,66176,1,2,0:0:0:0:
201,57,66291,2,0,P|271:40|304:69,1,80.499997543335,10|2,0:0|0:0,0:0:0:0:
319,211,66522,1,2,0:0:0:0:
240,260,66638,6,0,P|225:161|281:141,1,160.99999508667,2|0,0:0|0:0,0:0:0:0:
375,314,66984,2,0,P|348:365|363:403,1,80.499997543335,2|0,0:0|0:0,0:0:0:0:
510,233,67214,2,0,P|470:233|431:223,1,80.499997543335,10|2,0:0|0:0,0:0:0:0:
344,130,67445,2,0,P|304:130|265:140,1,80.499997543335,2|2,0:3|0:3,0:0:0:0:
166,384,67676,6,0,B|159:295|94:343|96:230,1,160.99999508667,6|4,0:0|3:0,0:0:0:0:
267,88,68022,2,0,B|260:177|195:129|197:242,1,160.99999508667,0|2,3:0|0:0,0:0:0:0:
32,174,68368,2,0,P|98:143|122:152,1,80.499997543335,2|2,0:3|0:3,0:0:0:0:
166,384,68599,6,0,P|183:309|253:340,1,160.99999508667,0|2,3:0|0:0,0:0:0:0:
329,186,68945,1,0,0:0:0:0:
329,186,69061,2,0,P|346:261|416:230,1,160.99999508667,8|2,0:0|0:0,0:0:0:0:
77,268,69407,1,0,0:0:0:0:
77,268,69522,2,0,P|110:178|177:223,1,160.99999508667,0|2,3:0|0:0,0:0:0:0:
231,15,69868,1,0,0:0:0:0:
231,15,69984,2,0,P|271:95|325:52,1,160.99999508667,8|2,0:0|0:0,0:0:0:0:
409,19,70330,1,0,0:0:0:0:
409,19,70445,5,0,3:0:0:0:
301,243,70676,1,2,0:0:0:0:
247,30,70907,1,8,0:0:0:0:
441,250,71138,1,2,0:0:0:0:
131,122,71368,1,0,3:0:0:0:
362,187,71599,1,2,0:0:0:0:
165,333,71830,1,8,0:0:0:0:
234,85,72061,1,8,0:0:0:0:
234,85,72176,1,4,3:0:0:0:
234,85,72291,6,0,P|217:150|243:186,1,80.499997543335,6|0,3:2|0:0,0:0:0:0:
150,5,72522,2,0,P|98:47|97:92,1,80.499997543335,2|0,0:0|0:0,0:0:0:0:
212,252,72753,6,0,L|111:242,1,80.499997543335,8|0,0:0|0:0,0:0:0:0:
31,371,72984,2,0,L|225:358,1,160.99999508667,2|0,0:0|3:0,0:0:0:0:
389,333,73330,1,0,0:0:0:0:
299,302,73445,2,0,P|294:372|309:391,1,80.499997543335,4|4,3:0|3:0,0:0:0:0:
481,193,73676,5,8,3:2:0:0:
393,247,73791,1,4,3:0:0:0:
313,186,73907,1,8,0:3:0:0:
365,90,74022,1,8,0:3:0:0:
290,13,74138,6,0,L|193:2,1,80.499997543335,0|8,3:0|0:0,0:0:0:0:
105,226,74368,1,8,0:0:0:0:
4,149,74484,2,0,L|177:131,1,160.99999508667,8|8,0:0|3:2,0:0:0:0:
290,13,74830,5,8,0:0:0:0:
275,120,74945,1,8,0:0:0:0:
254,240,75061,1,8,3:2:0:0:
254,240,75984,6,0,L|236:354,1,103.499996841431,14|0,3:2|0:0,0:0:0:0:
81,128,76214,1,2,0:0:0:0:
37,212,76330,2,0,P|105:224|148:188,1,103.499996841431,2|8,0:0|0:0,0:0:0:0:
236,2,76561,2,0,P|197:20|176:75,1,103.499996841431,0|2,0:0|0:0,0:0:0:0:
255,200,76791,1,2,0:0:0:0:
280,93,76907,6,0,B|331:99|356:148|356:148|391:78|486:110,1,206.999993682861,0|2,3:0|0:0,0:0:0:0:
468,374,77253,1,2,0:0:0:0:
468,374,77368,2,0,P|484:304|532:284,1,92,8|0,0:0|0:0,0:0:0:0:
345,134,77599,2,0,P|388:186|377:231,1,92,2|0,0:0|0:0,0:0:0:0:
321,340,77830,6,0,L|206:335,1,103.499996841431,0|0,3:0|0:0,0:0:0:0:
79,190,78061,1,2,0:0:0:0:
5,243,78176,2,0,P|49:279|99:277,1,92,2|8,0:0|0:0,0:0:0:0:
273,188,78407,2,0,P|222:159|178:187,1,92,2|0,0:0|0:0,0:0:0:0:
93,109,78638,1,2,0:0:0:0:
169,35,78753,6,0,B|208:9|208:9|190:203,1,206.999993682861,0|2,3:0|0:0,0:0:0:0:
18,337,79214,2,0,P|45:293|109:287,1,92,8|0,0:0|0:0,0:0:0:0:
262,121,79445,2,0,P|234:160|187:167,1,92,2|0,0:0|0:0,0:0:0:0:
65,92,79676,6,0,P|75:140|81:189,1,92,0|0,3:0|0:0,0:0:0:0:
170,384,79907,2,0,P|176:335|186:287,1,92,2|0,0:0|0:0,0:0:0:0:
155,65,80138,6,0,P|193:149|200:182,1,92,8|0,0:0|0:0,0:0:0:0:
279,289,80368,2,0,P|298:220|330:166,1,92,2|0,0:0|0:0,0:0:0:0:
265,33,80599,6,0,P|297:78|350:85,1,92,0|0,3:0|0:0,0:0:0:0:
483,139,80830,2,0,P|429:82|384:83,1,92,2|0,0:0|0:0,0:0:0:0:
169,8,81061,6,0,P|189:117|212:134,1,92,8|0,0:0|0:0,0:0:0:0:
340,265,81291,2,0,P|295:180|269:173,1,92,2|0,0:0|0:0,0:0:0:0:
0,265,81522,6,0,P|72:165|159:205,1,206.999993682861,0|2,3:0|0:0,0:0:0:0:
99,373,81868,2,0,P|84:317|113:273,1,92,2|8,0:0|0:0,0:0:0:0:
262,205,82099,2,0,P|221:299|191:309,1,103.499996841431,2|0,0:0|0:0,0:0:0:0:
86,135,82330,1,2,0:0:0:0:
86,135,82445,2,0,B|219:163|146:54|324:101,1,206.999993682861,2|2,3:2|0:0,0:0:0:0:
315,93,82907,6,0,P|303:13|333:-16,1,103.499996841431,8|0,0:0|0:0,0:0:0:0:
466,183,83138,2,0,P|478:103|448:74,1,103.499996841431,2|0,0:0|0:0,0:0:0:0:
321,347,83368,2,0,P|277:268|363:245,1,206.999993682861,6|2,3:2|0:0,0:0:0:0:
207,384,83714,2,0,P|173:288|208:192,1,206.999993682861,2|0,0:0|0:0,0:0:0:0:
426,137,84061,2,0,P|377:151|310:116,1,92,2|0,0:0|0:0,0:0:0:0:
165,21,84291,6,0,P|234:112|199:201,1,206.999993682861,0|2,3:0|0:0,0:0:0:0:
3,181,84638,1,2,0:0:0:0:
67,97,84753,2,0,P|108:148|94:203,1,92,8|0,0:0|0:0,0:0:0:0:
0,350,84984,2,0,P|25:312|67:294,1,92,2|0,0:0|0:0,0:0:0:0:
208,383,85214,6,0,P|202:330|242:277,1,103.499996841431,0|0,3:0|0:0,0:0:0:0:
322,353,85445,1,2,0:0:0:0:
213,164,85561,2,0,P|244:196|289:202,1,92,2|8,0:0|0:0,0:0:0:0:
511,36,85791,2,0,P|470:10|423:17,1,92,2|0,0:0|0:0,0:0:0:0:
354,101,86022,1,2,0:0:0:0:
452,159,86138,6,0,B|417:274|512:245|440:411,1,206.999993682861,0|2,3:0|0:0,0:0:0:0:
282,348,86599,6,0,P|314:309|368:353,1,103.499996841431,8|0,0:0|0:0,0:0:0:0:
499,234,86830,2,0,P|460:248|416:210,1,103.499996841431,2|0,0:0|0:0,0:0:0:0:
183,329,87061,6,0,P|265:249|299:249,1,103.499996841431,0|0,3:0|0:0,0:0:0:0:
416,211,87291,2,0,P|370:185|341:127,1,103.499996841431,2|0,0:0|0:0,0:0:0:0:
238,4,87522,6,0,P|250:111|233:135,1,103.499996841431,8|0,0:0|0:0,0:0:0:0:
111,261,87753,2,0,P|180:185|223:184,1,103.499996841431,2|0,0:0|0:0,0:0:0:0:
305,277,87984,6,0,P|290:363|264:386,1,103.499996841431,0|0,3:0|0:0,0:0:0:0:
41,159,88214,2,0,P|117:103|159:107,1,103.499996841431,2|0,0:0|0:0,0:0:0:0:
251,142,88445,6,0,P|297:182|385:154,1,103.499996841431,8|0,0:0|0:0,0:0:0:0:
512,75,88676,2,0,P|485:34|423:17,1,103.499996841431,2|0,0:0|0:0,0:0:0:0:
372,92,88907,5,2,3:2:0:0:
437,174,89022,1,2,0:0:0:0:
372,262,89138,2,0,P|343:331|364:374,1,103.499996841431,2|0,0:0|0:0,0:0:0:0:
251,5,89368,2,0,P|268:100|239:136,1,103.499996841431,8|0,0:0|0:0,0:0:0:0:
185,201,89599,5,8,0:3:0:0:
133,193,89714,1,0,3:0:0:0:
35,93,89829,5,8,3:2:0:0:
85,97,89945,1,0,3:0:0:0:
209,23,90061,6,0,L|86:-6,1,103.499996841431,8|0,0:0|3:0,0:0:0:0:
32,250,90292,6,0,L|133:273,1,103.499996841431,8|0,0:0|3:0,0:0:0:0:
346,216,90522,1,8,0:0:0:0:
290,143,90638,1,0,3:0:0:0:
196,179,90753,6,0,P|217:93|287:160,1,206.999993682861,14|2,3:2|0:0,0:0:0:0:
165,380,91099,1,2,0:0:0:0:
96,322,91214,2,0,P|196:289|213:304,1,103.499996841431,8|0,0:0|0:0,0:0:0:0:
381,358,91445,2,0,P|312:367|271:335,1,103.499996841431,2|0,0:0|0:0,0:0:0:0:
351,75,91676,6,0,B|308:182|387:153|336:290,1,206.999993682861,0|2,3:0|0:0,0:0:0:0:
260,218,92022,1,0,0:0:0:0:
425,122,92138,2,0,P|455:148|517:123,1,103.499996841431,8|0,0:0|0:0,0:0:0:0:
221,9,92368,2,0,P|251:-17|313:8,1,103.499996841431,2|0,0:0|0:0,0:0:0:0:
76,102,92599,6,0,P|67:39|37:-9,1,103.499996841431,0|0,3:0|0:0,0:0:0:0:
260,218,92830,1,2,0:0:0:0:
163,221,92945,2,0,P|171:170|192:123,1,103.499996841431,2|8,0:0|0:0,0:0:0:0:
93,384,93176,2,0,P|85:333|65:286,1,103.499996841431,2|0,0:0|0:0,0:0:0:0:
2,183,93407,1,2,0:0:0:0:
2,183,93522,6,0,P|117:252|173:204,1,206.999993682861,0|2,3:0|0:0,0:0:0:0:
179,110,93868,1,0,0:0:0:0:
269,36,93984,2,0,P|317:29|372:73,1,103.499996841431,8|0,0:0|0:0,0:0:0:0:
323,248,94214,2,0,P|317:188|290:143,1,103.499996841431,2|0,0:0|0:0,0:0:0:0:
466,36,94445,6,0,P|430:124|429:158,1,103.499996841431,0|0,3:0|0:0,0:0:0:0:
512,208,94676,2,0,P|476:296|475:330,1,103.499996841431,2|0,0:0|0:0,0:0:0:0:
300,377,94907,6,0,P|288:326|263:281,1,103.499996841431,8|0,0:0|0:0,0:0:0:0:
346,205,95138,2,0,P|334:154|309:109,1,103.499996841431,2|0,0:0|0:0,0:0:0:0:
135,46,95368,6,0,P|210:26|242:60,1,103.499996841431,0|0,3:0|0:0,0:0:0:0:
94,192,95599,2,0,P|46:207|2:182,1,103.499996841431,2|0,0:0|0:0,0:0:0:0:
135,46,95830,6,0,P|192:81|192:147,1,103.499996841431,8|0,0:0|0:0,0:0:0:0:
48,207,96061,2,0,P|6:155|16:98,1,103.499996841431,2|0,0:0|0:0,0:0:0:0:
23,332,96291,6,0,B|127:289|133:383|240:322,1,206.999993682861,0|2,3:0|0:0,0:0:0:0:
233,175,96638,2,0,P|199:187|174:266,1,103.499996841431,2|8,0:0|0:0,0:0:0:0:
319,384,96868,2,0,P|307:308|333:283,1,103.499996841431,2|0,0:0|0:0,0:0:0:0:
427,104,97099,1,2,0:0:0:0:
511,166,97214,2,0,P|407:216|344:113,1,206.999993682861,2|0,3:2|0:0,0:0:0:0:
323,129,97676,6,0,P|350:200|325:237,1,103.499996841431,8|0,0:0|0:0,0:0:0:0:
221,384,97907,2,0,P|220:303|256:271,1,103.499996841431,2|0,0:0|0:0,0:0:0:0:
205,21,98138,6,0,P|274:90|230:177,1,206.999993682861,6|2,3:2|0:0,0:0:0:0:
52,98,98484,2,0,P|126:96|142:148,1,103.499996841431,2|8,0:0|0:0,0:0:0:0:
0,281,98714,1,2,0:0:0:0:
69,200,98830,2,0,P|90:293|92:337,1,103.499996841431,2|0,0:0|0:0,0:0:0:0:
268,7,99061,6,0,P|229:102|218:205,1,206.999993682861,0|2,3:0|0:0,0:0:0:0:
138,113,99407,1,2,0:0:0:0:
333,108,99522,2,0,P|376:90|450:88,1,103.499996841431,8|0,0:0|0:0,0:0:0:0:
506,223,99753,2,0,P|454:219|406:200,1,103.499996841431,2|0,0:0|0:0,0:0:0:0:
312,384,99984,6,0,P|344:290|383:280,1,103.499996841431,0|0,3:0|0:0,0:0:0:0:
221,104,100214,2,0,P|261:199|240:226,1,103.499996841431,2|0,0:0|0:0,0:0:0:0:
148,384,100445,2,0,P|172:291|210:269,1,103.499996841431,8|0,0:0|0:0,0:0:0:0:
0,189,100676,2,0,B|55:187|85:240|85:240|103:191|184:185,1,206.999993682861,2|0,0:0|3:0,0:0:0:0:
187,185,101138,6,0,P|148:104|164:73,1,103.499996841431,2|2,0:0|0:0,0:0:0:0:
332,0,101368,2,0,P|290:101|310:120,1,103.499996841431,8|0,0:0|0:0,0:0:0:0:
448,173,101599,2,0,P|434:114|390:94,1,103.499996841431,2|0,0:0|0:0,0:0:0:0:
218,227,101830,5,4,0:3:0:0:
242,186,101945,1,2,0:3:0:0:
293,182,102061,1,2,0:3:0:0:
364,220,102176,1,2,0:3:0:0:
448,173,102291,5,8,0:0:0:0:
455,61,102407,1,2,0:3:0:0:
357,11,102522,1,2,0:3:0:0:
280,77,102638,1,6,3:0:0:0:
286,92,102984,6,0,L|178:88,1,74.7499965782167,4|0,3:0|0:0,0:0:0:0:
114,27,103214,2,0,L|6:31,1,74.7499965782167,2|2,0:0|0:0,0:0:0:0:
306,182,103445,2,0,L|198:178,1,74.7499965782167,2|2,0:0|0:0,0:0:0:0:
80,213,103676,5,6,3:2:0:0:
11,111,110599,5,10,0:0:0:0:
55,138,110714,1,2,0:0:0:0:
109,112,110830,1,2,0:0:0:0:
170,32,110945,1,2,0:0:0:0:
267,16,111061,5,6,3:2:0:0:
336,94,111176,2,0,P|291:179|305:197,1,92,2|0,0:0|0:0,0:0:0:0:
433,336,111407,2,0,P|448:240|351:184,1,184,2|0,0:0|2:0,0:0:0:0:
251,297,111753,2,0,B|291:275|291:275|349:289,1,92,2|0,0:0|0:0,0:0:0:0:
112,191,111984,6,0,B|157:208|157:208|213:189,1,92,2|0,3:2|0:0,0:0:0:0:
358,75,112214,2,0,B|313:58|313:58|257:77,1,92,2|0,0:0|0:0,0:0:0:0:
144,313,112445,2,0,L|259:272,1,92,10|2,0:0|0:0,0:0:0:0:
423,222,112676,1,2,0:0:0:0:
337,171,112791,1,2,0:0:0:0:
336,285,112907,6,0,P|309:341|362:397,1,92,2|2,3:2|0:0,0:0:0:0:
160,136,113138,1,0,0:0:0:0:
220,46,113253,2,0,P|265:150|234:223,1,184,2|0,0:0|2:0,0:0:0:0:
109,345,113599,6,0,P|189:321|217:335,1,92,2|0,0:0|0:0,0:0:0:0:
0,210,113830,2,0,P|80:234|108:220,1,92,2|0,3:2|0:0,0:0:0:0:
192,322,114061,6,0,P|280:286|311:302,1,92,2|0,0:0|0:0,0:0:0:0:
131,107,114291,2,0,P|209:175|230:169,1,92,10|2,0:0|0:0,0:0:0:0:
374,67,114522,1,2,0:0:0:0:
312,0,114638,1,2,0:0:0:0:
280,91,114753,5,2,3:2:0:0:
342,166,114868,2,0,L|457:148,1,92,2|0,0:0|0:0,0:0:0:0:
491,370,115099,2,0,P|475:260|415:285,1,184,2|0,0:0|2:0,0:0:0:0:
358,318,115445,1,2,0:0:0:0:
273,244,115561,1,2,0:0:0:0:
342,166,115676,6,0,P|353:108|319:74,1,92,2|0,3:2|0:0,0:0:0:0:
229,13,115907,2,0,P|218:71|252:105,1,92,2|0,0:0|0:0,0:0:0:0:
389,150,116138,6,0,P|349:88|306:83,1,92,10|0,0:0|0:0,0:0:0:0:
181,28,116368,2,0,P|221:90|264:95,1,92,2|0,0:0|0:0,0:0:0:0:
337,244,116599,5,6,3:2:0:0:
300,195,116714,1,2,0:0:0:0:
246,199,116830,1,2,0:0:0:0:
172,248,116945,1,2,0:0:0:0:
83,211,117061,2,0,P|61:143|77:117,1,92,10|2,0:0|0:0,0:0:0:0:
160,26,117291,2,0,P|182:94|166:120,1,92,2|2,0:0|0:0,0:0:0:0:
45,353,117522,5,2,3:2:0:0:
78,315,117638,1,2,0:0:0:0:
126,309,117753,1,2,0:0:0:0:
209,354,117868,1,2,0:0:0:0:
297,300,117984,2,0,P|273:236|208:269,1,126.500003860474,10|2,0:0|0:0,0:0:0:0:
97,113,118330,1,2,0:0:0:0:
97,113,118445,6,0,P|150:153|230:109,2,138,6|2|2,3:2|0:0|0:0,0:0:0:0:
213,133,119368,2,0,P|258:89|332:119,2,138,2|2|2,3:2|0:0|0:0,0:0:0:0:
324,108,120291,2,0,P|382:135|413:127,1,92,0|2,3:0|0:0,0:0:0:0:
482,43,120753,2,0,P|431:12|386:19,1,92,8|2,0:0|0:0,0:0:0:0:
450,229,121214,1,2,3:2:0:0:
407,129,121445,1,2,0:0:0:0:
432,351,121676,1,8,0:0:0:0:
474,227,121906,1,2,0:0:0:0:
386,153,122138,6,0,P|346:213|368:288,2,138,2|2|2,3:2|0:0|0:0,0:0:0:0:
357,31,123061,2,0,P|397:91|375:166,2,138,2|2|2,3:2|0:0|0:0,0:0:0:0:
272,12,123984,2,0,P|345:20|369:51,1,92,0|2,3:0|0:0,0:0:0:0:
289,113,124445,2,0,P|216:105|192:74,1,92,8|2,0:0|0:0,0:0:0:0:
130,22,124791,1,2,0:0:0:0:
130,22,124907,6,0,L|111:87,1,46,2|2,3:2|0:0,0:0:0:0:
32,138,125138,2,0,L|51:203,1,46,2|2,0:0|0:0,0:0:0:0:
206,211,125368,2,0,L|136:201,1,46,10|2,0:0|0:0,0:0:0:0:
46,316,125599,2,0,L|116:306,1,46,2|2,0:0|0:0,0:0:0:0:
239,382,125830,6,0,P|243:339|267:322,1,46,2|2,3:2|0:0,0:0:0:0:
332,272,126061,1,2,0:0:0:0:
332,272,126176,1,2,0:0:0:0:
332,272,126291,2,0,P|358:229|353:213,1,46,10|2,0:0|0:0,0:0:0:0:
197,200,126521,2,0,P|219:244|235:249,1,46,2|2,0:0|0:0,0:0:0:0:
301,146,126753,6,0,L|371:139,2,46,2|2|2,3:2|0:0|0:0,0:0:0:0:
246,66,127099,1,2,0:0:0:0:
246,66,127214,2,0,L|327:58,1,46,10|2,0:0|0:0,0:0:0:0:
409,0,127445,2,0,P|401:31|421:68,1,46,2|2,0:0|0:0,0:0:0:0:
493,108,127676,6,0,P|493:139|472:176,1,46,2|2,3:2|0:0,0:0:0:0:
402,231,127907,1,2,0:0:0:0:
402,231,128021,2,0,P|394:252|399:274,1,46,2|10,0:0|0:0,0:0:0:0:
508,365,128253,1,2,0:0:0:0:
508,365,128368,2,0,L|452:363,1,46,2|2,0:0|0:0,0:0:0:0:
218,307,128598,6,0,P|281:319|321:276,1,92,2|0,3:2|0:0,0:0:0:0:
365,213,128945,1,2,0:0:0:0:
365,213,129061,2,0,P|330:177|315:176,1,46,10|2,0:0|0:0,0:0:0:0:
230,156,129291,2,0,P|199:158|170:144,1,46,2|2,0:0|0:0,0:0:0:0:
75,28,129522,6,0,P|90:69|83:112,1,46,2|2,3:2|0:0,0:0:0:0:
15,188,129752,2,0,P|6:166|8:143,1,46,2|2,0:0|0:0,0:0:0:0:
104,217,129983,2,0,P|112:238|110:261,1,46,10|2,0:0|0:0,0:0:0:0:
30,359,130214,2,0,L|145:348,1,92,2|2,0:0|3:2,0:0:0:0:
202,302,130561,5,2,0:0:0:0:
235,352,130676,1,2,0:0:0:0:
293,361,130791,1,2,0:0:0:0:
346,321,130907,2,0,P|371:289|364:250,1,68.9999978942872,10|2,0:0|0:0,0:0:0:0:
444,29,131138,1,2,0:0:0:0:
444,29,131253,2,0,P|415:102|424:126,1,92,2|0,0:0|0:0,0:0:0:0:
505,192,131599,6,0,B|454:157|392:182|392:182|428:189|442:231,1,160.99999508667,2|8,0:0|0:0,0:0:0:0:
250,324,131945,2,0,B|301:289|363:314|363:314|327:321|313:363,1,160.99999508667,2|0,0:0|3:0,0:0:0:0:
309,139,132291,2,0,P|274:210|237:206,1,80.499997543335,2|0,3:2|0:0,0:0:0:0:
188,67,132522,2,0,P|209:20|260:14,1,80.499997543335,2|2,3:2|0:0,0:0:0:0:
192,247,132753,1,8,0:0:0:0:
179,189,132868,1,2,0:0:0:0:
133,160,132984,1,2,0:0:0:0:
71,161,133099,1,2,0:0:0:0:
33,208,133214,6,0,P|52:250|54:315,1,97.7500018644333,6|2,3:2|0:0,0:0:0:0:
276,352,133445,1,2,0:0:0:0:
204,293,133561,1,2,0:0:0:0:
171,379,133676,2,0,P|163:317|205:276,1,97.7500018644333,10|2,0:0|0:0,0:0:0:0:
281,241,133907,2,0,P|353:288|349:326,1,97.7500018644333,2|2,0:0|0:0,0:0:0:0:
60,143,134138,6,0,B|89:191|146:186|146:186|169:136|230:129,1,195.500003728867,2|2,3:2|0:0,0:0:0:0:
399,69,134484,1,2,0:0:0:0:
336,0,134599,2,0,P|299:29|300:76,1,97.7500018644333,10|2,0:0|0:0,0:0:0:0:
374,185,134830,1,2,0:0:0:0:
374,185,134945,1,2,0:0:0:0:
374,185,135061,6,0,L|486:164,1,97.7500018644333,2|0,3:2|0:0,0:0:0:0:
284,381,135291,1,2,0:0:0:0:
347,309,135407,2,0,L|212:284,1,97.7500018644333,2|8,0:0|0:0,0:0:0:0:
12,245,135637,6,0,P|0:197|20:149,1,97.7500018644333,2|2,0:0|0:0,0:0:0:0:
145,117,135868,1,2,0:0:0:0:
93,204,135984,2,0,L|209:190,1,97.7500018644333,2|2,3:2|0:0,0:0:0:0:
388,18,136214,2,0,P|319:27|305:61,1,97.7500018644333,10|0,0:0|0:0,0:0:0:0:
372,143,136445,5,10,0:0:0:0:
363,182,136561,1,2,0:0:0:0:
283,265,136676,5,2,0:0:0:0:
292,304,136792,1,2,0:0:0:0:
373,376,136907,6,0,P|439:361|490:355,1,97.7500018644333,2|2,3:2|0:0,0:0:0:0:
275,233,137138,2,0,P|209:218|158:212,1,97.7500018644333,2|2,0:0|0:0,0:0:0:0:
87,384,137368,2,0,P|105:301|134:283,1,97.7500018644333,10|2,0:0|0:0,0:0:0:0:
0,110,137599,1,2,0:0:0:0:
58,20,137714,6,0,P|94:121|49:216,1,195.500003728867,2|2,0:0|0:0,0:0:0:0:
190,379,138061,1,2,0:0:0:0:
162,287,138176,1,2,0:0:0:0:
224,219,138291,2,0,P|276:194|346:224,1,97.7500018644333,10|2,0:0|0:0,0:0:0:0:
506,281,138522,2,0,P|458:285|416:261,1,97.7500018644333,2|2,0:0|0:0,0:0:0:0:
380,31,138753,6,0,L|401:156,1,97.7500018644333,2|0,3:2|0:0,0:0:0:0:
223,236,138984,1,2,0:0:0:0:
293,295,139099,2,0,L|319:174,1,97.7500018644333,2|8,0:0|0:0,0:0:0:0:
118,80,139330,1,2,0:0:0:0:
183,15,139445,2,0,L|209:136,1,97.7500018644333,2|0,0:0|0:0,0:0:0:0:
277,384,139676,6,0,P|209:284|129:354,1,195.500003728867,2|10,3:2|0:0,0:0:0:0:
126,315,140022,1,2,0:0:0:0:
44,310,140138,1,10,0:0:0:0:
3,230,140253,1,2,0:0:0:0:
54,151,140368,1,2,0:0:0:0:
145,158,140484,6,0,P|178:79|91:19,1,195.500003728867,2|0,0:0|2:0,0:0:0:0:
1,85,140830,2,0,P|57:112|97:86,1,97.7500018644333,2|0,0:0|0:0,0:0:0:0:
192,21,141061,1,10,0:0:0:0:
280,15,141176,1,2,0:0:0:0:
329,86,141291,1,2,0:0:0:0:
303,173,141407,6,0,P|244:236|301:353,1,195.500003728867,2|0,0:0|0:0,0:0:0:0:
383,345,141753,2,0,P|368:290|317:261,1,97.7500018644333,2|0,0:0|0:0,0:0:0:0:
172,170,141984,1,10,0:0:0:0:
247,215,142099,1,2,0:0:0:0:
319,149,142214,1,2,0:0:0:0:
262,59,142329,6,0,P|367:-5|462:121,1,293.2500055933,2|2,3:2|0:0,0:0:0:0:
479,295,142791,1,0,0:0:0:0:
387,286,142907,6,0,P|426:213|458:207,1,97.7500018644333,10|0,0:0|0:0,0:0:0:0:
374,123,143138,2,0,P|464:104|499:134,1,97.7500018644333,2|0,0:0|0:0,0:0:0:0:
303,256,143368,6,0,P|384:218|405:226,1,97.7500018644333,2|0,3:2|0:0,0:0:0:0:
253,74,143599,2,0,P|306:130|346:132,1,97.7500018644333,2|0,0:0|0:0,0:0:0:0:
284,374,143830,6,0,P|269:293|240:276,1,97.7500018644333,8|0,0:0|0:0,0:0:0:0:
152,64,144061,2,0,P|167:145|196:162,1,97.7500018644333,2|0,0:0|0:0,0:0:0:0:
432,226,144291,5,4,3:2:0:0:
432,226,144407,1,2,0:3:0:0:
432,226,144522,1,2,0:3:0:0:
382,188,144638,1,2,0:3:0:0:
325,181,144753,1,8,0:0:0:0:
281,209,144868,1,2,0:3:0:0:
201,264,144984,1,2,0:3:0:0:
109,227,145099,1,2,0:3:0:0:
97,122,145214,5,4,3:0:0:0:
97,122,145676,2,0,P|112:68|99:24,1,97.7500018644333,2|2,3:2|0:0,0:0:0:0:
5,75,145907,2,0,P|-10:119|9:172,1,97.7500018644333,2|2,0:0|0:0,0:0:0:0:
54,370,146138,5,2,3:2:0:0:
19,284,146253,1,2,0:0:0:0:
88,223,146368,1,2,0:0:0:0:
175,254,146484,2,0,P|214:257|240:209,1,57.5,2|0,0:0|0:0,0:0:0:0:
308,92,146714,5,2,0:0:0:0:
229,42,146830,1,2,0:0:0:0:
173,115,146945,2,0,L|189:200,1,57.5,2|0,0:0|0:0,0:0:0:0:
284,357,147175,5,2,0:0:0:0:
284,357,147290,2,0,P|313:329|359:338,1,57.5,2|2,3:2|0:0,0:0:0:0:
419,365,147521,1,10,0:0:0:0:
493,300,147637,1,2,0:0:0:0:
455,209,147752,2,0,L|362:214,1,57.5
312,160,147983,5,2,0:0:0:0:
312,160,148098,2,0,L|224:168,1,57.5,2|0,0:0|3:0,0:0:0:0:
103,43,148329,5,2,0:0:0:0:
119,45,148444,2,0,L|207:53,1,57.5,10|0,0:0|0:0,0:0:0:0:
354,241,148675,5,2,0:0:0:0:
324,244,148790,2,0,L|236:252,1,57.5,2|0,3:2|0:0,0:0:0:0:
30,215,149021,5,2,0:0:0:0:
12,169,149137,1,2,3:2:0:0:
43,127,149252,1,2,0:0:0:0:
133,136,149367,1,10,0:0:0:0:
148,233,149483,1,2,0:0:0:0:
81,304,149598,2,0,P|65:332|74:358,1,57.5,2|2,0:0|0:0,0:0:0:0:
313,302,149829,5,2,3:2:0:0:
254,375,149944,1,2,0:0:0:0:
199,304,150060,1,2,0:0:0:0:
258,230,150175,2,0,P|262:186|244:160,1,57.5,2|0,0:0|0:0,0:0:0:0:
100,20,150406,5,2,0:0:0:0:
46,94,150521,1,2,0:0:0:0:
96,171,150637,2,0,L|171:168,1,57.5,2|0,0:0|0:0,0:0:0:0:
436,63,150867,5,2,0:0:0:0:
405,20,150983,1,2,3:2:0:0:
354,15,151098,1,2,0:0:0:0:
304,39,151213,5,10,0:0:0:0:
291,124,151329,1,2,0:0:0:0:
354,195,151444,1,2,0:0:0:0:
337,277,151560,1,2,0:0:0:0:
378,365,151675,5,2,0:0:0:0:
390,364,151790,2,0,L|493:355,1,57.5,2|0,0:0|3:0,0:0:0:0:
254,253,152021,5,2,0:0:0:0:
226,253,152136,2,0,L|123:244,1,57.5,10|0,0:0|0:0,0:0:0:0:
358,173,152367,5,2,0:0:0:0:
401,169,152482,2,0,L|504:160,1,57.5,2|0,3:2|0:0,0:0:0:0:
337,38,152713,5,2,0:0:0:0:
284,17,152828,1,2,3:2:0:0:
231,38,152943,1,2,0:0:0:0:
207,89,153059,1,10,0:0:0:0:
223,143,153174,1,2,0:0:0:0:
270,173,153290,2,0,P|280:215|256:246,1,57.5,2|2,3:2|0:0,0:0:0:0:
4,111,153522,5,2,3:2:0:0:
66,56,153638,2,0,P|88:112|74:141,1,68.9999978942872,2|0,0:0|0:0,0:0:0:0:
82,301,153868,5,2,0:0:0:0:
3,274,153984,2,0,P|40:226|72:224,1,68.9999978942872,10|0,0:0|0:0,0:0:0:0:
256,181,154214,5,2,0:0:0:0:
182,121,154330,2,0,B|161:176|161:176|187:263,1,137.999995788574,2|2,0:0|0:0,0:0:0:0:
236,338,154676,5,2,0:0:0:0:
270,334,154791,1,2,0:0:0:0:
348,259,154907,5,10,0:0:0:0:
382,263,155022,1,2,0:0:0:0:
474,330,155138,6,0,P|467:290|485:253,1,68.9999978942872,2|2,0:0|0:0,0:0:0:0:
314,56,155368,5,2,3:2:0:0:
419,50,155484,2,0,L|392:141,1,68.9999978942872,2|0,0:0|0:0,0:0:0:0:
215,77,155714,5,2,0:0:0:0:
314,56,155830,2,0,L|287:147,1,68.9999978942872,10|0,0:0|0:0,0:0:0:0:
123,96,156061,5,2,0:0:0:0:
215,77,156175,2,0,B|202:128|202:128|208:168|208:168|185:233,1,137.999995788574,2|2,0:0|0:0,0:0:0:0:
6,335,156522,5,2,0:0:0:0:
49,303,156638,1,2,0:0:0:0:
107,324,156753,2,0,P|134:351|118:416,1,68.9999978942872,10|2,0:0|0:0,0:0:0:0:
106,185,156984,1,2,0:0:0:0:
192,227,157099,1,2,0:0:0:0:
269,146,157214,6,0,P|269:95|290:72,1,68.9999978942872,2|2,3:2|0:0,0:0:0:0:
435,166,157445,1,2,0:0:0:0:
510,126,157561,2,0,L|353:111,1,137.999995788574,2|2,0:0|0:0,0:0:0:0:
281,313,157907,1,2,0:0:0:0:
235,237,158022,2,0,L|311:226,1,68.9999978942872,2|0,0:0|3:0,0:0:0:0:
504,248,158253,5,2,0:0:0:0:
477,212,158368,1,2,0:0:0:0:
429,212,158484,1,2,0:0:0:0:
387,235,158599,1,10,0:0:0:0:
319,312,158714,1,2,0:0:0:0:
231,256,158830,1,2,0:0:0:0:
267,153,158945,1,2,0:0:0:0:
215,63,159061,6,0,P|194:40|132:53,2,68.9999978942872,2|2|2,3:2|0:0|0:0,0:0:0:0:
59,272,159407,1,2,0:0:0:0:
7,191,159522,2,0,L|101:167,1,68.9999978942872,10|2,0:0|0:0,0:0:0:0:
74,368,159753,2,0,L|7:350,1,68.9999978942872,2|2,0:0|0:0,0:0:0:0:
166,269,159984,5,2,3:2:0:0:
173,300,160099,1,2,0:0:0:0:
267,253,160214,5,2,0:0:0:0:
272,281,160330,1,2,0:0:0:0:
374,230,160445,6,0,L|382:283,6,34.4999989471436,10|2|2|2|2|2|2,0:0|0:0|0:0|0:0|0:0|0:0|0:0,0:0:0:0:
491,128,160907,6,0,B|443:96|372:114|372:114|403:112|448:145,1,184,6|2,3:2|0:0,0:0:0:0:
374,314,161253,1,2,0:0:0:0:
374,314,161368,2,0,P|388:256|368:224,1,92,8|0,0:0|0:0,0:0:0:0:
286,60,161599,2,0,P|274:153|293:169,1,92,2|0,0:0|0:0,0:0:0:0:
268,384,161830,6,0,P|256:316|221:296,2,92,0|0|2,3:0|0:0|0:0,0:0:0:0:
0,226,162176,2,0,P|120:251|149:160,1,184,2|0,0:0|2:0,0:0:0:0:
113,106,162522,1,2,0:0:0:0:
189,28,162638,1,2,0:0:0:0:
189,28,162753,6,0,P|250:39|283:11,1,92,0|0,3:0|0:0,0:0:0:0:
485,104,162984,2,0,P|443:85|401:100,1,92,2|0,0:0|0:0,0:0:0:0:
463,349,163214,6,0,P|469:277|480:244,1,92,8|0,0:0|0:0,0:0:0:0:
288,129,163445,2,0,P|298:173|299:219,1,92,2|0,0:0|0:0,0:0:0:0:
334,350,163676,6,0,B|302:348|302:348|283:356|283:356|219:353,1,92,0|0,3:0|0:0,0:0:0:0:
0,288,163907,1,2,0:0:0:0:
40,165,164021,2,0,P|81:217|65:257,1,92,2|10,0:0|0:0,0:0:0:0:
152,354,164252,2,0,P|154:309|189:281,1,92,2|2,0:0|0:0,0:0:0:0:
320,240,164484,1,2,0:0:0:0:
320,240,164599,6,0,P|287:176|185:201,1,184,2|2,3:2|0:0,0:0:0:0:
32,107,164945,2,0,B|74:123|74:123|154:91,1,92,2|8,0:0|0:0,0:0:0:0:
284,23,165175,2,0,P|231:-7|192:33,1,92,2|0,0:0|0:0,0:0:0:0:
199,201,165406,1,2,0:0:0:0:
199,201,165521,6,0,P|234:142|355:173,1,184,2|0,3:2|0:0,0:0:0:0:
512,192,165867,1,0,0:0:0:0:
512,192,165984,2,0,P|476:213|410:183,1,92,10|0,0:0|0:0,0:0:0:0:
319,60,166214,2,0,L|343:177,1,92,2|0,0:0|0:0,0:0:0:0:
431,368,166445,6,0,P|365:292|283:367,1,184,0|2,3:0|0:0,0:0:0:0:
108,303,166791,2,0,P|115:213|160:200,1,92,2|8,0:0|0:0,0:0:0:0:
218,246,167022,2,0,P|274:179|304:181,1,92,2|0,0:0|0:0,0:0:0:0:
504,58,167253,1,2,0:0:0:0:
504,58,167368,6,0,B|453:61|424:98|424:98|406:52|343:47,1,184,2|2,3:2|0:0,0:0:0:0:
497,241,167830,2,0,P|516:174|481:148,1,92,10|0,0:0|0:0,0:0:0:0:
337,152,168061,2,0,P|318:219|353:245,1,92,2|0,0:0|0:0,0:0:0:0:
450,364,168291,6,0,B|318:342|318:342|351:386,1,184,6|2,3:2|0:0,0:0:0:0:
217,271,168638,1,2,0:0:0:0:
217,271,168753,2,0,P|139:307|101:289,1,92,8|0,0:0|0:0,0:0:0:0:
0,163,168984,2,0,P|64:192|69:240,1,92,2|0,0:0|0:0,0:0:0:0:
190,362,169214,6,0,P|163:236|200:172,1,184,0|2,3:0|0:0,0:0:0:0:
89,0,169561,2,0,P|98:94|93:104,1,92,2|8,0:0|0:0,0:0:0:0:
291,89,169791,2,0,P|222:87|188:56,1,92,2|2,0:0|0:0,0:0:0:0:
17,215,170022,1,2,0:0:0:0:
17,215,170138,6,0,P|119:171|212:214,1,184,0|2,3:0|0:0,0:0:0:0:
258,367,170599,6,0,B|243:322|243:322|269:275,1,92,8|0,0:0|0:0,0:0:0:0:
346,291,170830,2,0,B|367:329|367:329|352:374,1,92,2|0,0:0|0:0,0:0:0:0:
183,275,171061,6,0,P|238:296|280:260,1,92,0|0,3:0|0:0,0:0:0:0:
398,181,171291,2,0,P|343:160|301:196,1,92,2|0,0:0|0:0,0:0:0:0:
74,366,171522,6,0,P|65:284|61:254,1,92,8|0,0:0|0:0,0:0:0:0:
193,183,171753,2,0,P|187:228|182:274,1,92,2|0,0:0|0:0,0:0:0:0:
71,47,171984,6,0,P|12:128|67:149,1,184,0|2,3:0|0:0,0:0:0:0:
187,13,172330,1,0,0:0:0:0:
179,42,172445,2,0,P|205:71|281:61,1,92,8|0,0:0|0:0,0:0:0:0:
303,212,172676,2,0,P|329:183|405:193,1,92,2|0,0:0|0:0,0:0:0:0:
485,22,172907,2,0,B|441:153|533:126|481:267,1,230,0|2,3:0|0:0,0:0:0:0:
353,373,173253,1,0,0:0:0:0:
353,373,173368,2,0,P|413:325|446:340,1,92,8|0,0:0|0:0,0:0:0:0:
307,135,173599,2,0,P|398:170|276:210,1,276,2|0,0:0|0:0,0:0:0:0:
264,226,174061,5,2,0:0:0:0:
213,211,174176,1,2,0:0:0:0:
164,223,174291,1,10,0:0:0:0:
74,282,174407,1,2,0:0:0:0:
0,212,174522,1,2,0:0:0:0:
36,109,174638,1,2,0:0:0:0:
36,109,174753,6,0,P|45:55|15:13,1,92,2|2,3:0|0:0,0:0:0:0:
118,326,174984,2,0,P|99:284|110:240,1,92,2|2,0:0|0:0,0:0:0:0:
133,202,175214,1,10,0:0:0:0:
180,180,175330,1,2,0:0:0:0:
268,191,175445,1,2,0:0:0:0:
309,280,175561,1,2,0:0:0:0:
288,364,175676,6,0,P|340:306|417:315,1,160.99999508667,6|2,0:0|0:0,0:0:0:0:
208,291,176022,2,0,P|262:232|327:225,1,115,2|2,0:0|0:0,0:0:0:0:
127,233,176368,2,0,P|163:189|192:174,1,68.9999978942872,2|0,0:0|3:0,0:0:0:0:
360,71,176714,5,2,0:0:0:0:
360,71,176830,2,0,P|306:100|274:100,1,80.499997543335,2|2,0:0|0:0,0:0:0:0:
133,41,177061,2,0,P|183:118|165:195,1,160.99999508667,10|2,0:0|0:0,0:0:0:0:
34,300,177407,1,2,0:0:0:0:
18,282,177522,6,0,L|199:245,1,160.99999508667,0|2,3:0|0:0,0:0:0:0:
284,384,177868,2,0,P|300:314|253:270,1,115,2|2,0:0|0:0,0:0:0:0:
266,115,178214,2,0,P|241:165|246:191,1,68.9999978942872,2|0,0:0|3:0,0:0:0:0:
448,204,178561,5,2,0:0:0:0:
448,204,178676,2,0,L|355:188,1,80.499997543335,2|2,0:0|0:0,0:0:0:0:
239,29,178907,1,10,0:0:0:0:
293,102,179022,1,2,0:0:0:0:
241,176,179138,1,2,0:0:0:0:
174,103,179253,6,0,P|59:96|32:136,1,160.99999508667,2|0,0:0|0:0,0:0:0:0:
15,274,179599,2,0,P|49:250|99:259,1,80.499997543335,2|2,0:0|0:0,0:0:0:0:
211,371,179830,5,10,0:0:0:0:
179,286,179945,1,2,0:0:0:0:
253,220,180061,1,2,0:0:0:0:
338,288,180176,2,0,B|431:297|383:229|523:250,1,160.99999508667,2|0,0:0|0:0,0:0:0:0:
332,112,180522,5,2,0:0:0:0:
398,174,180638,1,2,0:0:0:0:
455,93,180753,2,0,P|439:54|400:31,1,80.499997543335,10|2,0:0|0:0,0:0:0:0:
227,167,180984,1,2,0:0:0:0:
157,107,181099,6,0,B|223:135|223:135|356:91,1,160.99999508667,2|0,0:0|0:0,0:0:0:0:
492,231,181445,2,0,B|407:202|407:202|341:230,1,160.99999508667,2|10,0:0|0:0,0:0:0:0:
317,11,181907,6,0,L|240:34,1,80.499997543335,2|2,0:0|0:0,0:0:0:0:
291,186,182138,2,0,L|308:107,1,80.499997543335,6|0,3:2|0:0,0:0:0:0:
144,78,182368,2,0,L|202:132,1,80.499997543335,4|4,0:3|0:3,0:0:0:0:
370,286,182599,2,0,P|349:197|263:200,1,160.99999508667,8|2,0:0|0:0,0:0:0:0:
207,243,182945,1,2,0:0:0:0:
283,294,183061,6,0,L|264:402,1,80.499997543335,4|0,0:0|0:0,0:0:0:0:
207,243,183291,1,2,0:0:0:0:
203,259,183407,2,0,L|184:367,1,57.5,2|8,0:0|0:0,0:0:0:0:
117,203,183638,1,2,0:0:0:0:
108,243,183753,2,0,L|98:297,1,34.4999989471436,2|0,0:0|0:0,0:0:0:0:
41,127,183984,6,0,P|115:99|134:106,1,80.499997543335,2|2,3:2|0:0,0:0:0:0:
253,191,184214,1,2,0:0:0:0:
310,100,184330,1,2,0:0:0:0:
211,24,184445,2,0,L|226:125,1,80.499997543335,10|2,0:0|0:0,0:0:0:0:
338,274,184676,2,0,P|332:238|355:196,1,80.499997543335,2|2,0:0|0:0,0:0:0:0:
504,134,184907,6,0,L|396:115,1,80.499997543335,0|0,3:0|0:0,0:0:0:0:
362,17,185137,1,2,0:0:0:0:
346,21,185253,2,0,L|238:40,1,57.5,2|8,0:0|0:0,0:0:0:0:
223,133,185484,1,2,0:0:0:0:
183,124,185599,2,0,L|129:114,1,34.4999989471436,2|0,0:0|0:0,0:0:0:0:
0,23,185830,6,0,P|47:128|25:170,1,160.99999508667,0|2,3:0|0:0,0:0:0:0:
49,351,186176,1,2,0:0:0:0:
49,351,186291,2,0,P|98:285|131:285,1,80.499997543335,10|0,0:0|0:0,0:0:0:0:
127,181,186522,2,0,P|207:170|242:197,1,80.499997543335,2|2,0:3|0:3,0:0:0:0:
321,317,186753,6,0,P|242:279|285:262,1,160.99999508667,6|2,3:2|0:0,0:0:0:0:
435,188,187099,2,0,B|408:277|477:258|429:383,1,160.99999508667,2|2,0:0|0:0,0:0:0:0:
341,123,187445,2,0,P|365:89|465:91,1,80.499997543335,2|0,0:0|0:0,0:0:0:0:
331,238,187676,1,0,3:0:0:0:
331,238,187792,2,0,P|278:219|154:188,1,160.99999508667,2|0,0:0|3:0,0:0:0:0:
67,40,188138,6,0,P|88:76|98:148,1,80.499997543335,8|2,0:0|0:0,0:0:0:0:
11,294,188368,2,0,P|21:255|41:220,1,80.499997543335,2|0,3:2|3:0,0:0:0:0:
255,125,188599,6,0,P|230:118|198:113,3,57.5,6|2|2|2,3:2|0:0|0:0|0:0,0:0:0:0:
107,310,189061,2,0,P|132:303|164:298,3,57.5,10|2|2|2,0:0|0:0|0:0|0:0,0:0:0:0:
284,384,189522,5,2,3:2:0:0:
268,330,189637,1,2,0:0:0:0:
296,281,189752,1,2,0:0:0:0:
362,216,189868,5,2,0:0:0:0:
403,124,189984,1,10,0:0:0:0:
339,45,190099,1,2,0:0:0:0:
242,56,190214,1,2,0:0:0:0:
300,142,190330,1,2,0:0:0:0:
41,376,199676,5,0,3:0:0:0:
138,361,200138,1,8,3:2:0:0:
241,339,200599,1,0,3:0:0:0:
241,339,201061,1,8,3:2:0:0:
196,242,201522,5,0,3:0:0:0:
308,260,201984,1,8,3:2:0:0:
419,279,202445,1,0,3:0:0:0:
419,279,202907,1,8,3:2:0:0:
76,208,203368,5,0,3:0:0:0:
173,193,203830,1,8,3:2:0:0:
276,171,204291,1,0,3:0:0:0:
276,171,204753,1,8,3:2:0:0:
385,32,205214,6,0,B|377:57|377:57|379:79|379:79|370:102,2,69,2|2|0,0:3|0:0|0:0,0:0:0:0:
248,199,207061,5,6,3:2:0:0:
304,166,207176,1,2,0:0:0:0:
359,196,207291,1,2,0:0:0:0:
438,282,207407,5,10,3:2:0:0:
380,305,207522,1,2,0:0:0:0:
323,270,207638,1,2,0:0:0:0:
343,100,207753,5,10,3:2:0:0:
293,96,207867,1,2,3:2:0:0:
248,124,207984,2,0,B|233:163|233:163|252:211,1,80.499997543335,8|2,0:0|3:2,0:0:0:0:
373,350,208214,2,0,B|388:315|388:315|373:276,1,80.499997543335,10|2,0:0|3:2,0:0:0:0:
175,76,208445,2,0,P|260:28|281:36,1,80.499997543335,8|2,3:2|3:2,0:0:0:0:
268,301,208676,1,10,3:2:0:0:
179,332,208791,1,2,3:2:0:0:
107,260,208907,6,0,P|16:277|40:366,1,206.999993682861,14|0,3:2|0:0,0:0:0:0:
29,105,209253,2,0,P|86:151|140:135,1,103.499996841431,2|8,0:0|0:0,0:0:0:0:
336,73,209484,1,2,0:0:0:0:
257,0,209599,2,0,P|229:85|242:111,1,103.499996841431,2|0,0:0|0:0,0:0:0:0:
465,234,209830,6,0,B|493:184|493:184|449:202|449:202|398:191|398:191|334:216,1,206.999993682861,0|2,3:0|0:0,0:0:0:0:
276,342,210176,1,2,0:0:0:0:
276,342,210291,2,0,B|313:374|313:374|316:299,1,103.499996841431,8|0,0:0|0:0,0:0:0:0:
122,220,210522,2,0,B|159:188|159:188|162:263,1,103.499996841431,2|0,0:0|0:0,0:0:0:0:
271,22,210753,6,0,P|356:47|306:121,1,206.999993682861,0|2,3:0|0:0,0:0:0:0:
122,220,211099,1,2,0:0:0:0:
51,130,211214,2,0,P|135:104|172:128,1,103.499996841431,8|2,0:0|0:0,0:0:0:0:
298,236,211445,2,0,P|273:316|271:342,1,103.499996841431
122,220,211676,6,0,P|116:74|82:7,1,206.999993682861,0|2,3:0|0:0,0:0:0:0:
0,371,212138,2,0,P|81:331|116:335,1,103.499996841431,8|0,0:0|0:0,0:0:0:0:
212,345,212368,2,0,P|253:375|304:385,1,103.499996841431,2|0,0:0|0:0,0:0:0:0:
323,212,212599,6,0,P|311:270|348:257,1,103.499996841431,0|0,3:0|0:0,0:0:0:0:
512,277,212830,2,0,P|467:234|405:237,1,103.499996841431,2|0,0:0|0:0,0:0:0:0:
252,133,213061,6,0,P|215:169|200:218,1,103.499996841431,8|0,0:0|0:0,0:0:0:0:
512,135,213291,2,0,P|403:120|383:129,1,103.499996841431,2|0,0:0|0:0,0:0:0:0:
106,100,213522,6,0,P|76:191|84:225,1,103.499996841431,0|0,3:0|0:0,0:0:0:0:
205,373,213753,2,0,P|175:282|183:248,1,103.499996841431,2|0,0:0|0:0,0:0:0:0:
267,27,213984,6,0,P|205:132|204:151,1,103.499996841431,8|0,0:0|0:0,0:0:0:0:
299,310,214214,2,0,P|308:203|326:187,1,103.499996841431,2|0,0:0|0:0,0:0:0:0:
466,55,214445,6,0,P|409:17|459:86,1,206.999993682861,0|2,3:0|0:0,0:0:0:0:
509,330,214791,2,0,P|502:251|482:238,1,103.499996841431,2|8,0:0|0:0,0:0:0:0:
352,283,215022,2,0,P|359:362|379:375,1,103.499996841431,2|0,0:0|0:0,0:0:0:0:
332,156,215253,1,2,0:0:0:0:
332,156,215368,2,0,B|214:137|245:234|101:194,1,206.999993682861,2|0,3:2|0:0,0:0:0:0:
35,126,215830,6,0,P|114:182|102:212,1,103.499996841431,8|0,0:0|0:0,0:0:0:0:
105,289,216061,2,0,P|76:329|26:331,1,103.499996841431,2|0,0:0|0:0,0:0:0:0:
127,1,216291,2,0,P|214:98|209:207,1,206.999993682861,6|0,3:2|0:0,0:0:0:0:
168,384,216638,2,0,P|270:302|342:350,1,206.999993682861,2|0,0:0|0:0,0:0:0:0:
503,230,216984,2,0,P|437:247|391:204,1,103.499996841431,2|0,0:0|0:0,0:0:0:0:
287,101,217214,6,0,P|363:18|454:62,1,206.999993682861,0|2,3:0|0:0,0:0:0:0:
409,231,217561,1,2,0:0:0:0:
477,165,217676,2,0,P|423:133|368:146,1,103.499996841431,8|0,0:0|0:0,0:0:0:0:
343,306,217907,2,0,P|397:338|452:325,1,103.499996841431,2|0,0:0|0:0,0:0:0:0:
254,253,218138,6,0,P|230:318|224:380,1,103.499996841431,0|0,3:0|0:0,0:0:0:0:
22,218,218368,1,2,0:0:0:0:
87,139,218484,2,0,P|111:204|117:266,1,103.499996841431,2|8,0:0|0:0,0:0:0:0:
320,96,218714,1,2,0:0:0:0:
255,17,218830,2,0,P|231:82|225:144,1,103.499996841431,2|0,0:0|0:0,0:0:0:0:
65,301,219061,6,0,P|155:247|289:270,1,206.999993682861,0|0,3:0|0:0,0:0:0:0:
394,380,219522,6,0,P|377:299|404:282,1,103.499996841431,8|0,0:0|0:0,0:0:0:0:
512,219,219753,2,0,P|426:203|396:175,1,103.499996841431,2|0,0:0|0:0,0:0:0:0:
255,337,219984,6,0,P|293:237|326:225,1,103.499996841431,0|0,3:0|0:0,0:0:0:0:
414,194,220214,2,0,P|368:170|345:125,1,103.499996841431,2|0,0:0|0:0,0:0:0:0:
191,18,220445,6,0,P|233:47|248:96,1,103.499996841431,8|0,0:0|0:0,0:0:0:0:
138,163,220676,2,0,P|96:134|81:85,1,103.499996841431,2|0,0:0|0:0,0:0:0:0:
362,301,220907,6,0,P|291:244|236:254,1,103.499996841431,0|0,3:0|0:0,0:0:0:0:
138,163,221138,2,0,P|157:237|160:282,1,103.499996841431,2|0,0:0|0:0,0:0:0:0:
354,168,221368,6,0,P|280:143|229:163,1,103.499996841431,8|0,0:0|0:0,0:0:0:0:
55,268,221599,2,0,P|79:363|81:396,1,103.499996841431,2|0,0:0|0:0,0:0:0:0:
353,55,221830,6,0,P|242:40|150:82,1,206.999993682861,2|0,3:2|0:0,0:0:0:0:
280,240,222176,1,2,0:0:0:0:
280,240,222291,2,0,P|267:156|237:137,1,103.499996841431,8|0,0:0|0:0,0:0:0:0:
39,221,222522,5,10,0:3:0:0:
126,183,222638,1,0,3:0:0:0:
17,235,222753,2,0,P|35:321|37:365,1,103.499996841431,10|0,3:2|3:0,0:0:0:0:
215,57,222984,5,10,0:0:0:0:
128,19,223098,1,0,3:0:0:0:
237,71,223215,2,0,P|219:157|217:201,1,103.499996841431,10|0,0:0|3:0,0:0:0:0:
149,370,223445,5,10,0:0:0:0:
227,307,223561,1,0,3:0:0:0:
322,328,223676,2,0,P|439:323|439:217,1,206.999993682861,14|0,3:2|0:0,0:0:0:0:
390,8,224022,2,0,P|315:102|362:171,1,206.999993682861,2|0,0:0|0:0,0:0:0:0:
497,43,224368,2,0,P|455:71|450:121,1,103.499996841431,2|0,0:0|0:0,0:0:0:0:
351,384,224599,6,0,P|309:267|204:264,1,206.999993682861,0|2,3:0|0:0,0:0:0:0:
75,300,224945,1,2,0:0:0:0:
3,231,225061,2,0,P|92:195|132:216,1,103.499996841431,8|0,0:0|0:0,0:0:0:0:
317,112,225291,2,0,P|267:122|224:96,1,103.499996841431,2|0,0:0|0:0,0:0:0:0:
93,17,225522,6,0,P|122:81|104:125,1,103.499996841431,0|0,3:0|0:0,0:0:0:0:
28,81,225753,1,2,0:0:0:0:
210,205,225868,2,0,P|181:269|199:313,1,103.499996841431,2|8,0:0|0:0,0:0:0:0:
303,376,226099,2,0,P|332:312|314:268,1,103.499996841431,2|0,0:0|0:0,0:0:0:0:
293,26,226330,1,2,0:0:0:0:
217,105,226445,6,0,B|272:108|301:161|301:161|333:100|422:116,1,206.999993682861,0|2,3:0|0:0,0:0:0:0:
476,145,226791,1,2,0:0:0:0:
466,253,226907,2,0,P|471:341|451:362,1,103.499996841431,8|0,0:0|0:0,0:0:0:0:
301,161,227138,2,0,P|296:73|316:52,1,103.499996841431,2|0,0:0|0:0,0:0:0:0:
361,373,227368,6,0,P|293:346|247:366,1,103.499996841431,0|0,3:0|0:0,0:0:0:0:
380,281,227599,2,0,P|312:259|264:266,1,103.499996841431,2|0,0:0|0:0,0:0:0:0:
70,208,227830,6,0,P|138:181|184:201,1,103.499996841431,8|0,0:0|0:0,0:0:0:0:
44,117,228061,2,0,P|112:95|160:102,1,103.499996841431,2|0,0:0|0:0,0:0:0:0:
462,85,228291,6,0,P|373:82|351:57,1,103.499996841431,0|0,3:0|0:0,0:0:0:0:
230,2,228522,2,0,P|251:99|252:121,1,103.499996841431,2|0,0:0|0:0,0:0:0:0:
447,213,228753,6,0,P|358:195|327:176,1,103.499996841431,8|0,0:0|0:0,0:0:0:0:
111,100,228984,2,0,P|143:140|167:200,1,103.499996841431,2|0,0:0|0:0,0:0:0:0:
313,316,229214,6,0,P|246:276|193:276,1,103.499996841431,0|0,3:0|0:0,0:0:0:0:
0,309,229445,1,2,0:0:0:0:
60,223,229561,2,0,P|102:307|102:332,1,103.499996841431,2|8,0:0|0:0,0:0:0:0:
282,99,229791,1,2,0:0:0:0:
222,13,229907,2,0,P|180:97|180:122,1,103.499996841431
221,364,230138,6,0,P|224:266|315:229,1,206.999993682861,2|0,3:2|0:0,0:0:0:0:
305,324,230484,1,2,0:0:0:0:
236,143,230599,2,0,P|331:130|367:150,1,103.499996841431,8|0,0:0|0:0,0:0:0:0:
498,238,230830,2,0,P|427:222|406:195,1,103.499996841431,2|0,0:0|0:0,0:0:0:0:
255,27,231061,6,0,B|339:-8|429:40|429:40|401:69,1,206.999993682861,6|0,3:2|0:0,0:0:0:0:
198,169,231407,2,0,B|125:113|122:11|122:11|161:21,1,206.999993682861,2|0,0:0|0:0,0:0:0:0:
335,131,231753,2,0,P|301:170|301:223,1,103.499996841431,2|0,0:0|0:0,0:0:0:0:
397,339,231984,2,0,P|430:299|431:247,1,103.499996841431,0|0,3:0|0:0,0:0:0:0:
192,317,232214,6,0,P|245:341|269:404,1,103.499996841431,2|0,0:0|0:0,0:0:0:0:
38,279,232445,2,0,P|91:255|115:192,1,103.499996841431,8|0,0:0|0:0,0:0:0:0:
320,258,232676,2,0,P|239:210|211:213,1,103.499996841431,2|0,0:0|0:0,0:0:0:0:
16,179,232907,6,0,P|41:134|35:84,1,103.499996841431,0|0,3:0|0:0,0:0:0:0:
187,10,233138,2,0,P|162:54|168:104,1,103.499996841431,2|0,0:0|0:0,0:0:0:0:
84,308,233368,2,0,P|83:253|111:217,1,103.499996841431,8|0,0:0|0:0,0:0:0:0:
249,375,233599,5,2,0:0:0:0:
222,285,233714,1,2,0:0:0:0:
273,204,233830,2,0,P|347:179|387:186,1,103.499996841431,0|0,3:0|0:0,0:0:0:0:
376,7,234061,2,0,P|347:58|310:79,1,103.499996841431,2|0,0:0|0:0,0:0:0:0:
512,259,234291,2,0,P|458:166|459:66,1,206.999993682861,8|2,0:0|0:0,0:0:0:0:
397,380,234638,1,2,0:0:0:0:
397,380,234753,6,0,P|322:278|292:317,1,206.999993682861,0|2,3:0|0:0,0:0:0:0:
285,99,235099,1,0,0:0:0:0:
197,125,235214,2,0,P|219:170|266:190,1,103.499996841431,8|0,0:0|0:0,0:0:0:0:
112,353,235445,2,0,P|134:307|181:287,1,103.499996841431,2|0,0:0|0:0,0:0:0:0:
29,34,235676,6,0,P|89:147|66:238,1,206.999993682861,0|2,3:0|0:0,0:0:0:0:
271,330,236022,1,2,0:0:0:0:
177,383,236138,2,0,P|186:279|202:266,1,103.499996841431,8|0,0:0|0:0,0:0:0:0:
260,222,236368,2,0,P|356:262|363:281,1,103.499996841431,2|0,0:0|0:0,0:0:0:0:
447,357,236599,5,2,3:2:0:0:
442,309,236714,1,2,0:0:0:0:
505,196,236830,5,2,0:0:0:0:
510,244,236945,1,2,0:0:0:0:
422,109,237061,6,0,P|471:76|512:81,1,103.499996841431,10|2,0:0|0:0,0:0:0:0:
363,223,237291,2,0,P|322:192|272:195,1,103.499996841431,2|2,0:0|0:0,0:0:0:0:
205,18,237522,6,0,P|200:94|174:119,1,103.499996841431,2|0,3:2|0:0,0:0:0:0:
7,207,237753,2,0,P|54:127|89:127,1,103.499996841431,2|0,0:0|0:0,0:0:0:0:
287,154,237984,6,0,P|234:213|208:217,1,103.499996841431,10|0,0:0|0:0,0:0:0:0:
0,55,238214,2,0,P|84:28|119:41,1,103.499996841431,2|0,0:0|0:0,0:0:0:0:
205,314,238445,6,0,P|196:255|215:214,1,103.499996841431,4|0,3:2|0:0,0:0:0:0:
54,126,238676,2,0,P|72:173|62:223,1,103.499996841431,2|0,0:0|0:0,0:0:0:0:
322,276,238907,6,0,P|365:208|403:201,1,103.499996841431,8|0,0:0|0:0,0:0:0:0:
173,99,239138,2,0,P|232:121|272:115,1,103.499996841431,2|0,0:0|0:0,0:0:0:0:
466,17,239368,2,0,P|362:26|397:102,1,206.999993682861,0|2,3:0|0:0,0:0:0:0:
512,266,239714,1,2,0:0:0:0:
448,192,239830,2,0,P|421:285|440:308,1,103.499996841431,8|0,0:0|0:0,0:0:0:0:
242,25,240061,2,0,P|269:118|250:141,1,103.499996841431,2|0,0:0|0:0,0:0:0:0:
325,384,240291,6,0,P|284:276|188:298,1,206.999993682861,2|0,3:2|0:0,0:0:0:0:
95,299,240638,1,2,0:0:0:0:
17,233,240753,2,0,P|2:163|30:127,1,103.499996841431,8|0,0:0|0:0,0:0:0:0:
168,29,240984,2,0,P|144:111|121:126,1,103.499996841431,2|0,0:0|0:0,0:0:0:0:
99,357,241214,6,0,P|127:264|156:244,1,103.499996841431,2|0,3:2|0:0,0:0:0:0:
278,75,241445,2,0,P|234:186|214:200,1,103.499996841431,2|0,0:0|0:0,0:0:0:0:
245,384,241676,6,0,P|271:316|301:323,1,103.499996841431,8|0,0:0|0:0,0:0:0:0:
449,156,241907,2,0,P|398:216|340:218,1,103.499996841431,2|0,0:0|0:0,0:0:0:0:
354,28,242138,5,6,3:2:0:0:
384,67,242253,1,2,0:3:0:0:
363,122,242368,1,2,0:3:0:0:
275,176,242484,1,2,0:3:0:0:
189,136,242599,1,8,0:0:0:0:
111,199,242714,1,2,0:3:0:0:
147,301,242830,1,2,0:3:0:0:
205,217,242945,6,0,P|153:112|22:217,1,310.499990524292,6|8,3:2|0:0,0:0:0:0:
111,199,243522,5,2,0:0:0:0:
68,81,243753,5,2,0:0:0:0:
221,17,243984,5,6,3:2:0:0:
221,17,244099,2,0,P|196:72|205:105,1,92,2|0,0:0|0:0,0:0:0:0:
418,165,244330,2,0,P|395:69|299:74,1,184,2|0,0:0|2:0,0:0:0:0:
300,272,244676,2,0,P|306:227|315:172,1,92,2|0,0:0|0:0,0:0:0:0:
66,234,244907,6,0,P|120:225|186:215,1,92,2|0,3:2|0:0,0:0:0:0:
45,343,245138,2,0,P|99:334|165:324,1,92,2|0,0:0|0:0,0:0:0:0:
313,180,245368,1,10,0:0:0:0:
244,265,245484,1,2,0:0:0:0:
305,354,245599,1,2,0:0:0:0:
401,329,245714,1,2,0:0:0:0:
408,226,245830,6,0,L|502:210,1,92,2|2,3:2|0:0,0:0:0:0:
216,113,246061,1,2,0:0:0:0:
284,16,246176,2,0,P|333:103|306:189,1,184,2|0,0:0|2:0,0:0:0:0:
219,266,246522,2,0,P|239:313|216:368,1,92,2|0,0:0|0:0,0:0:0:0:
25,228,246753,6,0,B|69:239|69:239|129:213,1,92,2|0,3:2|0:0,0:0:0:0:
272,21,246984,2,0,B|228:10|228:10|168:36,1,92,2|0,0:0|0:0,0:0:0:0:
156,294,247214,6,0,L|247:253,1,68.9999978942872,10|0,0:0|0:0,0:0:0:0:
232,100,247445,2,0,L|141:141,1,68.9999978942872,2|0,0:0|0:0,0:0:0:0:
440,341,247676,5,2,0:0:0:0:
367,258,247791,2,0,P|337:292|339:336,1,92,2|0,0:0|0:0,0:0:0:0:
512,58,248022,1,2,0:0:0:0:
512,57,248138,2,0,P|461:144|348:108,1,230,10|2,0:0|0:0,0:0:0:0:
221,17,248483,1,2,0:0:0:0:
221,17,248598,6,0,P|256:94|249:125,1,92,2|0,3:2|0:0,0:0:0:0:
225,324,248828,2,0,P|260:247|253:216,1,92,2|0,0:0|0:0,0:0:0:0:
110,65,249059,6,0,P|155:112|140:133,1,92,10|0,0:0|0:0,0:0:0:0:
123,272,249290,2,0,P|168:225|153:204,1,92,2|0,0:0|0:0,0:0:0:0:
6,197,249522,6,0,B|-12:299|55:261|32:419,1,184,2|2,3:2|0:0,0:0:0:0:
149,42,249868,2,0,B|167:144|100:106|123:264,1,184,2|0,0:0|2:0,0:0:0:0:
197,384,250214,2,0,P|222:300|267:302,1,92,2|0,0:0|0:0,0:0:0:0:
240,172,250445,2,0,P|345:215|406:160,1,184,2|2,3:2|0:0,0:0:0:0:
415,167,250907,5,10,0:0:0:0:
451,78,251022,1,2,0:0:0:0:
372,8,251137,2,0,P|323:28|311:78,1,92,2|2,0:0|0:0,0:0:0:0:
124,154,251368,5,6,3:2:0:0:
181,80,251484,2,0,P|218:117|209:169,1,92,2|0,0:0|0:0,0:0:0:0:
316,327,251714,2,0,P|277:226|243:274,1,184,2|0,0:0|2:0,0:0:0:0:
216,384,252061,2,0,P|171:338|151:362,1,92,2|0,0:0|0:0,0:0:0:0:
11,203,252291,6,0,P|95:253|108:243,1,92,2|0,3:2|0:0,0:0:0:0:
249,136,252522,2,0,P|186:138|162:179,1,92,2|0,0:0|0:0,0:0:0:0:
216,384,252753,1,10,0:0:0:0:
158,311,252868,1,2,0:0:0:0:
233,244,252983,2,0,L|343:255,1,92,2|2,0:0|0:0,0:0:0:0:
417,94,253214,5,2,3:2:0:0:
489,156,253329,2,0,P|460:190|415:192,1,92,2|2,0:2|0:0,0:0:0:0:
158,105,253561,2,0,P|257:144|311:85,1,184,2|0,0:0|2:0,0:0:0:0:
441,9,253907,2,0,P|418:49|417:95,1,92,2|0,0:0|0:0,0:0:0:0:
381,266,254138,2,0,P|379:220|357:180,1,92,2|0,3:2|0:0,0:0:0:0:
512,384,254368,6,0,P|468:366|416:393,1,92,2|0,0:0|0:0,0:0:0:0:
223,332,254599,2,0,P|267:350|319:323,1,92,10|2,0:0|0:0,0:0:0:0:
381,266,254830,1,2,0:0:0:0:
314,181,254945,1,2,0:0:0:0:
374,77,255061,6,0,P|328:96|282:72,1,92,2|2,3:2|0:0,0:0:0:0:
73,93,255291,1,0,0:0:0:0:
131,0,255407,2,0,P|180:101|146:183,1,184,2|0,0:0|2:0,0:0:0:0:
0,296,255753,6,0,P|86:249|126:264,1,92,2|0,0:0|0:0,0:0:0:0:
189,272,255984,2,0,P|252:301|300:277,1,92,2|0,3:2|0:0,0:0:0:0:
30,171,256214,6,0,P|132:177|152:198,1,92,2|0,0:0|0:0,0:0:0:0:
271,384,256445,2,0,P|353:329|358:302,1,92,10|0,0:0|0:0,0:0:0:0:
139,70,256676,2,0,P|212:141|214:165,1,92,2|0,0:0|0:0,0:0:0:0:
271,296,256907,6,0,P|283:176|337:182,1,184,4|2,3:0|0:3,0:0:0:0:
400,207,257253,1,2,0:3:0:0:
478,155,257368,1,2,3:0:0:0:
457,62,257484,1,2,0:3:0:0:
373,15,257599,2,0,P|349:51|365:117,1,92,8|8,0:3|0:3,0:0:0:0:
480,273,257830,6,0,B|427:232|349:261|349:261|381:269|408:315,1,184,2|2,3:2|0:0,0:0:0:0:
154,179,258176,2,0,B|207:138|285:167|285:167|253:175|226:221,1,184,2|2,3:2|0:0,0:0:0:0:
250,320,258522,1,10,3:2:0:0:
