osu file format v14

[General]
AudioFilename: audio.mp3
AudioLeadIn: 0
PreviewTime: 75175
Countdown: 0
SampleSet: Soft
StackLeniency: 0.4
Mode: 0
LetterboxInBreaks: 0
EpilepsyWarning: 1
WidescreenStoryboard: 1

[Editor]
DistanceSpacing: 1.1
BeatDivisor: 8
GridSize: 32
TimelineZoom: 2.1

[Metadata]
Title:Yoru ni Kakeru
TitleUnicode:夜に駆ける
Artist:YOASOBI
ArtistUnicode:YOASOBI
Creator:Petal
Version:Acceptance
Source:
Tags:幾田りら Japanese pop racing into the night Ayase female ikura Ikuta matha -light- battle -keitaro shurelia Error- lilas J-pop Jpop 藍にいな Ai Niina
BeatmapID:2575572
BeatmapSetID:1238759

[Difficulty]
HPDrainRate:4
CircleSize:4.2
OverallDifficulty:9.2
ApproachRate:9.6
SliderMultiplier:2
SliderTickRate:1

[Events]
//Background and Video events
0,0,"BG.jpg",0,0
Video,130,"video.mp4"
//Break Periods
2,192291,199167
//Storyboard Layer 0 (Background)
//Storyboard Layer 1 (Fail)
//Storyboard Layer 2 (Pass)
//Storyboard Layer 3 (Foreground)
//Storyboard Layer 4 (Overlay)
//Storyboard Sound Samples

[TimingPoints]
291,461.538461538462,4,2,1,40,1,0
2138,-125,4,2,2,25,0,0
9522,-111.111111111111,4,2,1,50,0,0
15291,-142.857142857143,4,2,1,25,0,0
16444,-142.857142857143,4,2,32,60,0,0
16560,-142.857142857143,4,2,39,60,0,0
16675,-142.857142857143,4,2,40,60,0,0
16791,-142.857142857143,4,2,38,60,0,0
16907,-62.5,4,2,35,70,0,0
17022,-62.5,4,2,38,70,0,0
17252,-62.5,4,2,34,70,0,0
17368,-50,4,2,1,70,0,0
17541,-50,4,2,1,5,0,0
17599,-62.5,4,2,39,70,0,0
17714,-50,4,2,1,50,0,0
17829,-62.5,4,2,40,70,0,0
17944,-50,4,2,1,50,0,0
18060,-62.5,4,2,33,70,0,0
18175,-50,4,2,1,50,0,0
18291,-62.5,4,2,34,70,0,0
18406,-62.5,4,2,39,70,0,0
18521,-62.5,4,2,37,70,0,0
18637,-62.5,4,2,36,70,0,0
18752,-62.5,4,2,38,70,0,0
18867,-62.5,4,2,34,70,0,0
19098,-62.5,4,2,38,70,0,0
19214,-50,4,2,1,70,0,0
19387,-50,4,2,1,5,0,0
19445,-62.5,4,2,35,70,0,0
19560,-50,4,2,1,50,0,0
19675,-62.5,4,2,38,70,0,0
19791,-50,4,2,1,50,0,0
19906,-62.5,4,2,34,70,0,0
20021,-50,4,2,1,50,0,0
20138,-83.3333333333333,4,2,33,70,0,0
20252,-50,4,2,1,50,0,0
20367,-83.3333333333333,4,2,39,70,0,0
20483,-50,4,2,1,50,0,0
20599,-62.5,4,2,34,70,0,0
20714,-62.5,4,2,33,70,0,0
20944,-62.5,4,2,40,70,0,0
21061,-50,4,2,1,70,0,0
21233,-50,4,2,1,5,0,0
21291,-62.5,4,2,39,70,0,0
21406,-50,4,2,1,50,0,0
21521,-62.5,4,2,49,70,0,0
21637,-50,4,2,1,50,0,0
21753,-62.5,4,2,30,70,0,0
21867,-50,4,2,1,50,0,0
21983,-62.5,4,2,34,70,0,0
22098,-50,4,2,1,50,0,0
22214,-62.5,4,2,31,70,0,0
22329,-50,4,2,1,50,0,0
22444,-62.5,4,2,33,70,0,0
22675,-62.5,4,2,40,70,0,0
22791,-62.5,4,2,38,70,0,0
22907,-50,4,2,1,70,0,0
23079,-50,4,2,1,5,0,0
23138,-62.5,4,2,30,70,0,0
23252,-50,4,2,1,50,0,0
23368,-62.5,4,2,34,70,0,0
23483,-50,4,2,1,50,0,0
23598,-62.5,4,2,32,70,0,0
23714,-50,4,2,1,50,0,0
23829,-62.5,4,2,32,70,0,0
23944,-62.5,4,2,39,70,0,0
24060,-62.5,4,2,40,70,0,0
24175,-62.5,4,2,38,70,0,0
24291,-62.5,4,2,34,70,0,0
24406,-62.5,4,2,33,70,0,0
24637,-62.5,4,2,40,70,0,0
24753,-50,4,2,1,70,0,0
24925,-50,4,2,1,5,0,0
24984,-62.5,4,2,39,70,0,0
25098,-50,4,2,1,50,0,0
25214,-62.5,4,2,40,70,0,0
25329,-50,4,2,1,50,0,0
25444,-62.5,4,2,33,70,0,0
25560,-50,4,2,1,50,0,0
25675,-62.5,4,2,34,70,0,0
25791,-62.5,4,2,39,70,0,0
25906,-62.5,4,2,37,70,0,0
26021,-62.5,4,2,36,70,0,0
26137,-62.5,4,2,38,70,0,0
26252,-62.5,4,2,34,70,0,0
26483,-62.5,4,2,38,70,0,0
26599,-50,4,2,1,70,0,0
26771,-50,4,2,1,5,0,0
26830,-62.5,4,2,35,70,0,0
26944,-50,4,2,1,50,0,0
27060,-62.5,4,2,38,70,0,0
27175,-50,4,2,1,50,0,0
27291,-62.5,4,2,34,70,0,0
27406,-50,4,2,1,50,0,0
27521,-62.5,4,2,33,70,0,0
27637,-62.5,4,2,39,70,0,0
27752,-62.5,4,2,40,70,0,0
27867,-62.5,4,2,38,70,0,0
27983,-62.5,4,2,34,70,0,0
28098,-62.5,4,2,33,70,0,0
28329,-62.5,4,2,40,70,0,0
28445,-50,4,2,1,70,0,0
28617,-50,4,2,1,5,0,0
28676,-62.5,4,2,39,70,0,0
28791,-50,4,2,1,50,0,0
28906,-62.5,4,2,49,70,0,0
29021,-50,4,2,1,50,0,0
29138,-62.5,4,2,30,70,0,0
29252,-50,4,2,1,50,0,0
29367,-62.5,4,2,34,70,0,0
29483,-50,4,2,1,50,0,0
29598,-62.5,4,2,31,70,0,0
29714,-50,4,2,1,50,0,0
29829,-62.5,4,2,1,70,0,0
30060,-62.5,4,2,32,70,0,0
30175,-62.5,4,2,39,70,0,0
30291,-62.5,4,2,40,70,0,0
30406,-62.5,4,2,33,70,0,0
30521,-62.5,4,2,34,70,0,0
30637,-62.5,4,2,35,70,0,0
30752,-62.5,4,2,38,70,0,0
30867,-62.5,4,2,33,70,0,0
30983,-62.5,4,2,34,70,0,0
31098,-62.5,4,2,39,70,0,0
31214,-111.111111111111,4,2,40,70,0,0
31676,-111.111111111111,4,2,1,40,0,0
39061,-76.9230769230769,4,2,1,50,0,0
39522,-62.5,4,2,1,50,0,0
39695,-62.5,4,2,1,5,0,0
39753,-62.5,4,2,1,50,0,0
39984,-76.9230769230769,4,2,1,50,0,0
40445,-62.5,4,2,1,50,0,0
40618,-76.9230769230769,4,2,1,5,0,0
40676,-76.9230769230769,4,2,1,50,0,0
41772,-76.9230769230769,4,2,1,5,0,0
41830,-76.9230769230769,4,2,1,50,0,0
43214,-62.5,4,2,1,50,0,0
43388,-62.5,4,2,1,5,0,0
43445,-76.9230769230769,4,2,1,50,0,0
44830,-76.9230769230769,4,2,1,50,0,0
45061,-62.5,4,2,1,50,0,0
46214,-100,4,2,1,50,0,0
46445,-71.4285714285714,4,2,1,60,0,0
46907,-62.5,4,2,1,60,0,0
47080,-62.5,4,2,1,5,0,0
47138,-71.4285714285714,4,2,1,60,0,0
48753,-62.5,4,2,1,60,0,0
48926,-62.5,4,2,1,5,0,0
48984,-71.4285714285714,4,2,1,60,0,0
61214,-62.5,4,2,1,60,0,0
68599,-62.5,4,2,3,60,0,0
70388,-62.5,4,2,3,5,0,0
70445,-62.5,4,2,3,60,0,0
72291,-71.4285714285714,4,2,1,60,0,0
74714,-71.4285714285714,4,2,1,65,0,0
75983,-37.037037037037,4,2,2,85,0,1
76214,-37.037037037037,4,2,1,85,0,1
76445,-45.4545454545455,4,2,1,85,0,1
76618,-45.4545454545455,4,2,1,5,0,1
76676,-58.8235294117647,4,2,1,85,0,1
76907,-45.4545454545455,4,2,1,85,0,1
77080,-45.4545454545455,4,2,1,5,0,1
77138,-58.8235294117647,4,2,1,85,0,1
77830,-45.4545454545455,4,2,1,85,0,1
78176,-58.8235294117647,4,2,1,85,0,1
78753,-45.4545454545455,4,2,1,85,0,1
78926,-45.4545454545455,4,2,1,5,0,1
78984,-58.8235294117647,4,2,1,85,0,1
79214,-58.8235294117647,4,2,1,85,0,1
81522,-45.4545454545455,4,2,1,85,0,1
81868,-55.5555555555556,4,2,1,85,0,1
82099,-50,4,2,1,85,0,1
82445,-45.4545454545455,4,2,1,85,0,1
82907,-50,4,2,1,85,0,1
83368,-43.4782608695652,4,2,2,85,0,1
83599,-43.4782608695652,4,2,1,85,0,1
83830,-45.4545454545455,4,2,1,85,0,1
84003,-45.4545454545455,4,2,1,5,0,1
84061,-58.8235294117647,4,2,1,85,0,1
84291,-45.4545454545455,4,2,1,85,0,1
84464,-45.4545454545455,4,2,1,5,0,1
84522,-58.8235294117647,4,2,1,85,0,1
85214,-45.4545454545455,4,2,1,85,0,1
85561,-58.8235294117647,4,2,1,85,0,1
86138,-45.4545454545455,4,2,1,85,0,1
86772,-45.4545454545455,4,2,1,5,0,1
86830,-58.8235294117647,4,2,1,85,0,1
88907,-40,4,2,1,85,0,1
90753,-37.037037037037,4,2,2,85,0,1
90984,-37.037037037037,4,2,1,85,0,1
91214,-45.4545454545455,4,2,1,85,0,1
91388,-45.4545454545455,4,2,1,5,0,1
91445,-58.8235294117647,4,2,1,85,0,1
91676,-45.4545454545455,4,2,1,85,0,1
91849,-45.4545454545455,4,2,1,5,0,1
91907,-58.8235294117647,4,2,1,85,0,1
92368,-50,4,2,1,85,0,1
92541,-50,4,2,1,5,0,1
92599,-45.4545454545455,4,2,1,85,0,1
92945,-58.8235294117647,4,2,1,85,0,1
93522,-45.4545454545455,4,2,1,85,0,1
93695,-45.4545454545455,4,2,1,5,0,1
93753,-58.8235294117647,4,2,1,85,0,1
96291,-45.4545454545455,4,2,1,85,0,1
96638,-58.8235294117647,4,2,1,85,0,1
96868,-50,4,2,1,85,0,1
97214,-45.4545454545455,4,2,1,85,0,1
97676,-50,4,2,1,85,0,1
98138,-43.4782608695652,4,2,2,85,0,1
98368,-43.4782608695652,4,2,1,85,0,1
98599,-45.4545454545455,4,2,1,85,0,1
98772,-45.4545454545455,4,2,1,5,0,1
98830,-58.8235294117647,4,2,1,85,0,1
99061,-45.4545454545455,4,2,1,85,0,1
99234,-45.4545454545455,4,2,1,5,0,1
99291,-58.8235294117647,4,2,1,85,0,1
100907,-45.4545454545455,4,2,1,85,0,1
101368,-58.8235294117647,4,2,1,85,0,1
102983,-58.8235294117647,4,2,1,85,0,0
103214,-58.8235294117647,4,2,40,70,0,0
103329,-58.8235294117647,4,2,33,70,0,0
103444,-58.8235294117647,4,2,34,70,0,0
103560,-58.8235294117647,4,2,38,70,0,0
103676,-62.5,4,2,35,70,0,0
103791,-62.5,4,2,38,70,0,0
104021,-62.5,4,2,34,70,0,0
104138,-50,4,2,1,70,0,0
104311,-50,4,2,1,5,0,0
104368,-62.5,4,2,39,70,0,0
104483,-62.5,4,2,1,50,0,0
104598,-62.5,4,2,40,70,0,0
104714,-62.5,4,2,1,50,0,0
104829,-62.5,4,2,33,70,0,0
104944,-62.5,4,2,1,50,0,0
105060,-62.5,4,2,34,70,0,0
105175,-62.5,4,2,39,70,0,0
105291,-62.5,4,2,37,70,0,0
105406,-62.5,4,2,36,70,0,0
105521,-62.5,4,2,38,70,0,0
105637,-62.5,4,2,34,70,0,0
105752,-62.5,4,2,1,50,0,0
105867,-62.5,4,2,38,70,0,0
105984,-50,4,2,1,70,0,0
106157,-50,4,2,1,5,0,0
106214,-62.5,4,2,35,70,0,0
106329,-62.5,4,2,1,50,0,0
106444,-62.5,4,2,38,70,0,0
106560,-62.5,4,2,1,50,0,0
106675,-62.5,4,2,34,70,0,0
106791,-62.5,4,2,1,50,0,0
106907,-83.3333333333333,4,2,33,70,0,0
107021,-62.5,4,2,1,50,0,0
107137,-83.3333333333333,4,2,39,70,0,0
107252,-62.5,4,2,1,50,0,0
107368,-62.5,4,2,34,70,0,0
107483,-62.5,4,2,33,70,0,0
107714,-62.5,4,2,40,70,0,0
107830,-50,4,2,1,70,0,0
108003,-50,4,2,1,5,0,0
108061,-62.5,4,2,39,70,0,0
108175,-62.5,4,2,1,50,0,0
108291,-62.5,4,2,49,70,0,0
108406,-62.5,4,2,1,50,0,0
108521,-62.5,4,2,30,70,0,0
108637,-62.5,4,2,1,50,0,0
108752,-62.5,4,2,34,70,0,0
108867,-62.5,4,2,1,50,0,0
108983,-62.5,4,2,31,70,0,0
109098,-62.5,4,2,1,50,0,0
109214,-62.5,4,2,33,70,0,0
109444,-62.5,4,2,40,70,0,0
109560,-62.5,4,2,38,70,0,0
109676,-50,4,2,1,70,0,0
109849,-50,4,2,1,5,0,0
109907,-62.5,4,2,30,70,0,0
110021,-62.5,4,2,1,50,0,0
110137,-62.5,4,2,34,70,0,0
110252,-62.5,4,2,1,50,0,0
110367,-62.5,4,2,32,70,0,0
110483,-62.5,4,2,1,50,0,0
110598,-62.5,4,2,32,70,0,0
110714,-62.5,4,2,39,70,0,0
110829,-62.5,4,2,40,70,0,0
110944,-62.5,4,2,38,70,0,0
111060,-62.5,4,2,34,70,0,0
111175,-62.5,4,2,33,70,0,0
111406,-62.5,4,2,40,70,0,0
111522,-50,4,2,1,70,0,0
111695,-50,4,2,1,5,0,0
111753,-62.5,4,2,39,70,0,0
111867,-62.5,4,2,1,50,0,0
111983,-62.5,4,2,40,70,0,0
112098,-62.5,4,2,1,50,0,0
112214,-62.5,4,2,33,70,0,0
112329,-62.5,4,2,1,50,0,0
112444,-62.5,4,2,34,70,0,0
112560,-62.5,4,2,39,70,0,0
112675,-62.5,4,2,37,70,0,0
112791,-62.5,4,2,36,70,0,0
112906,-62.5,4,2,38,70,0,0
113021,-62.5,4,2,34,70,0,0
113252,-62.5,4,2,38,70,0,0
113368,-50,4,2,1,70,0,0
113541,-50,4,2,1,5,0,0
113599,-62.5,4,2,35,70,0,0
113714,-62.5,4,2,1,50,0,0
113829,-62.5,4,2,38,70,0,0
113944,-62.5,4,2,1,50,0,0
114060,-62.5,4,2,34,70,0,0
114175,-62.5,4,2,1,50,0,0
114291,-62.5,4,2,33,70,0,0
114406,-62.5,4,2,39,70,0,0
114521,-62.5,4,2,40,70,0,0
114637,-62.5,4,2,38,70,0,0
114752,-62.5,4,2,34,70,0,0
114867,-62.5,4,2,33,70,0,0
115098,-62.5,4,2,40,70,0,0
115214,-50,4,2,1,70,0,0
115388,-50,4,2,1,5,0,0
115445,-62.5,4,2,39,70,0,0
115560,-62.5,4,2,1,50,0,0
115675,-62.5,4,2,49,70,0,0
115791,-62.5,4,2,1,50,0,0
115906,-62.5,4,2,30,70,0,0
116021,-62.5,4,2,1,50,0,0
116137,-62.5,4,2,34,70,0,0
116252,-62.5,4,2,1,50,0,0
116367,-62.5,4,2,31,70,0,0
116483,-62.5,4,2,1,50,0,0
116598,-62.5,4,2,1,70,0,0
116829,-62.5,4,2,32,70,0,0
116944,-62.5,4,2,39,70,0,0
117060,-62.5,4,2,40,70,0,0
117175,-62.5,4,2,33,70,0,0
117290,-62.5,4,2,34,70,0,0
117406,-62.5,4,2,35,70,0,0
117521,-62.5,4,2,38,70,0,0
117636,-62.5,4,2,33,70,0,0
117752,-62.5,4,2,34,70,0,0
117867,-62.5,4,2,39,70,0,0
117984,-90.9090909090909,4,2,40,70,0,0
118214,-90.9090909090909,4,2,1,70,0,0
118444,-125,4,2,35,60,0,0
118791,-125,4,2,36,60,0,0
119137,-125,4,2,37,60,0,0
119367,-125,4,2,36,60,0,0
119714,-125,4,2,33,60,0,0
120060,-125,4,2,34,60,0,0
120983,-125,4,2,32,60,0,0
121214,-125,4,2,39,60,0,0
121444,-125,4,2,31,60,0,0
121675,-125,4,2,40,60,0,0
121906,-125,4,2,38,60,0,0
122137,-125,4,2,34,60,0,0
122483,-125,4,2,39,60,0,0
122829,-125,4,2,40,60,0,0
123060,-125,4,2,33,60,0,0
123406,-125,4,2,38,60,0,0
123752,-125,4,2,34,60,0,0
124560,-125,4,2,32,60,0,0
124675,-125,4,2,39,60,0,0
124791,-125,4,2,40,60,0,0
124906,-125,4,2,34,60,0,0
125021,-125,4,2,30,60,0,0
125137,-125,4,2,38,60,0,0
125252,-125,4,2,35,60,0,0
125367,-125,4,2,38,60,0,0
125483,-125,4,2,34,60,0,0
125598,-125,4,2,33,60,0,0
125714,-125,4,2,40,60,0,0
125829,-125,4,2,99,65,0,1
125944,-125,4,2,98,65,0,1
126060,-125,4,2,99,65,0,1
126175,-125,4,2,97,65,0,1
126291,-125,4,2,93,65,0,1
126406,-125,4,2,96,65,0,1
126521,-125,4,2,95,65,0,1
126637,-125,4,2,97,65,0,1
126752,-125,4,2,94,65,0,1
126867,-125,4,2,97,65,0,1
126983,-125,4,2,93,65,0,1
127098,-125,4,2,97,65,0,1
127214,-125,4,2,93,65,0,1
127329,-125,4,2,92,65,0,1
127444,-125,4,2,99,65,0,1
127560,-125,4,2,91,65,0,1
127675,-125,4,2,98,65,0,1
127791,-125,4,2,91,65,0,1
127906,-125,4,2,94,65,0,1
128021,-125,4,2,97,65,0,1
128137,-125,4,2,93,65,0,1
128252,-125,4,2,97,65,0,1
128367,-125,4,2,92,65,0,1
128483,-125,4,2,91,65,0,1
128598,-125,4,2,98,65,0,1
128714,-125,4,2,90,65,0,1
128829,-125,4,2,99,65,0,1
128944,-125,4,2,89,65,0,1
129060,-125,4,2,98,65,0,1
129175,-125,4,2,90,65,0,1
129291,-125,4,2,88,65,0,1
129406,-125,4,2,84,65,0,1
129637,-125,4,2,91,65,0,1
129752,-125,4,2,98,65,0,1
129867,-125,4,2,93,65,0,1
129983,-125,4,2,92,65,0,1
130098,-125,4,2,98,65,0,1
130214,-125,4,2,94,65,0,1
130329,-125,4,2,97,65,0,1
130444,-125,4,2,93,65,0,1
130560,-125,4,2,87,65,0,1
130675,-125,4,2,85,65,0,1
130791,-125,4,2,97,65,0,1
131021,-125,4,2,93,65,0,1
131137,-125,4,2,92,65,0,1
131252,-125,4,2,98,65,0,0
131483,-125,4,2,1,5,0,0
131599,-47.6190476190476,4,2,35,65,0,0
132175,-47.6190476190476,4,2,35,5,0,0
132291,-47.6190476190476,4,2,35,65,0,0
132867,-47.6190476190476,4,2,35,5,0,0
132984,-58.8235294117647,4,2,35,65,0,0
133214,-58.8235294117647,4,2,35,75,0,1
133675,-58.8235294117647,4,2,38,75,0,1
133791,-58.8235294117647,4,2,35,75,0,1
133906,-58.8235294117647,4,2,34,75,0,1
134021,-58.8235294117647,4,2,39,75,0,1
134137,-58.8235294117647,4,2,40,75,0,1
134252,-58.8235294117647,4,2,33,75,0,1
134367,-58.8235294117647,4,2,34,75,0,1
134483,-58.8235294117647,4,2,40,75,0,1
134541,-58.8235294117647,4,2,39,75,0,1
134598,-58.8235294117647,4,2,32,75,0,1
134714,-58.8235294117647,4,2,39,75,0,1
134829,-58.8235294117647,4,2,40,75,0,1
134944,-58.8235294117647,4,2,31,75,0,1
135060,-58.8235294117647,4,2,39,75,0,1
135406,-58.8235294117647,4,2,35,75,0,1
135637,-58.8235294117647,4,2,33,75,0,1
135752,-58.8235294117647,4,2,41,75,0,1
135867,-58.8235294117647,4,2,32,75,0,1
135983,-58.8235294117647,4,2,39,75,0,1
136214,-58.8235294117647,4,2,32,75,0,1
136329,-58.8235294117647,4,2,39,75,0,1
136444,-58.8235294117647,4,2,34,75,0,1
136676,-125,4,2,34,75,0,1
136906,-125,4,2,33,75,0,1
137021,-125,4,2,39,75,0,1
137137,-125,4,2,40,75,0,1
137252,-125,4,2,35,75,0,1
137367,-125,4,2,33,75,0,1
137483,-125,4,2,41,75,0,1
137598,-125,4,2,33,75,0,1
137714,-125,4,2,40,75,0,1
137829,-125,4,2,39,75,0,1
137944,-125,4,2,41,75,0,1
138060,-125,4,2,32,75,0,1
138175,-125,4,2,39,75,0,1
138291,-125,4,2,40,75,0,1
138406,-125,4,2,32,75,0,1
138521,-125,4,2,39,75,0,1
138637,-125,4,2,32,75,0,1
138753,-58.8235294117647,4,2,39,75,0,1
139098,-58.8235294117647,4,2,35,75,0,1
139329,-58.8235294117647,4,2,39,75,0,1
139444,-58.8235294117647,4,2,35,75,0,1
139791,-58.8235294117647,4,2,38,75,0,1
139906,-58.8235294117647,4,2,35,75,0,1
140021,-58.8235294117647,4,2,37,75,0,1
140137,-58.8235294117647,4,2,36,75,0,1
140252,-58.8235294117647,4,2,35,75,0,1
140367,-58.8235294117647,4,2,38,75,0,1
140483,-58.8235294117647,4,2,34,75,0,1
140599,-45.4545454545455,4,2,33,75,0,1
140772,-45.4545454545455,4,2,1,5,0,1
140830,-58.8235294117647,4,2,40,75,0,1
141060,-58.8235294117647,4,2,34,75,0,1
141175,-58.8235294117647,4,2,30,75,0,1
141291,-58.8235294117647,4,2,38,75,0,1
141406,-58.8235294117647,4,2,33,75,0,1
141637,-58.8235294117647,4,2,33,5,0,1
141752,-58.8235294117647,4,2,40,75,0,1
141983,-58.8235294117647,4,2,34,75,0,1
142098,-58.8235294117647,4,2,30,75,0,1
142214,-58.8235294117647,4,2,38,75,0,1
142329,-58.8235294117647,4,2,33,75,0,1
142560,-58.8235294117647,4,2,33,5,0,1
142675,-58.8235294117647,4,2,40,75,0,1
142906,-58.8235294117647,4,2,34,75,0,1
143021,-58.8235294117647,4,2,34,40,0,1
143137,-58.8235294117647,4,2,38,75,0,1
143252,-58.8235294117647,4,2,34,40,0,1
143367,-58.8235294117647,4,2,35,75,0,1
143483,-58.8235294117647,4,2,34,40,0,1
143598,-58.8235294117647,4,2,38,75,0,1
143714,-58.8235294117647,4,2,34,40,0,1
143829,-58.8235294117647,4,2,34,75,0,1
143944,-58.8235294117647,4,2,34,40,0,1
144060,-58.8235294117647,4,2,33,75,0,1
144175,-58.8235294117647,4,2,34,40,0,1
144291,-58.8235294117647,4,2,40,75,0,1
144752,-58.8235294117647,4,2,39,75,0,1
144983,-58.8235294117647,4,2,40,75,0,1
145214,-58.8235294117647,4,2,30,50,0,0
145676,-100,4,2,32,35,0,0
145791,-100,4,2,40,35,0,0
145906,-100,4,2,34,35,0,0
146021,-100,4,2,38,35,0,0
146137,-100,4,2,39,45,0,0
146252,-100,4,2,32,45,0,0
146367,-100,4,2,41,45,0,0
146483,-100,4,2,42,45,0,0
146829,-100,4,2,39,45,0,0
146944,-100,4,2,32,45,0,0
147291,-100,4,2,37,45,0,0
147406,-100,4,2,36,45,0,0
147521,-100,4,2,38,45,0,0
147637,-100,4,2,35,45,0,0
147752,-100,4,2,34,45,0,0
147867,-100,4,2,38,45,0,0
147983,-100,4,2,34,45,0,0
148098,-100,4,2,33,45,0,0
148329,-100,4,2,39,45,0,0
148444,-100,4,2,40,45,0,0
148560,-100,4,2,1,5,0,0
148675,-100,4,2,39,45,0,0
148791,-100,4,2,32,45,0,0
148906,-100,4,2,1,5,0,0
149021,-100,4,2,32,45,0,0
149137,-100,4,2,39,45,0,0
149252,-100,4,2,34,45,0,0
149367,-100,4,2,33,45,0,0
149483,-100,4,2,41,45,0,0
149598,-100,4,2,32,45,0,0
149714,-100,4,2,39,45,0,0
149829,-100,4,2,34,45,0,0
149944,-100,4,2,39,45,0,0
150060,-100,4,2,35,45,0,0
150175,-100,4,2,38,45,0,0
150521,-100,4,2,43,45,0,0
150637,-100,4,2,44,45,0,0
150867,-100,4,2,43,45,0,0
150983,-100,4,2,46,45,0,0
151098,-100,4,2,45,45,0,0
151214,-100,4,2,47,45,0,0
151329,-100,4,2,43,45,0,0
151444,-100,4,2,44,45,0,0
151560,-100,4,2,35,45,0,0
151675,-100,4,2,37,45,0,0
151791,-100,4,2,35,45,0,0
152021,-100,4,2,33,45,0,0
152137,-100,4,2,34,45,0,0
152252,-100,4,2,1,5,0,0
152367,-100,4,2,35,45,0,0
152483,-100,4,2,38,45,0,0
152598,-100,4,2,1,5,0,0
152714,-100,4,2,39,45,0,0
152829,-100,4,2,40,45,0,0
152944,-100,4,2,30,45,0,0
153060,-100,4,2,34,45,0,0
153175,-100,4,2,32,45,0,0
153291,-100,4,2,39,45,0,0
153406,-100,4,2,40,45,0,0
153522,-83.3333333333333,4,2,34,35,0,0
153637,-83.3333333333333,4,2,33,35,0,0
153752,-83.3333333333333,4,2,1,5,0,0
153867,-83.3333333333333,4,2,39,35,0,0
153983,-83.3333333333333,4,2,40,35,0,0
154098,-83.3333333333333,4,2,1,5,0,0
154214,-83.3333333333333,4,2,35,45,0,0
154329,-83.3333333333333,4,2,38,45,0,0
154675,-83.3333333333333,4,2,37,45,0,0
154791,-83.3333333333333,4,2,36,45,0,0
154906,-83.3333333333333,4,2,38,45,0,0
155021,-83.3333333333333,4,2,35,45,0,0
155137,-83.3333333333333,4,2,34,45,0,0
155252,-83.3333333333333,4,2,38,45,0,0
155367,-83.3333333333333,4,2,34,45,0,0
155483,-83.3333333333333,4,2,33,45,0,0
155598,-83.3333333333333,4,2,1,5,0,0
155714,-83.3333333333333,4,2,39,45,0,0
155829,-83.3333333333333,4,2,40,45,0,0
155944,-83.3333333333333,4,2,1,5,0,0
156060,-83.3333333333333,4,2,39,45,0,0
156175,-83.3333333333333,4,2,32,45,0,0
156521,-83.3333333333333,4,2,39,45,0,0
156637,-83.3333333333333,4,2,34,45,0,0
156752,-83.3333333333333,4,2,33,45,0,0
156867,-83.3333333333333,4,2,41,45,0,0
156983,-83.3333333333333,4,2,32,45,0,0
157098,-83.3333333333333,4,2,39,45,0,0
157214,-83.3333333333333,4,2,34,45,0,0
157329,-83.3333333333333,4,2,39,45,0,0
157444,-83.3333333333333,4,2,35,45,0,0
157560,-83.3333333333333,4,2,38,45,0,0
157906,-83.3333333333333,4,2,43,45,0,0
158021,-83.3333333333333,4,2,44,45,0,0
158252,-83.3333333333333,4,2,43,45,0,0
158367,-83.3333333333333,4,2,46,45,0,0
158483,-83.3333333333333,4,2,45,45,0,0
158598,-83.3333333333333,4,2,47,45,0,0
158714,-83.3333333333333,4,2,43,45,0,0
158829,-83.3333333333333,4,2,44,45,0,0
158944,-83.3333333333333,4,2,35,45,0,0
159060,-83.3333333333333,4,2,37,45,0,0
159175,-83.3333333333333,4,2,35,45,0,0
159291,-83.3333333333333,4,2,34,45,0,0
159406,-83.3333333333333,4,2,35,45,0,0
159521,-83.3333333333333,4,2,38,45,0,0
159637,-83.3333333333333,4,2,40,45,0,0
159752,-83.3333333333333,4,2,38,45,0,0
159867,-83.3333333333333,4,2,34,45,0,0
159983,-83.3333333333333,4,2,33,45,0,0
160098,-83.3333333333333,4,2,34,45,0,0
160214,-83.3333333333333,4,2,33,45,0,0
160329,-83.3333333333333,4,2,39,45,0,0
160444,-83.3333333333333,4,2,40,45,0,0
160483,-83.3333333333333,4,2,1,45,0,0
160907,-50,4,2,1,65,0,0
161368,-62.5,4,2,1,65,0,0
161830,-50,4,2,1,65,0,0
162464,-50,4,2,1,5,0,0
162522,-62.5,4,2,1,65,0,0
162753,-62.5,4,2,1,65,0,0
164022,-62.5,4,2,1,65,0,0
164599,-50,4,2,1,65,0,0
164945,-62.5,4,2,1,65,0,0
165522,-50,4,2,1,65,0,0
165695,-50,4,2,1,5,0,0
165753,-62.5,4,2,1,65,0,0
166791,-62.5,4,2,1,65,0,0
168291,-50,4,2,1,65,0,0
168926,-50,4,2,1,5,0,0
168984,-62.5,4,2,1,65,0,0
170080,-62.5,4,2,1,5,0,0
170138,-62.5,4,2,1,65,0,0
172907,-50,4,2,1,65,0,0
173080,-50,4,2,1,5,0,0
173138,-62.5,4,2,1,65,0,0
175676,-62.5,4,2,1,60,0,0
183061,-62.5,4,2,3,65,0,0
186753,-45.4545454545455,4,2,3,65,0,0
187099,-58.8235294117647,4,2,3,65,0,0
190330,-1000,4,2,1,65,0,0
199676,-100,4,2,1,50,0,0
205214,-500,4,2,1,45,0,0
206599,-500,4,2,1,15,0,0
207061,-500,4,2,30,65,0,0
207175,-500,4,2,35,65,0,0
207291,-500,4,2,37,65,0,0
207406,-500,4,2,35,65,0,0
207521,-500,4,2,37,65,0,0
207637,-500,4,2,46,65,0,0
207752,-500,4,2,37,65,0,0
207867,-500,4,2,46,65,0,0
207983,-500,4,2,70,65,0,0
208098,-500,4,2,54,65,0,0
208214,-500,4,2,50,65,0,0
208329,-500,4,2,52,65,0,0
208444,-500,4,2,35,65,0,0
208560,-500,4,2,50,65,0,0
208675,-500,4,2,51,65,0,0
208791,-500,4,2,39,65,0,0
208906,-35.7142857142857,4,2,2,90,0,1
209253,-35.7142857142857,4,2,1,90,0,1
209368,-45.4545454545455,4,2,1,90,0,1
209541,-45.4545454545455,4,2,1,5,0,1
209599,-58.8235294117647,4,2,1,90,0,1
209830,-45.4545454545455,4,2,1,90,0,1
210003,-45.4545454545455,4,2,1,5,0,1
210061,-58.8235294117647,4,2,1,90,0,1
211676,-45.4545454545455,4,2,1,90,0,1
211849,-45.4545454545455,4,2,1,5,0,1
211907,-58.8235294117647,4,2,1,90,0,1
213984,-50,4,2,1,90,0,1
214445,-58.8235294117647,4,2,1,90,0,1
215022,-50,4,2,1,90,0,1
215368,-45.4545454545455,4,2,1,90,0,1
216291,-38.4615384615385,4,2,2,90,0,1
216638,-38.4615384615385,4,2,1,90,0,1
216753,-45.4545454545455,4,2,1,90,0,1
216926,-45.4545454545455,4,2,1,5,0,1
216984,-58.8235294117647,4,2,1,90,0,1
217214,-45.4545454545455,4,2,1,90,0,1
217388,-45.4545454545455,4,2,1,5,0,1
217445,-58.8235294117647,4,2,1,90,0,1
219061,-45.4545454545455,4,2,1,90,0,1
219521,-45.4545454545455,4,2,1,90,0,1
219695,-45.4545454545455,4,2,1,5,0,1
219753,-58.8235294117647,4,2,1,90,0,1
221830,-38.4615384615385,4,2,1,90,0,1
223676,-35.7142857142857,4,2,2,90,0,1
224022,-35.7142857142857,4,2,1,90,0,1
224138,-45.4545454545455,4,2,1,90,0,1
224311,-45.4545454545455,4,2,1,5,0,1
224368,-58.8235294117647,4,2,1,90,0,1
224599,-45.4545454545455,4,2,1,90,0,1
224772,-45.4545454545455,4,2,1,5,0,1
224830,-58.8235294117647,4,2,1,90,0,1
226445,-45.4545454545455,4,2,1,90,0,1
226618,-45.4545454545455,4,2,1,5,0,1
226676,-58.8235294117647,4,2,1,90,0,1
228753,-50,4,2,1,90,0,1
229214,-58.8235294117647,4,2,1,90,0,1
229791,-50,4,2,1,90,0,1
230138,-45.4545454545455,4,2,1,90,0,1
231061,-38.4615384615385,4,2,2,90,0,1
231407,-38.4615384615385,4,2,1,90,0,1
231522,-45.4545454545455,4,2,1,90,0,1
231695,-45.4545454545455,4,2,1,5,0,1
231753,-58.8235294117647,4,2,1,90,0,1
231984,-45.4545454545455,4,2,1,90,0,1
232157,-45.4545454545455,4,2,1,5,0,1
232214,-58.8235294117647,4,2,1,90,0,1
234753,-45.4545454545455,4,2,1,90,0,1
234926,-45.4545454545455,4,2,1,5,0,1
234984,-58.8235294117647,4,2,1,90,0,1
236599,-71.4285714285714,4,2,1,90,0,1
237061,-66.6666666666667,4,2,1,90,0,1
237984,-58.8235294117647,4,2,1,90,0,1
240291,-45.4545454545455,4,2,1,90,0,1
240753,-58.8235294117647,4,2,1,90,0,1
241214,-45.4545454545455,4,2,1,90,0,1
241676,-58.8235294117647,4,2,1,90,0,1
243291,-58.8235294117647,4,2,1,75,0,0
243522,-333.333333333333,4,2,1,30,0,0
243984,-62.5,4,2,36,80,0,0
244099,-62.5,4,2,35,80,0,0
244329,-62.5,4,2,50,80,0,0
244445,-50,4,2,1,80,0,0
244618,-50,4,2,1,5,0,0
244676,-62.5,4,2,31,80,0,0
244791,-62.5,4,2,1,50,0,0
244906,-62.5,4,2,33,80,0,0
245021,-62.5,4,2,1,50,0,0
245137,-62.5,4,2,34,80,0,0
245252,-62.5,4,2,1,50,0,0
245367,-62.5,4,2,50,80,0,0
245483,-62.5,4,2,31,80,0,0
245598,-62.5,4,2,44,80,0,0
245714,-62.5,4,2,54,80,0,0
245829,-62.5,4,2,35,80,0,0
245944,-62.5,4,2,50,80,0,0
246175,-62.5,4,2,35,80,0,0
246291,-50,4,2,1,80,0,0
246464,-50,4,2,1,5,0,0
246522,-62.5,4,2,36,80,0,0
246637,-62.5,4,2,1,50,0,0
246752,-62.5,4,2,35,80,0,0
246867,-62.5,4,2,1,50,0,0
246983,-62.5,4,2,50,80,0,0
247098,-62.5,4,2,1,50,0,0
247214,-83.3333333333333,4,2,34,80,0,0
247329,-62.5,4,2,1,50,0,0
247444,-83.3333333333333,4,2,31,80,0,0
247560,-62.5,4,2,1,50,0,0
247676,-62.5,4,2,50,80,0,0
247791,-62.5,4,2,34,80,0,0
248021,-62.5,4,2,33,80,0,0
248138,-50,4,2,1,80,0,0
248311,-50,4,2,1,5,0,0
248368,-62.5,4,2,31,80,0,0
248483,-62.5,4,2,1,50,0,0
248598,-62.5,4,2,57,80,0,0
248714,-62.5,4,2,1,50,0,0
248829,-62.5,4,2,38,80,0,0
248944,-62.5,4,2,1,50,0,0
249060,-62.5,4,2,50,80,0,0
249175,-62.5,4,2,1,50,0,0
249291,-62.5,4,2,51,80,0,0
249406,-62.5,4,2,1,50,0,0
249521,-62.5,4,2,34,80,0,0
249752,-62.5,4,2,33,80,0,0
249867,-62.5,4,2,35,80,0,0
249984,-50,4,2,1,80,0,0
250157,-50,4,2,1,5,0,0
250214,-62.5,4,2,38,80,0,0
250329,-62.5,4,2,1,50,0,0
250444,-62.5,4,2,50,80,0,0
250560,-62.5,4,2,1,50,0,0
250675,-62.5,4,2,39,80,0,0
250791,-62.5,4,2,1,50,0,0
250906,-62.5,4,2,39,80,0,0
251021,-62.5,4,2,31,80,0,0
251137,-62.5,4,2,33,80,0,0
251252,-62.5,4,2,35,80,0,0
251367,-62.5,4,2,50,80,0,0
251483,-62.5,4,2,34,80,0,0
251714,-62.5,4,2,33,80,0,0
251830,-50,4,2,1,80,0,0
252003,-50,4,2,1,5,0,0
252061,-62.5,4,2,31,80,0,0
252175,-62.5,4,2,1,50,0,0
252291,-62.5,4,2,33,80,0,0
252406,-62.5,4,2,1,50,0,0
252521,-62.5,4,2,34,80,0,0
252637,-62.5,4,2,1,50,0,0
252752,-62.5,4,2,50,80,0,0
252867,-62.5,4,2,31,80,0,0
252983,-62.5,4,2,44,80,0,0
253098,-62.5,4,2,54,80,0,0
253214,-62.5,4,2,35,80,0,0
253329,-62.5,4,2,50,80,0,0
253560,-62.5,4,2,35,80,0,0
253676,-50,4,2,1,80,0,0
253849,-50,4,2,1,5,0,0
253907,-62.5,4,2,36,80,0,0
254021,-62.5,4,2,1,50,0,0
254137,-62.5,4,2,35,80,0,0
254252,-62.5,4,2,1,50,0,0
254367,-62.5,4,2,50,80,0,0
254483,-62.5,4,2,1,50,0,0
254598,-62.5,4,2,34,80,0,0
254714,-62.5,4,2,31,80,0,0
254829,-62.5,4,2,33,80,0,0
254944,-62.5,4,2,35,80,0,0
255060,-62.5,4,2,50,80,0,0
255175,-62.5,4,2,34,80,0,0
255406,-62.5,4,2,33,80,0,0
255522,-50,4,2,1,80,0,0
255695,-50,4,2,1,5,0,0
255753,-62.5,4,2,31,80,0,0
255867,-62.5,4,2,1,50,0,0
255983,-62.5,4,2,57,80,0,0
256098,-62.5,4,2,1,50,0,0
256214,-62.5,4,2,38,80,0,0
256329,-62.5,4,2,1,50,0,0
256444,-62.5,4,2,50,80,0,0
256560,-62.5,4,2,1,50,0,0
256675,-62.5,4,2,51,80,0,0
256791,-62.5,4,2,1,50,0,0
256906,-62.5,4,2,1,80,0,0
257137,-62.5,4,2,39,80,0,0
257252,-62.5,4,2,31,80,0,0
257367,-62.5,4,2,33,80,0,0
257483,-62.5,4,2,34,80,0,0
257598,-62.5,4,2,50,80,0,0
257714,-62.5,4,2,36,80,0,0
257829,-62.5,4,2,35,80,0,0
258060,-62.5,4,2,35,40,0,0
258176,-45.4545454545455,4,2,36,80,0,0
258406,-45.4545454545455,4,2,36,40,0,0
258521,-45.4545454545455,4,2,33,80,0,0

[Colours]
Combo1 : 228,226,177
Combo2 : 222,189,200
Combo3 : 182,176,222
Combo4 : 188,128,156

[HitObjects]
4,38,2138,6,0,L|94:53,1,80,2|2,0:0|0:0,0:0:0:0:
129,113,2484,2,0,P|156:78|138:0,1,120,2|2,0:0|0:0,0:0:0:0:
50,126,3061,5,2,0:0:0:0:
42,142,3291,5,2,0:0:0:0:
59,252,3522,1,2,0:0:0:0:
74,362,3753,1,2,0:0:0:0:
211,290,3984,6,0,L|300:304,1,80,2|2,0:0|0:0,0:0:0:0:
347,356,4330,2,0,P|368:317|340:245,1,120,2|2,0:0|0:0,0:0:0:0:
258,201,4907,5,2,0:0:0:0:
347,356,5368,5,2,0:0:0:0:
290,302,5599,1,2,0:0:0:0:
344,249,5830,2,0,L|479:271,2,120,2|2|2,0:0|0:0|0:0,0:0:0:0:
207,248,6753,5,2,0:0:0:0:
183,167,6984,1,2,0:0:0:0:
264,144,7214,1,2,0:0:0:0:
287,224,7445,1,2,0:0:0:0:
207,248,7676,6,0,B|162:239|162:239|136:246|136:246|77:236,2,120,2|2|2,0:0|0:0|0:0,0:0:0:0:
287,224,8599,5,2,0:0:0:0:
269,305,8830,1,2,0:0:0:0:
402,384,9061,1,2,0:0:0:0:
420,303,9292,1,2,0:0:0:0:
287,224,9522,6,0,L|304:129,1,89.9999972534181,0|2,3:0|0:0,0:0:0:0:
420,303,9984,2,0,L|436:215,1,89.9999972534181,0|2,3:0|0:0,0:0:0:0:
288,18,10445,5,0,3:0:0:0:
419,120,10676,1,2,0:0:0:0:
405,2,10907,1,0,3:0:0:0:
302,135,11138,1,2,0:0:0:0:
151,33,11368,6,0,L|54:42,1,89.9999972534181,0|2,3:0|0:0,0:0:0:0:
212,143,11830,2,0,L|301:134,1,89.9999972534181,0|2,3:0|0:0,0:0:0:0:
142,353,12291,5,0,3:0:0:0:
24,366,12522,1,2,0:0:0:0:
12,248,12753,1,0,3:0:0:0:
129,235,12984,1,2,0:0:0:0:
343,340,13214,6,0,B|396:335|396:335|425:346|425:346|485:338,2,134.999995880127,0|2|2,3:0|0:0|0:0,0:0:0:0:
258,353,14138,5,0,3:0:0:0:
436,252,14368,1,2,0:0:0:0:
436,233,14484,1,0,0:0:0:0:
436,215,14599,6,0,P|431:203|428:222,1,44.999998626709,0|0,3:0|0:0,0:0:0:0:
343,137,14830,2,0,P|348:125|351:144,1,44.999998626709,2|2,0:0|0:0,0:0:0:0:
499,4,15291,6,0,L|456:13,1,34.9999989318848,2|0,0:0|0:0,0:0:0:0:
386,34,15522,2,0,L|343:45,1,34.9999989318848,2|0,0:0|0:0,0:0:0:0:
263,0,15753,1,0,0:0:0:0:
254,5,15868,1,2,0:0:0:0:
245,10,15984,2,0,L|266:83,1,69.9999978637696,2|2,0:0|0:0,0:0:0:0:
275,85,16330,1,0,0:0:0:0:
210,145,16445,5,2,0:0:0:0:
184,137,16561,1,2,0:0:0:0:
123,78,16676,1,2,0:0:0:0:
97,86,16792,1,2,0:0:0:0:
44,153,16907,5,6,3:2:0:0:
103,214,17022,2,0,L|85:305,1,80,2|0,0:0|0:0,0:0:0:0:
280,378,17253,1,2,0:0:0:0:
276,296,17368,2,0,B|186:297|226:359|128:352,1,150,10|0,0:0|0:0,0:0:0:0:
87,292,17599,2,0,L|103:214,1,80,2|0,0:0|0:0,0:0:0:0:
388,91,17830,6,0,P|418:116|484:119,1,80,2|0,3:2|0:0,0:0:0:0:
333,157,18061,2,0,P|296:173|272:204,1,80,2|0,0:0|0:0,0:0:0:0:
441,337,18291,1,10,0:0:0:0:
481,268,18407,1,2,0:0:0:0:
427,208,18522,1,2,0:0:0:0:
353,241,18637,1,2,0:0:0:0:
361,320,18753,5,2,3:2:0:0:
297,373,18868,2,0,L|196:358,1,80,2|0,0:0|0:0,0:0:0:0:
1,251,19099,1,2,0:0:0:0:
61,200,19214,2,0,P|117:216|155:310,1,150,10|0,0:0|0:0,0:0:0:0:
102,357,19445,2,0,L|1:342,1,80,2|0,0:0|0:0,0:0:0:0:
217,199,19676,6,0,P|240:246|240:290,1,80,2|0,3:2|0:0,0:0:0:0:
0,147,19907,2,0,P|5:107|25:73,1,80,2|0,0:0|0:0,0:0:0:0:
213,110,20138,6,0,P|178:122|149:146,1,59.9999981689454,10|0,0:0|0:0,0:0:0:0:
49,0,20368,2,0,P|81:17|99:40,1,59.9999981689454,2|0,0:0|0:0,0:0:0:0:
287,153,20599,5,2,3:2:0:0:
345,96,20714,2,0,L|330:6,1,80,2|0,0:0|0:0,0:0:0:0:
512,234,20945,1,2,0:0:0:0:
448,184,21061,2,0,B|393:195|393:195|364:222|364:222|304:237,1,150,10|0,0:0|0:0,0:0:0:0:
259,295,21291,2,0,L|161:280,1,80,2|0,0:0|0:0,0:0:0:0:
0,341,21522,6,0,P|43:351|78:397,1,80,2|0,3:2|0:0,0:0:0:0:
202,172,21753,2,0,P|172:198|133:206,1,80,2|0,0:0|0:0,0:0:0:0:
167,361,21984,2,0,L|181:273,1,80,10|0,0:0|0:0,0:0:0:0:
19,166,22214,2,0,L|6:86,1,80,2|0,0:0|0:0,0:0:0:0:
232,10,22445,6,0,B|289:23|289:23|316:55|316:55|395:72,1,160,2|2,3:2|0:0,0:0:0:0:
512,85,22791,1,2,0:0:0:0:
448,38,22907,2,0,B|414:16|414:16|440:150,1,150,10|0,0:0|0:0,0:0:0:0:
495,177,23138,2,0,L|480:273,1,80,2|0,0:0|0:0,0:0:0:0:
387,384,23368,6,0,P|417:359|457:354,1,80,2|0,3:2|0:0,0:0:0:0:
272,201,23599,2,0,P|232:196|201:171,1,80,2|0,0:0|0:0,0:0:0:0:
51,348,23830,5,10,0:0:0:0:
11,279,23944,1,2,0:0:0:0:
65,219,24061,1,2,0:0:0:0:
139,252,24176,1,2,0:0:0:0:
131,331,24292,5,6,3:2:0:0:
195,380,24407,2,0,L|296:365,1,80,2|0,0:0|0:0,0:0:0:0:
336,128,24638,1,2,0:0:0:0:
282,191,24753,2,0,B|281:233|313:255|313:255|308:256|308:256|347:285|337:328,1,150,10|0,0:0|0:0,0:0:0:0:
410,363,24984,2,0,L|489:351,1,80,2|0,0:0|0:0,0:0:0:0:
448,165,25214,6,0,P|409:176|380:203,1,80,2|0,3:2|0:0,0:0:0:0:
236,294,25445,2,0,P|197:282|168:255,1,80,2|0,0:0|0:0,0:0:0:0:
15,62,25676,5,10,0:0:0:0:
66,0,25792,1,2,0:0:0:0:
141,29,25907,1,2,0:0:0:0:
136,109,26022,1,2,0:0:0:0:
59,130,26138,5,2,3:2:0:0:
97,200,26253,2,0,L|79:293,1,80,2|0,0:0|0:0,0:0:0:0:
241,382,26484,1,2,0:0:0:0:
236,294,26599,2,0,B|183:311|183:311|156:342|156:342|80:366,1,150,10|0,0:0|0:0,0:0:0:0:
23,338,26830,2,0,P|0:301|9:248,1,80,2|0,0:0|0:0,0:0:0:0:
248,207,27061,6,0,L|337:228,1,80,2|0,3:2|0:0,0:0:0:0:
136,109,27291,2,0,L|46:134,1,80,2|0,0:0|0:0,0:0:0:0:
370,109,27522,5,10,0:0:0:0:
362,28,27638,1,2,0:0:0:0:
284,10,27753,1,2,0:0:0:0:
240,79,27868,1,2,0:0:0:0:
294,139,27984,5,2,3:2:0:0:
248,207,28099,2,0,L|259:300,1,80,2|0,0:0|0:0,0:0:0:0:
494,326,28330,1,2,0:0:0:0:
452,259,28445,2,0,B|362:272|412:326|315:337,1,150,10|0,0:0|0:0,0:0:0:0:
257,286,28676,2,0,L|248:207,1,80,2|0,0:0|0:0,0:0:0:0:
436,145,28907,6,0,P|471:160|531:164,1,80,2|0,3:2|0:0,0:0:0:0:
411,0,29138,2,0,P|394:36|368:66,1,80,2|0,0:0|0:0,0:0:0:0:
247,206,29368,2,0,P|211:221|171:226,1,80,10|0,0:0|0:0,0:0:0:0:
224,39,29599,2,0,P|241:75|268:106,1,80,2|0,0:0|0:0,0:0:0:0:
452,259,29830,5,6,3:2:0:0:
466,253,30061,5,2,0:0:0:0:
437,225,30176,1,2,0:0:0:0:
384,234,30291,1,10,0:0:0:0:
369,295,30407,1,2,0:0:0:0:
308,346,30522,1,2,0:0:0:0:
227,322,30638,1,2,0:0:0:0:
212,226,30753,5,2,3:2:0:0:
266,168,30868,1,2,0:0:0:0:
242,105,30984,1,2,0:0:0:0:
177,93,31099,1,2,0:0:0:0:
143,122,31214,6,0,L|115:292,1,157.499995193482,10|0,0:0|0:0,0:0:0:0:
69,340,31676,6,0,B|106:365|106:365|158:347,2,89.9999972534181,4|2|0,0:0|0:0|3:0,0:0:0:0:
209,298,32368,1,2,0:0:0:0:
201,287,32484,1,0,0:0:0:0:
211,279,32599,2,0,L|263:294,1,44.999998626709,0|0,3:0|0:0,0:0:0:0:
394,358,32830,2,0,L|350:370,1,44.999998626709,2|0,0:0|0:0,0:0:0:0:
337,242,33061,2,0,L|350:289,1,44.999998626709,0|0,3:0|0:0,0:0:0:0:
479,384,33291,6,0,L|499:283,1,89.9999972534181,2|0,0:0|3:0,0:0:0:0:
313,155,33753,2,0,L|336:243,1,89.9999972534181,2|0,0:0|3:0,0:0:0:0:
512,48,34214,5,2,0:0:0:0:
436,13,34445,1,0,3:0:0:0:
368,74,34676,1,2,0:0:0:0:
252,9,34907,1,0,3:0:0:0:
163,99,35138,2,0,L|107:86,1,44.999998626709,2|0,0:0|0:0,0:0:0:0:
13,15,35368,6,0,B|-5:54|-5:54|12:103,2,89.9999972534181,0|2|0,3:0|0:0|3:0,0:0:0:0:
96,163,36061,1,2,0:0:0:0:
104,177,36176,1,2,0:0:0:0:
92,183,36291,2,0,P|57:179|36:169,1,44.999998626709,0|0,3:0|0:0,0:0:0:0:
175,213,36522,2,0,P|199:187|208:166,1,44.999998626709,2|0,0:0|0:0,0:0:0:0:
118,44,36753,2,0,P|115:66|118:88,1,44.999998626709,0|0,3:0|0:0,0:0:0:0:
102,288,36984,6,0,L|198:304,1,89.9999972534181,2|0,0:0|3:0,0:0:0:0:
371,146,37445,2,0,L|275:162,1,89.9999972534181,2|0,0:0|3:0,0:0:0:0:
457,381,37907,5,2,0:0:0:0:
512,126,38137,1,0,3:0:0:0:
313,280,38368,1,2,0:0:0:0:
512,285,38599,2,0,L|455:299,1,44.999998626709,0|0,3:0|0:0,0:0:0:0:
296,375,38830,2,0,L|252:364,1,44.999998626709,2|0,0:0|0:0,0:0:0:0:
105,232,39061,6,0,P|164:227|215:297,1,129.999994049073,4|2,3:2|0:0,0:0:0:0:
33,268,39407,1,2,0:0:0:0:
23,255,39522,2,0,L|46:124,1,120,8|0,0:0|0:0,0:0:0:0:
50,114,39753,2,0,P|36:93|44:123,1,80,2|0,0:0|0:0,0:0:0:0:
182,151,39984,6,0,B|256:159|226:200|306:205,1,129.999994049073,0|2,3:0|0:0,0:0:0:0:
328,5,40330,1,2,0:3:0:0:
316,14,40445,2,0,B|285:47|285:47|310:146,1,120,8|0,0:0|0:0,0:0:0:0:
314,129,40676,2,0,L|387:147,1,64.9999970245363,2|0,0:0|0:0,0:0:0:0:
512,284,40907,6,0,P|448:285|402:338,1,129.999994049073,0|2,3:0|0:0,0:0:0:0:
277,352,41253,1,2,0:0:0:0:
288,345,41368,2,0,P|318:355|340:378,1,64.9999970245363,8|0,0:0|0:0,0:0:0:0:
200,369,41599,2,0,L|185:250,1,97.4999955368044,2|0,0:0|0:0,0:0:0:0:
184,253,41830,6,0,B|112:257|134:313|48:305,1,129.999994049073,0|2,3:0|0:0,0:0:0:0:
0,194,42176,1,2,0:0:0:0:
14,186,42291,2,0,P|42:199|95:209,1,64.9999970245363,8|0,0:0|0:0,0:0:0:0:
203,131,42522,2,0,P|231:118|284:108,1,64.9999970245363,2|0,0:0|0:0,0:0:0:0:
426,202,42753,6,0,L|404:330,1,129.999994049073,0|2,3:0|0:0,0:0:0:0:
332,173,43099,1,2,0:0:0:0:
339,186,43214,2,0,L|317:314,1,120,8|0,0:0|0:0,0:0:0:0:
312,315,43445,2,0,B|283:325|283:325|242:306,1,64.9999970245363,2|0,0:0|0:0,0:0:0:0:
75,207,43676,5,0,3:0:0:0:
5,371,43907,1,2,0:0:0:0:
172,263,44138,2,0,L|185:183,1,64.9999970245363,8|0,0:0|0:0,0:0:0:0:
5,294,44368,2,0,L|15:358,1,64.9999970245363,6|0,0:0|0:0,0:0:0:0:
251,310,44599,6,0,P|180:305|128:361,1,129.999994049073,0|2,3:0|0:0,0:0:0:0:
323,382,44945,1,2,0:0:0:0:
346,307,45061,1,8,0:0:0:0:
337,291,45176,1,2,0:0:0:0:
371,219,45291,1,2,0:0:0:0:
362,203,45406,1,2,0:0:0:0:
394,131,45522,5,0,3:0:0:0:
446,345,45868,5,0,3:0:0:0:
512,175,46214,6,0,L|451:185,1,50,0|0,3:0|0:0,0:0:0:0:
284,126,46445,6,0,B|207:128|231:184|140:186,1,139.999995727539,4|2,3:2|0:0,0:0:0:0:
46,50,46791,1,2,0:0:0:0:
57,38,46907,2,0,P|100:34|157:106,1,120,8|0,0:0|0:0,0:0:0:0:
150,107,47138,2,0,L|62:125,1,69.9999978637696,2|0,0:0|0:0,0:0:0:0:
0,305,47368,5,0,3:0:0:0:
42,341,47484,1,2,0:0:0:0:
87,314,47599,2,0,L|104:233,1,69.9999978637696,2|0,0:0|0:0,0:0:0:0:
193,384,47830,2,0,L|180:306,1,69.9999978637696,8|0,0:0|0:0,0:0:0:0:
282,338,48061,2,0,L|295:260,1,69.9999978637696,2|0,0:0|0:0,0:0:0:0:
489,314,48291,6,0,B|404:318|437:377|338:373,1,139.999995727539,0|2,3:0|0:0,0:0:0:0:
341,211,48638,1,2,0:0:0:0:
352,197,48753,2,0,P|395:217|484:237,1,120,8|0,0:0|0:0,0:0:0:0:
487,229,48984,2,0,P|473:206|475:227,1,69.9999978637696,2|0,0:0|0:0,0:0:0:0:
366,372,49214,6,0,P|366:336|380:299,1,69.9999978637696,0|0,3:0|0:0,0:0:0:0:
485,211,49445,2,0,P|485:176|473:143,1,69.9999978637696,2|0,0:0|0:0,0:0:0:0:
276,75,49676,2,0,L|207:91,1,69.9999978637696,8|0,0:0|0:0,0:0:0:0:
337,178,49907,2,0,L|406:194,1,69.9999978637696,2|0,0:0|0:0,0:0:0:0:
464,15,50138,6,0,P|420:26|409:122,1,139.999995727539,0|2,3:0|0:0,0:0:0:0:
485,211,50484,1,2,0:0:0:0:
472,223,50599,2,0,B|439:230|439:230|390:205,1,69.9999978637696,8|0,0:0|0:0,0:0:0:0:
264,85,50830,2,0,L|275:-9,1,69.9999978637696,2|0,0:0|0:0,0:0:0:0:
82,156,51061,6,0,B|133:170|133:170|159:197|159:197|235:216,1,139.999995727539,0|2,3:0|0:0,0:0:0:0:
285,234,51407,1,2,0:0:0:0:
298,224,51522,2,0,L|312:130,1,69.9999978637696,8|0,0:0|0:0,0:0:0:0:
179,356,51753,6,0,P|214:322|310:339,1,139.999995727539,2|0,0:0|3:0,0:0:0:0:
380,384,52099,1,2,0:0:0:0:
393,371,52214,2,0,L|376:286,1,69.9999978637696,2|0,0:0|0:0,0:0:0:0:
446,233,52445,2,0,P|488:261|539:258,1,69.9999978637696,8|0,0:0|0:0,0:0:0:0:
331,115,52676,2,0,L|245:133,1,69.9999978637696,2|0,0:0|0:0,0:0:0:0:
506,180,52907,6,0,P|519:141|509:94,1,69.9999978637696,0|0,3:0|0:0,0:0:0:0:
422,229,53138,2,0,P|396:196|389:149,1,69.9999978637696,2|0,0:0|0:0,0:0:0:0:
507,96,53368,2,0,P|497:129|475:156,1,69.9999978637696,8|0,0:0|0:0,0:0:0:0:
346,95,53599,2,0,P|353:129|372:157,1,69.9999978637696,2|0,0:0|0:0,0:0:0:0:
512,282,53830,6,0,P|447:272|384:337,1,139.999995727539,4|2,3:2|0:0,0:0:0:0:
257,384,54176,1,2,0:0:0:0:
266,369,54291,2,0,L|247:213,1,139.999995727539,8|2,0:0|0:0,0:0:0:0:
49,322,54753,6,0,B|99:338|99:338|120:362|120:362|194:382,1,139.999995727539,0|2,3:0|0:0,0:0:0:0:
257,384,55099,1,2,0:0:0:0:
266,369,55214,2,0,L|254:274,1,69.9999978637696,8|0,0:0|0:0,0:0:0:0:
151,210,55445,2,0,P|111:233|70:234,1,69.9999978637696,2|0,0:0|0:0,0:0:0:0:
308,93,55676,6,0,L|475:127,1,139.999995727539,0|2,3:0|0:0,0:0:0:0:
512,21,56022,1,2,0:0:0:0:
491,11,56138,2,0,P|455:29|409:36,1,69.9999978637696,8|0,0:0|0:0,0:0:0:0:
232,45,56368,1,2,0:0:0:0:
220,31,56599,6,0,L|242:196,1,139.999995727539,0|2,3:0|0:0,0:0:0:0:
381,224,56945,1,2,0:0:0:0:
363,213,57061,2,0,B|327:211|327:211|293:243,1,69.9999978637696,8|0,0:0|0:0,0:0:0:0:
163,315,57291,2,0,L|175:394,1,69.9999978637696,2|0,0:0|0:0,0:0:0:0:
417,361,57522,6,0,L|427:291,1,69.9999978637696,0|0,3:0|0:0,0:0:0:0:
242,283,57753,2,0,P|280:311|312:312,1,69.9999978637696,2|0,0:0|0:0,0:0:0:0:
452,190,57984,2,0,L|364:206,1,69.9999978637696,8|0,0:0|0:0,0:0:0:0:
229,257,58214,2,0,P|225:222|240:191,1,69.9999978637696,2|0,0:0|0:0,0:0:0:0:
400,96,58445,1,0,3:0:0:0:
422,90,58676,6,0,L|498:111,1,69.9999978637696,2|0,0:0|0:0,0:0:0:0:
232,41,58907,2,0,L|156:62,1,69.9999978637696,8|0,0:0|0:0,0:0:0:0:
0,157,59138,2,0,P|55:152|123:232,1,139.999995727539,2|0,0:0|3:0,0:0:0:0:
73,276,59484,1,2,0:0:0:0:
55,288,59599,2,0,L|36:358,1,69.9999978637696,2|0,0:0|0:0,0:0:0:0:
299,215,59830,6,0,B|246:229|246:229|220:255|220:255|167:270,1,139.999995727539,8|2,0:0|0:0,0:0:0:0:
305,384,60176,1,2,0:0:0:0:
319,375,60291,2,0,L|336:286,1,69.9999978637696,0|0,3:0|0:0,0:0:0:0:
359,64,60522,5,2,3:0:0:0:
287,88,60638,1,2,3:0:0:0:
266,159,60753,1,10,3:0:0:0:
299,215,60868,1,2,3:0:0:0:
352,230,60984,1,4,3:0:0:0:
390,214,61099,1,4,3:0:0:0:
408,184,61214,6,0,L|493:207,1,80,6|0,3:2|0:0,0:0:0:0:
465,108,61445,5,2,0:3:0:0:
334,246,61561,2,0,L|242:263,1,80,2|0,0:3|3:0,0:0:0:0:
371,92,61791,5,2,0:3:0:0:
435,306,61907,1,2,0:3:0:0:
450,298,62138,5,0,3:0:0:0:
410,289,62253,1,2,0:0:0:0:
379,322,62368,1,2,0:0:0:0:
345,357,62484,1,2,0:0:0:0:
299,342,62599,6,0,L|205:360,1,80,10|0,0:0|0:0,0:0:0:0:
408,184,62830,2,0,L|493:207,1,80,2|0,0:0|0:0,0:0:0:0:
282,35,63061,6,0,L|188:53,1,80,6|0,3:0|0:0,0:0:0:0:
314,200,63291,5,2,0:3:0:0:
416,86,63407,2,0,L|502:108,1,80,2|0,0:3|3:0,0:0:0:0:
327,214,63638,5,2,0:3:0:0:
190,38,63753,1,2,3:0:0:0:
178,26,63984,5,0,3:0:0:0:
148,64,64099,1,2,0:0:0:0:
102,49,64214,1,2,0:0:0:0:
76,89,64330,1,2,0:0:0:0:
28,78,64445,5,10,0:0:0:0:
8,157,64561,1,2,0:0:0:0:
59,223,64676,1,2,0:0:0:0:
23,308,64791,6,0,B|82:297|82:297|120:320|120:320|200:301,1,160,2|0,0:0|0:0,0:0:0:0:
313,261,65138,5,2,0:0:0:0:
331,186,65253,1,2,0:0:0:0:
214,171,65368,5,10,0:0:0:0:
232,247,65483,1,2,0:0:0:0:
250,325,65598,1,2,0:0:0:0:
356,370,65714,6,0,B|450:376|408:311|515:322,1,160,2|0,0:0|0:0,0:0:0:0:
459,199,66061,5,2,0:0:0:0:
439,241,66176,1,2,0:0:0:0:
489,235,66292,5,10,0:0:0:0:
462,118,66407,1,2,0:0:0:0:
438,0,66522,1,2,0:0:0:0:
424,11,66638,6,0,B|363:23|363:23|331:48|331:48|247:63,1,160,2|0,0:0|0:0,0:0:0:0:
361,197,66984,2,0,P|378:161|372:122,1,80,2|0,0:0|0:0,0:0:0:0:
150,21,67214,5,10,0:0:0:0:
106,88,67330,1,2,0:0:0:0:
137,159,67445,1,2,0:3:0:0:
171,227,67561,1,2,0:3:0:0:
126,295,67676,6,0,L|30:281,1,80,6|0,0:0|0:0,0:0:0:0:
218,163,67907,5,4,3:0:0:0:
289,356,68022,2,0,L|385:342,1,80,0|8,3:0|0:0,0:0:0:0:
226,145,68253,5,2,0:0:0:0:
168,371,68368,1,2,0:3:0:0:
178,368,68484,1,2,0:3:0:0:
187,365,68599,6,0,P|213:327|213:285,1,80,0|0,3:0|0:0,0:0:0:0:
338,270,68830,2,0,P|309:233|269:220,1,80,2|0,0:0|0:0,0:0:0:0:
46,283,69061,2,0,L|126:295,1,80,8|0,0:0|0:0,0:0:0:0:
8,148,69291,2,0,L|87:159,1,80,2|0,0:0|0:0,0:0:0:0:
290,104,69522,6,0,P|245:120|221:154,1,80,0|0,3:0|0:0,0:0:0:0:
77,43,69753,2,0,P|117:66|136:104,1,80,2|0,0:0|0:0,0:0:0:0:
310,92,69984,6,0,L|326:-3,1,80,8|0,0:0|0:0,0:0:0:0:
87,159,70214,2,0,L|111:301,1,120,2|0,0:0|0:0,0:0:0:0:
125,294,70445,6,0,P|164:286|187:255,1,80,0|0,3:0|0:0,0:0:0:0:
282,339,70676,2,0,P|287:299|264:267,1,80,2|0,0:0|0:0,0:0:0:0:
119,130,70907,2,0,P|137:164|174:177,1,80,8|0,0:0|0:0,0:0:0:0:
373,202,71138,2,0,P|338:185|301:197,1,80,2|0,0:0|0:0,0:0:0:0:
272,74,71368,2,0,P|245:102|245:141,1,80,0|0,3:0|0:0,0:0:0:0:
396,300,71599,6,0,L|496:274,1,80,2|0,0:0|0:0,0:0:0:0:
427,64,71830,2,0,L|349:84,1,80,8|0,0:0|0:0,0:0:0:0:
111,281,72061,1,8,0:0:0:0:
174,333,72176,1,4,3:0:0:0:
186,252,72291,6,0,P|181:218|168:172,1,69.9999978637696,6|0,3:2|0:0,0:0:0:0:
17,314,72522,2,0,P|22:280|35:234,1,69.9999978637696,2|0,0:0|0:0,0:0:0:0:
255,219,72753,6,0,P|223:255|191:265,1,69.9999978637696,8|0,0:0|0:0,0:0:0:0:
0,161,72984,2,0,P|33:153|67:161,1,69.9999978637696,2|0,0:0|0:0,0:0:0:0:
272,204,73214,6,0,L|263:134,1,69.9999978637696,0|0,3:0|0:0,0:0:0:0:
47,0,73445,5,4,3:0:0:0:
59,51,73561,1,4,3:0:0:0:
130,79,73676,1,8,3:2:0:0:
123,110,73792,1,4,3:0:0:0:
67,161,73907,1,8,0:3:0:0:
74,184,74022,1,8,0:3:0:0:
146,224,74138,5,0,3:0:0:0:
77,264,74253,1,8,0:0:0:0:
188,294,74368,1,8,0:0:0:0:
117,331,74483,1,8,0:0:0:0:
104,339,74714,5,8,3:2:0:0:
206,372,74830,1,8,0:0:0:0:
298,320,74945,1,8,0:0:0:0:
398,350,75061,1,8,3:2:0:0:
398,350,75984,6,0,P|408:265|301:330,1,270.000001029968,14|2,3:2|0:0,0:0:0:0:
491,344,76330,1,2,0:0:0:0:
505,352,76445,2,0,B|525:310|500:279|500:279|504:273|504:273|475:235|497:193,1,165.000005035401,8|0,0:0|0:0,0:0:0:0:
477,114,76676,2,0,P|449:93|456:129,1,85.0000016212464,2|0,0:0|0:0,0:0:0:0:
285,238,76907,6,0,L|110:210,1,165.000005035401,0|0,3:0|0:0,0:0:0:0:
51,248,77138,6,0,P|75:280|132:289,1,85.0000016212464,2|0,0:0|0:0,0:0:0:0:
95,49,77368,2,0,L|5:72,1,85.0000016212464,8|0,0:0|0:0,0:0:0:0:
196,187,77599,2,0,B|210:146|210:146|177:84,1,85.0000016212464,2|0,0:0|0:0,0:0:0:0:
93,370,77830,6,0,B|130:293|217:310|217:310|238:348|295:356,1,220.000006713867,0|2,3:0|0:0,0:0:0:0:
362,242,78176,2,0,P|322:243|284:281,1,85.0000016212464,2|8,0:0|0:0,0:0:0:0:
445,384,78407,2,0,B|456:314|456:314|448:291|448:291|462:207,1,170.000003242493,2|0,0:0|0:0,0:0:0:0:
383,26,78753,6,0,P|312:26|304:112,1,165.000005035401,0|0,3:0|0:0,0:0:0:0:
370,150,78984,2,0,L|476:132,1,85.0000016212464,2|0,0:0|0:0,0:0:0:0:
161,17,79214,6,0,B|144:37|144:37|215:22,1,85.0000016212464,8|0,0:0|0:0,0:0:0:0:
301,186,79445,2,0,L|285:291,1,85.0000016212464,2|0,0:0|0:0,0:0:0:0:
93,127,79676,6,0,P|137:144|160:189,1,85.0000016212464,0|0,3:0|0:0,0:0:0:0:
301,352,79907,2,0,P|340:338|365:304,1,85.0000016212464,2|0,0:0|0:0,0:0:0:0:
84,205,80138,2,0,L|-21:221,1,85.0000016212464,8|0,0:0|0:0,0:0:0:0:
209,367,80368,2,0,B|223:326|223:326|205:270,1,85.0000016212464,2|0,0:0|0:0,0:0:0:0:
17,300,80599,6,0,L|-1:388,1,85.0000016212464,0|0,3:0|0:0,0:0:0:0:
271,186,80830,2,0,L|289:274,1,85.0000016212464,2|0,0:0|0:0,0:0:0:0:
17,108,81061,2,0,L|-1:196,1,85.0000016212464,8|0,0:0|0:0,0:0:0:0:
280,1,81291,2,0,L|298:89,1,85.0000016212464,2|0,0:0|0:0,0:0:0:0:
188,379,81522,6,0,P|235:319|374:337,1,220.000006713867,0|2,3:0|0:0,0:0:0:0:
507,369,81868,2,0,P|479:383|500:354,1,89.9999972534181,2|8,0:0|0:0,0:0:0:0:
495,216,82099,2,0,P|437:271|427:181,1,200,2|0,0:0|0:0,0:0:0:0:
501,29,82445,6,0,B|382:10|411:115|272:79,1,220.000006713867,2|2,3:2|0:0,0:0:0:0:
75,124,82791,1,2,0:0:0:0:
71,48,82907,6,0,B|90:32|98:7|98:7|95:37|121:80,1,100,8|0,0:0|0:0,0:0:0:0:
199,319,83138,2,0,B|212:337|209:367|209:367|217:342|236:326,1,100,2|0,0:0|0:0,0:0:0:0:
371,58,83368,6,0,P|311:-9|320:92,1,230.000004386902,6|2,3:2|0:0,0:0:0:0:
505,188,83714,1,2,0:0:0:0:
495,174,83830,2,0,B|458:157|423:190|423:190|405:189|405:189|374:215|336:205,1,165.000005035401,8|0,0:0|0:0,0:0:0:0:
261,188,84061,2,0,P|239:161|273:160,1,85.0000016212464,2|0,0:0|0:0,0:0:0:0:
436,298,84291,6,0,B|465:257|465:257|406:294|338:286,1,165.000005035401,0|0,3:0|0:0,0:0:0:0:
283,268,84522,6,0,P|259:320|263:364,1,85.0000016212464,2|0,0:0|0:0,0:0:0:0:
420,181,84753,2,0,P|383:202|341:206,1,85.0000016212464,8|0,0:0|0:0,0:0:0:0:
204,128,84984,2,0,P|239:152|261:189,1,85.0000016212464,2|0,0:0|0:0,0:0:0:0:
50,364,85214,6,0,B|36:343|5:337|5:337|107:314|107:314|118:352|177:364,1,220.000006713867,0|2,3:0|0:0,0:0:0:0:
192,256,85561,2,0,P|207:282|180:260,1,85.0000016212464,2|8,0:0|0:0,0:0:0:0:
11,191,85791,2,0,B|24:123|24:123|18:92|18:92|34:14,1,170.000003242493,2|0,0:0|0:0,0:0:0:0:
192,1,86138,6,0,P|154:51|257:40,1,220.000006713867,0|2,3:0|0:0,0:0:0:0:
478,9,86484,1,2,0:0:0:0:
491,22,86599,2,0,B|520:65|520:65|403:37,1,165.000005035401,8|0,0:0|0:0,0:0:0:0:
343,2,86830,2,0,P|335:62|367:101,1,85.0000016212464,2|0,0:0|0:0,0:0:0:0:
484,273,87061,6,0,P|446:300|382:287,1,85.0000016212464,0|0,3:0|0:0,0:0:0:0:
213,300,87291,2,0,P|225:254|264:230,1,85.0000016212464,2|0,0:0|0:0,0:0:0:0:
415,118,87522,2,0,P|429:161|413:204,1,85.0000016212464,8|0,0:0|0:0,0:0:0:0:
358,384,87753,2,0,P|319:357|307:312,1,85.0000016212464,2|0,0:0|0:0,0:0:0:0:
248,135,87984,6,0,P|293:133|329:162,1,85.0000016212464,0|0,3:0|0:0,0:0:0:0:
129,351,88214,2,0,P|93:373|51:371,1,85.0000016212464,2|0,0:0|0:0,0:0:0:0:
214,53,88445,2,0,L|231:160,1,85.0000016212464,8|0,0:0|0:0,0:0:0:0:
10,299,88676,2,0,B|-5:260|-5:260|17:194,1,85.0000016212464,2|0,0:0|0:0,0:0:0:0:
427,10,88907,6,0,B|479:23|499:64|477:122|407:126|359:86|341:43|341:43|359:88|350:112|350:112|321:130|325:175,1,375,2|0,3:2|0:0,0:0:0:0:
449,176,89368,2,0,P|448:218|382:190,1,125,8|0,0:0|0:0,0:0:0:0:
186,19,89599,5,10,0:3:0:0:
140,26,89714,1,0,3:0:0:0:
72,96,89830,5,8,3:2:0:0:
149,109,89945,1,0,3:0:0:0:
246,172,90061,5,8,0:0:0:0:
160,189,90176,1,0,3:0:0:0:
75,246,90291,5,10,0:0:0:0:
172,268,90406,1,0,3:0:0:0:
314,321,90522,5,8,0:0:0:0:
183,349,90637,1,0,3:0:0:0:
412,372,90753,6,0,P|440:301|317:338,1,270.000001029968,14|2,3:2|0:0,0:0:0:0:
91,372,91099,1,2,0:0:0:0:
106,363,91214,2,0,B|175:377|175:377|196:370|196:370|295:389,1,165.000005035401,8|0,0:0|0:0,0:0:0:0:
313,320,91445,2,0,P|293:285|280:317,1,85.0000016212464,2|0,0:0|0:0,0:0:0:0:
75,246,91676,6,0,B|52:283|52:283|181:268,1,165.000005035401,0|0,3:0|0:0,0:0:0:0:
230,215,91907,6,0,P|193:188|143:200,1,85.0000016212464,2|0,0:0|0:0,0:0:0:0:
374,380,92138,2,0,P|415:382|448:356,1,85.0000016212464,8|0,0:0|0:0,0:0:0:0:
512,117,92368,2,0,B|472:78|419:94|419:94|410:132|367:147,1,150,2|0,0:0|0:0,0:0:0:0:
374,212,92599,6,0,P|393:271|437:183,1,220.000006713867,0|2,3:0|0:0,0:0:0:0:
337,69,92945,2,0,B|294:69|294:69|335:88,1,85.0000016212464,2|8,0:0|0:0,0:0:0:0:
153,45,93176,2,0,P|211:44|232:167,1,170.000003242493,2|0,0:0|0:0,0:0:0:0:
219,311,93522,6,0,B|155:323|155:323|127:351|127:351|45:367,1,165.000005035401,0|0,3:0|0:0,0:0:0:0:
6,307,93753,2,0,P|-8:258|19:210,1,85.0000016212464,2|0,0:0|0:0,0:0:0:0:
242,221,93984,6,0,L|338:244,1,85.0000016212464,8|0,0:0|0:0,0:0:0:0:
90,98,94214,2,0,L|7:117,1,85.0000016212464,2|0,0:0|0:0,0:0:0:0:
361,67,94445,6,0,P|327:41|286:33,1,85.0000016212464,0|0,3:0|0:0,0:0:0:0:
153,142,94676,2,0,P|195:134|227:107,1,85.0000016212464,2|0,0:0|0:0,0:0:0:0:
105,14,94907,2,0,L|88:106,1,85.0000016212464,8|0,0:0|0:0,0:0:0:0:
309,157,95138,2,0,L|326:249,1,85.0000016212464,2|0,0:0|0:0,0:0:0:0:
94,381,95368,6,0,L|109:297,1,85.0000016212464,0|0,3:0|0:0,0:0:0:0:
321,151,95599,2,0,L|337:235,1,85.0000016212464,2|0,0:0|0:0,0:0:0:0:
71,224,95830,2,0,P|127:216|162:242,1,85.0000016212464,8|0,0:0|0:0,0:0:0:0:
335,365,96061,2,0,B|376:373|376:373|436:337,1,85.0000016212464,2|0,0:0|0:0,0:0:0:0:
470,90,96291,6,0,B|406:45|324:72|324:72|367:70|386:108,1,220.000006713867,0|2,3:0|0:0,0:0:0:0:
438,170,96638,2,0,L|454:254,1,85.0000016212464,2|8,0:0|0:0,0:0:0:0:
191,62,96868,2,0,P|239:19|245:112,1,200,2|0,0:0|0:0,0:0:0:0:
0,120,97214,6,0,B|116:103|81:206|225:176,1,220.000006713867,2|0,3:2|0:0,0:0:0:0:
381,99,97561,1,2,0:0:0:0:
416,33,97676,6,0,B|402:14|405:-15|405:-15|397:10|378:25,1,100,8|0,0:0|0:0,0:0:0:0:
256,310,97907,2,0,B|242:329|245:358|245:358|237:333|218:318,1,100,2|0,0:0|0:0,0:0:0:0:
2,45,98138,6,0,P|52:-7|54:99,1,230.000004386902,6|2,3:2|0:0,0:0:0:0:
24,265,98484,1,2,0:0:0:0:
14,251,98599,2,0,B|75:245|75:245|113:263|113:263|196:251,1,165.000005035401,8|0,0:0|0:0,0:0:0:0:
271,234,98830,2,0,P|287:253|254:244,1,85.0000016212464,2|0,0:0|0:0,0:0:0:0:
192,19,99061,6,0,P|225:77|342:56,1,165.000005035401,0|0,3:0|0:0,0:0:0:0:
399,68,99291,6,0,P|394:109|369:143,1,85.0000016212464,2|0,0:0|0:0,0:0:0:0:
103,175,99522,2,0,P|141:157|182:162,1,85.0000016212464,8|0,0:0|0:0,0:0:0:0:
352,369,99753,2,0,P|317:344|301:305,1,85.0000016212464,2|0,0:0|0:0,0:0:0:0:
481,112,99984,6,0,L|498:214,1,85.0000016212464,0|0,3:0|0:0,0:0:0:0:
155,242,100214,2,0,L|141:325,1,85.0000016212464,2|0,0:0|0:0,0:0:0:0:
479,14,100445,2,0,L|493:98,1,85.0000016212464,8|0,0:0|0:0,0:0:0:0:
131,0,100676,2,0,L|117:83,1,85.0000016212464,2|0,0:0|0:0,0:0:0:0:
378,270,100907,6,0,P|397:210|289:236,1,220.000006713867,0|2,3:0|0:0,0:0:0:0:
407,367,101253,1,2,0:0:0:0:
422,357,101368,2,0,L|526:384,1,85.0000016212464,8|0,0:0|0:0,0:0:0:0:
218,141,101599,2,0,L|114:168,1,85.0000016212464,2|0,0:0|0:0,0:0:0:0:
493,81,101830,5,4,0:3:0:0:
438,18,101945,1,2,0:3:0:0:
359,48,102061,1,2,0:3:0:0:
366,133,102176,1,2,0:3:0:0:
449,153,102291,1,8,0:0:0:0:
456,238,102406,1,2,0:3:0:0:
378,270,102522,1,2,0:3:0:0:
324,206,102637,5,6,3:0:0:0:
306,214,102984,5,4,3:0:0:0:
289,222,103214,5,2,0:0:0:0:
278,257,103330,1,2,0:0:0:0:
225,318,103445,1,2,0:0:0:0:
236,353,103561,1,2,0:0:0:0:
387,384,103676,5,6,3:2:0:0:
392,309,103791,2,0,P|340:319|315:356,1,80,2|0,0:0|0:0,0:0:0:0:
85,232,104022,1,2,0:0:0:0:
149,187,104138,2,0,B|236:200|189:249|305:260,1,150,10|0,0:0|0:0,0:0:0:0:
337,203,104368,2,0,L|321:106,1,80,2|0,0:0|0:0,0:0:0:0:
82,16,104599,6,0,P|34:46|-8:51,1,80,2|0,3:2|0:0,0:0:0:0:
175,109,104830,2,0,P|213:120|245:143,1,80,2|0,0:0|0:0,0:0:0:0:
54,348,105061,1,10,0:0:0:0:
14,279,105175,1,2,0:0:0:0:
68,219,105292,1,2,0:0:0:0:
142,252,105407,1,2,0:0:0:0:
134,331,105521,5,2,3:2:0:0:
198,384,105638,2,0,L|299:369,1,80,2|0,0:0|0:0,0:0:0:0:
400,205,105868,1,2,0:0:0:0:
328,168,105984,2,0,B|307:203|325:239|325:239|319:243|319:243|345:282|317:325,1,150,10|0,0:0|0:0,0:0:0:0:
277,372,106214,2,0,L|198:384,1,80,2|0,0:0|0:0,0:0:0:0:
400,123,106445,6,0,P|446:138|475:172,1,80,2|0,3:2|0:0,0:0:0:0:
280,16,106676,2,0,P|245:35|224:69,1,80,2|0,0:0|0:0,0:0:0:0:
440,51,106907,6,0,P|465:39|506:33,1,59.9999981689454,10|0,0:0|0:0,0:0:0:0:
312,177,107138,2,0,P|282:171|255:159,1,59.9999981689454,2|0,0:0|0:0,0:0:0:0:
8,68,107368,5,2,3:2:0:0:
80,36,107484,2,0,P|120:60|137:107,1,80,2|0,0:0|0:0,0:0:0:0:
13,279,107714,1,2,0:0:0:0:
6,196,107830,2,0,B|62:212|62:212|85:240|85:240|169:262,1,150,10|0,0:0|0:0,0:0:0:0:
198,306,108061,2,0,P|217:267|207:218,1,80,2|0,0:0|0:0,0:0:0:0:
25,357,108291,6,0,P|70:365|111:387,1,80,2|0,3:2|0:0,0:0:0:0:
289,209,108522,2,0,P|252:225|213:231,1,80,2|0,0:0|0:0,0:0:0:0:
286,384,108753,2,0,L|301:288,1,80,10|0,0:0|0:0,0:0:0:0:
143,100,108984,2,0,L|155:179,1,80,2|0,0:0|0:0,0:0:0:0:
509,205,109214,6,0,B|409:196|447:269|340:254,1,160,2|2,3:2|0:0,0:0:0:0:
273,77,109561,1,2,0:0:0:0:
337,37,109676,2,0,P|386:44|424:141,1,150,10|0,0:0|0:0,0:0:0:0:
364,175,109907,2,0,L|259:160,1,80,2|0,0:0|0:0,0:0:0:0:
89,0,110138,6,0,P|118:44|106:94,1,80,2|0,3:2|0:0,0:0:0:0:
15,232,110368,2,0,L|115:244,1,80,2|0,0:0|0:0,0:0:0:0:
307,373,110599,1,10,0:0:0:0:
378,336,110715,1,2,0:0:0:0:
363,256,110829,1,2,0:0:0:0:
283,244,110944,1,2,0:0:0:0:
248,316,111061,5,6,3:2:0:0:
174,343,111176,2,0,L|94:333,1,80,2|0,0:0|0:0,0:0:0:0:
258,137,111407,1,2,0:0:0:0:
327,175,111522,2,0,B|379:170|379:170|413:186|413:186|486:181,1,150,10|0,0:0|0:0,0:0:0:0:
512,113,111753,2,0,P|514:73|478:30,1,80,2|0,0:0|0:0,0:0:0:0:
299,0,111984,6,0,L|316:97,1,80,2|0,3:2|0:0,0:0:0:0:
473,182,112214,2,0,L|456:279,1,80,2|0,0:0|0:0,0:0:0:0:
198,344,112445,1,10,0:0:0:0:
155,276,112561,1,2,0:0:0:0:
208,214,112675,1,2,0:0:0:0:
283,244,112790,1,2,0:0:0:0:
277,324,112907,5,2,3:2:0:0:
347,371,113022,2,0,L|432:358,1,80,2|0,0:0|0:0,0:0:0:0:
208,214,113253,1,2,0:0:0:0:
155,276,113368,2,0,P|96:272|57:186,1,150,10|0,0:0|0:0,0:0:0:0:
19,130,113599,2,0,L|36:40,1,80,2|0,0:0|0:0,0:0:0:0:
320,0,113830,6,0,P|359:24|416:23,1,80,2|0,3:2|0:0,0:0:0:0:
211,126,114061,2,0,P|172:135|141:160,1,80,2|0,0:0|0:0,0:0:0:0:
487,219,114291,1,10,0:0:0:0:
476,139,114407,1,2,0:0:0:0:
395,125,114521,1,2,0:0:0:0:
357,197,114638,1,2,0:0:0:0:
413,254,114753,5,2,3:2:0:0:
365,316,114868,2,0,L|276:300,1,80,2|0,0:0|0:0,0:0:0:0:
43,353,115099,1,2,0:0:0:0:
90,291,115214,2,0,B|186:301|134:351|253:352,1,150,10|0,0:0|0:0,0:0:0:0:
286,302,115445,2,0,P|291:245|262:207,1,80,2|0,0:0|0:0,0:0:0:0:
109,59,115676,6,0,P|61:80|22:86,1,80,2|0,3:2|0:0,0:0:0:0:
263,135,115907,2,0,P|311:156|350:162,1,80,2|0,0:0|0:0,0:0:0:0:
228,0,116138,2,0,P|205:39|208:98,1,80,10|0,0:0|0:0,0:0:0:0:
63,218,116368,2,0,P|67:257|89:290,1,80,2|0,0:0|0:0,0:0:0:0:
335,370,116599,5,6,3:2:0:0:
346,358,116830,5,2,0:0:0:0:
355,318,116945,1,2,0:0:0:0:
321,277,117060,1,10,0:0:0:0:
261,294,117176,1,2,0:0:0:0:
186,267,117291,1,2,0:0:0:0:
166,185,117407,1,2,0:0:0:0:
242,124,117522,5,2,3:2:0:0:
319,142,117637,1,2,0:0:0:0:
362,90,117753,1,2,0:0:0:0:
340,27,117868,1,2,0:0:0:0:
297,12,117984,6,0,L|177:42,1,110.000003356934,10|2,0:0|0:0,0:0:0:0:
13,187,118445,6,0,B|25:240|25:240|22:252|22:252|35:310,2,120,6|2|2,3:2|0:0|0:0,0:0:0:0:
104,349,119368,2,0,L|190:366,1,80,2|0,3:2|0:0,0:0:0:0:
260,379,119714,1,2,0:0:0:0:
269,369,119830,2,0,L|259:323,1,40,8|0,0:0|0:0,0:0:0:0:
413,357,120061,2,0,P|393:292|341:335,1,160,2|0,0:0|0:0,0:0:0:0:
512,365,120753,2,0,L|493:274,1,80,8|2,0:0|0:0,0:0:0:0:
282,255,121214,5,2,3:2:0:0:
473,208,121445,1,2,0:0:0:0:
174,149,121676,5,10,0:0:0:0:
380,193,121907,1,2,0:0:0:0:
389,187,122022,1,0,0:0:0:0:
398,181,122138,6,0,B|408:128|408:128|416:119|416:119|427:56,2,120,2|2|2,3:2|0:0|0:0,0:0:0:0:
245,0,123061,2,0,B|253:38|253:38|258:45|258:45|269:92,1,80,2|0,3:2|0:0,0:0:0:0:
291,151,123407,1,2,0:0:0:0:
283,161,123522,2,0,L|239:153,1,40,8|0,0:0|0:0,0:0:0:0:
100,71,123753,2,0,P|125:47|149:125,1,160,2|0,0:0|0:0,0:0:0:0:
6,348,124445,5,8,0:0:0:0:
0,332,124561,1,2,0:0:0:0:
47,275,124676,5,2,0:0:0:0:
79,268,124791,1,2,0:0:0:0:
148,304,124907,5,2,3:2:0:0:
213,339,125022,1,2,0:0:0:0:
285,310,125138,1,2,0:0:0:0:
310,235,125253,1,2,0:0:0:0:
264,169,125368,5,10,0:0:0:0:
234,178,125484,1,2,0:0:0:0:
165,217,125599,5,2,0:0:0:0:
135,208,125715,1,2,0:0:0:0:
75,79,125830,5,2,3:2:0:0:
114,73,125944,1,2,0:0:0:0:
149,91,126060,1,2,0:0:0:0:
169,125,126176,1,2,0:0:0:0:
390,76,126291,5,10,0:0:0:0:
314,58,126406,1,2,0:0:0:0:
248,101,126521,1,2,0:0:0:0:
234,178,126637,1,2,0:0:0:0:
431,258,126753,5,2,3:2:0:0:
449,179,126868,1,2,0:0:0:0:
371,160,126983,1,2,0:0:0:0:
352,238,127099,1,2,0:0:0:0:
443,215,127214,5,10,0:0:0:0:
413,165,127330,1,2,0:0:0:0:
365,195,127445,1,2,0:0:0:0:
394,246,127560,1,2,0:0:0:0:
413,343,127676,5,2,3:2:0:0:
410,353,127791,1,2,0:0:0:0:
339,317,127907,5,2,0:0:0:0:
331,341,128022,1,2,0:0:0:0:
263,289,128138,5,10,0:0:0:0:
181,301,128253,1,2,0:0:0:0:
134,366,128368,1,2,0:0:0:0:
52,381,128484,1,2,0:0:0:0:
154,212,128599,5,2,3:2:0:0:
167,258,128714,1,2,0:0:0:0:
38,151,128830,5,2,0:0:0:0:
25,197,128945,1,2,0:0:0:0:
162,85,129061,5,10,0:0:0:0:
175,131,129176,1,2,0:0:0:0:
85,24,129291,5,2,0:0:0:0:
72,70,129406,1,2,0:0:0:0:
245,178,129522,5,0,3:0:0:0:
278,173,129637,1,2,0:0:0:0:
312,170,129752,1,2,0:0:0:0:
345,166,129868,1,2,0:0:0:0:
221,205,129984,5,10,0:0:0:0:
262,142,130099,1,2,0:0:0:0:
324,201,130214,1,2,0:0:0:0:
366,137,130330,1,2,0:0:0:0:
512,248,130445,5,2,3:2:0:0:
436,260,130560,1,2,0:0:0:0:
361,272,130675,1,2,0:0:0:0:
284,288,130791,1,2,0:0:0:0:
327,374,130907,5,10,0:0:0:0:
333,358,131022,1,2,0:0:0:0:
412,352,131138,5,2,0:0:0:0:
418,338,131253,2,0,L|437:251,1,80,2|0,0:0|0:0,0:0:0:0:
511,45,131599,6,0,B|412:56|412:56|396:71|396:71|261:87,1,209.999993591309,2|8,0:0|0:0,0:0:0:0:
151,75,131945,6,0,P|135:38|238:52,1,209.999993591309,2|0,0:0|0:0,0:0:0:0:
194,148,132291,6,0,B|142:175|99:139|99:139|95:144|95:144|58:96|-9:132,1,209.999993591309,2|0,0:0|3:0,0:0:0:0:
353,254,132638,6,0,P|335:167|263:219,1,209.999993591309,2|0,0:0|0:0,0:0:0:0:
352,339,132984,6,0,L|445:326,1,85.0000016212464,2|0,0:0|0:0,0:0:0:0:
12,309,133214,5,6,3:2:0:0:
42,384,133330,1,2,0:0:0:0:
155,246,133445,5,2,0:0:0:0:
123,322,133561,1,2,0:0:0:0:
33,229,133676,5,10,0:0:0:0:
56,234,133791,1,2,0:0:0:0:
159,160,133907,5,2,0:0:0:0:
142,166,134022,1,2,0:0:0:0:
10,143,134138,5,2,3:2:0:0:
24,62,134253,1,2,0:0:0:0:
97,26,134368,1,2,0:0:0:0:
171,60,134484,2,0,L|214:53,1,42.5000008106232,2|2,0:0|0:0,0:0:0:0:
273,108,134599,5,10,0:0:0:0:
348,92,134714,1,2,0:0:0:0:
408,189,134830,5,2,0:0:0:0:
333,173,134945,1,2,0:0:0:0:
455,39,135061,6,0,L|475:143,1,85.0000016212464,2|0,3:2|0:0,0:0:0:0:
354,250,135291,5,2,0:0:0:0:
302,23,135407,2,0,B|340:6|340:6|397:23,1,85.0000016212464,2|8,0:0|0:0,0:0:0:0:
486,204,135638,5,2,0:0:0:0:
274,230,135753,2,0,L|176:212,1,85.0000016212464,2|2,0:0|0:0,0:0:0:0:
504,328,135984,5,2,3:2:0:0:
483,283,136099,1,2,0:0:0:0:
436,290,136214,6,0,P|408:321|410:378,1,85.0000016212464,10|2,0:0|0:0,0:0:0:0:
333,173,136445,2,0,P|329:131|301:100,1,85.0000016212464,10|0,0:0|0:0,0:0:0:0:
120,180,136676,6,0,L|71:191,1,40
27,248,136907,5,2,3:2:0:0:
104,279,137022,1,2,0:0:0:0:
165,357,137138,5,2,0:0:0:0:
242,326,137253,1,2,0:0:0:0:
191,240,137368,5,10,0:0:0:0:
186,263,137484,1,2,0:0:0:0:
259,187,137599,5,2,0:0:0:0:
270,219,137715,1,2,0:0:0:0:
335,46,137830,5,2,3:2:0:0:
256,25,137945,1,2,0:0:0:0:
233,104,138061,1,2,0:0:0:0:
310,126,138176,1,2,0:0:0:0:
412,165,138291,5,10,0:0:0:0:
440,159,138407,1,2,0:0:0:0:
346,239,138522,5,2,0:0:0:0:
270,219,138638,1,2,0:0:0:0:
429,354,138753,6,0,L|515:337,1,85.0000016212464,2|0,3:2|0:0,0:0:0:0:
310,126,138984,5,2,0:0:0:0:
231,292,139099,2,0,B|192:294|192:294|155:258,1,85.0000016212464,2|8,0:0|0:0,0:0:0:0:
319,106,139330,5,2,0:0:0:0:
488,312,139445,2,0,P|510:269|495:210,1,85.0000016212464,2|0,0:0|0:0,0:0:0:0:
328,83,139676,5,2,3:2:0:0:
236,98,139791,1,2,0:0:0:0:
298,1,139907,5,10,0:0:0:0:
390,16,140022,1,2,0:0:0:0:
163,139,140138,5,10,0:0:0:0:
151,107,140253,1,2,0:0:0:0:
153,73,140368,1,2,0:0:0:0:
168,43,140484,1,2,0:0:0:0:
328,83,140599,6,0,B|318:149|318:149|305:165|305:165|290:260,1,165.000005035401,6|0,3:2|0:0,0:0:0:0:
353,304,140830,2,0,P|367:318|359:287,1,85.0000016212464,2|0,0:0|0:0,0:0:0:0:
218,200,141061,5,10,0:0:0:0:
140,217,141176,1,2,0:0:0:0:
93,287,141291,1,2,0:0:0:0:
17,304,141407,1,2,0:0:0:0:
40,222,141522,6,0,L|21:118,1,85.0000016212464,0|0,3:0|0:0,0:0:0:0:
190,286,141753,2,0,L|174:369,1,85.0000016212464,2|2,0:0|0:0,0:0:0:0:
5,33,141984,5,10,0:0:0:0:
83,50,142099,1,2,0:0:0:0:
130,120,142214,1,2,0:0:0:0:
206,137,142330,1,2,0:0:0:0:
268,80,142445,6,0,P|283:35|260:-19,1,85.0000016212464,0|0,3:0|0:0,0:0:0:0:
116,255,142676,2,0,L|202:270,1,85.0000016212464,2|0,0:0|0:0,0:0:0:0:
471,161,142907,6,0,B|491:200|491:200|477:253,1,85.0000016212464,10|0,0:0|0:0,0:0:0:0:
362,108,143138,2,0,B|329:137|329:137|324:192,1,85.0000016212464,2|0,0:0|0:0,0:0:0:0:
488,384,143368,6,0,P|478:341|432:321,1,85.0000016212464,2|0,3:2|0:0,0:0:0:0:
217,277,143599,2,0,L|125:299,1,85.0000016212464,2|0,0:0|0:0,0:0:0:0:
351,384,143830,2,0,L|368:296,1,85.0000016212464,10|0,0:0|0:0,0:0:0:0:
172,95,144061,2,0,L|188:178,1,85.0000016212464,2|0,0:0|0:0,0:0:0:0:
505,160,144291,5,6,3:2:0:0:
455,152,144406,1,2,0:3:0:0:
410,175,144521,1,2,0:3:0:0:
388,220,144637,1,2,0:3:0:0:
315,175,144753,5,10,0:0:0:0:
351,104,144867,1,2,0:3:0:0:
422,69,144984,1,2,3:2:0:0:
501,81,145099,1,2,0:3:0:0:
352,24,145214,5,14,3:2:0:0:
337,14,145676,6,0,L|282:30,1,50,2|2,3:2|0:0,0:0:0:0:
236,85,145907,2,0,L|187:99,1,50,2|2,0:0|0:0,0:0:0:0:
47,58,146138,5,2,3:2:0:0:
51,28,146253,1,2,0:0:0:0:
80,23,146368,1,2,0:0:0:0:
94,49,146484,1,2,0:0:0:0:
83,208,146714,5,2,0:0:0:0:
104,229,146830,1,2,0:0:0:0:
112,201,146945,1,2,0:0:0:0:
86,127,147176,5,2,0:0:0:0:
162,135,147291,1,2,3:2:0:0:
192,207,147407,1,2,0:0:0:0:
217,280,147522,5,10,0:0:0:0:
245,272,147638,1,2,0:0:0:0:
287,285,147753,5,2,0:0:0:0:
315,277,147867,1,2,0:0:0:0:
373,223,147984,5,2,0:0:0:0:
399,254,148099,2,0,L|389:308,1,50,2|0,0:0|3:0,0:0:0:0:
331,81,148330,5,2,0:0:0:0:
287,145,148445,2,0,L|297:199,1,50,10|0,0:0|0:0,0:0:0:0:
381,18,148676,5,2,0:0:0:0:
465,85,148791,2,0,L|455:139,1,50,2|0,3:2|0:0,0:0:0:0:
102,54,149022,5,2,0:0:0:0:
119,69,149138,1,2,3:2:0:0:
147,71,149253,1,2,0:0:0:0:
174,0,149368,5,10,0:0:0:0:
182,38,149483,1,2,0:0:0:0:
192,78,149598,1,2,0:0:0:0:
200,116,149714,1,2,0:0:0:0:
210,155,149829,5,2,3:2:0:0:
202,185,149945,1,2,0:0:0:0:
137,227,150061,5,2,0:0:0:0:
129,257,150175,1,2,0:0:0:0:
284,384,150407,5,2,0:0:0:0:
333,329,150522,1,2,0:0:0:0:
286,268,150638,1,2,0:0:0:0:
274,255,150868,5,2,0:0:0:0:
309,206,150984,1,2,3:2:0:0:
343,157,151099,1,2,0:0:0:0:
291,126,151214,5,10,0:0:0:0:
348,143,151330,1,2,0:0:0:0:
406,153,151445,1,2,0:0:0:0:
350,129,151561,1,2,0:0:0:0:
294,106,151676,5,2,0:0:0:0:
353,114,151791,2,0,L|408:112,1,50,2|0,0:0|3:0,0:0:0:0:
270,23,152022,5,2,0:0:0:0:
220,56,152138,2,0,P|209:78|207:115,1,50,10|0,0:0|0:0,0:0:0:0:
153,280,152368,5,2,0:0:0:0:
102,246,152484,2,0,P|90:223|87:199,1,50,2|0,3:2|0:0,0:0:0:0:
0,50,152714,5,2,0:0:0:0:
34,0,152830,1,2,3:2:0:0:
91,17,152945,1,2,0:0:0:0:
92,78,153061,5,10,0:0:0:0:
92,112,153175,1,2,0:0:0:0:
124,122,153292,1,2,3:2:0:0:
144,93,153406,1,2,0:0:0:0:
123,67,153522,5,2,3:2:0:0:
196,38,153638,2,0,L|268:51,1,59.9999981689454,2|0,0:0|0:0,0:0:0:0:
300,241,153868,5,2,0:0:0:0:
238,192,153984,2,0,L|213:123,1,59.9999981689454,10|0,0:0|0:0,0:0:0:0:
362,0,154214,5,2,0:0:0:0:
350,78,154330,2,0,L|311:123,1,59.9999981689454,2|0,0:0|3:0,0:0:0:0:
512,222,154561,5,2,0:0:0:0:
473,206,154676,1,2,0:0:0:0:
432,212,154791,1,2,0:0:0:0:
400,239,154907,5,10,0:0:0:0:
409,279,155022,1,2,0:0:0:0:
377,314,155138,1,2,0:0:0:0:
368,354,155253,1,2,0:0:0:0:
250,372,155368,5,2,3:2:0:0:
245,298,155484,2,0,P|285:303|309:324,1,59.9999981689454,2|0,0:0|0:0,0:0:0:0:
106,384,155714,5,2,0:0:0:0:
61,323,155830,2,0,L|73:254,1,59.9999981689454,10|0,0:0|0:0,0:0:0:0:
256,183,156061,5,2,0:0:0:0:
197,232,156176,2,0,P|167:231|128:212,1,59.9999981689454,2|0,0:0|3:2,0:0:0:0:
53,11,156407,5,2,0:0:0:0:
81,9,156522,1,2,0:0:0:0:
97,36,156638,1,2,0:0:0:0:
21,95,156753,5,10,0:0:0:0:
56,88,156868,1,2,0:0:0:0:
91,82,156983,1,2,0:0:0:0:
127,76,157099,1,2,0:0:0:0:
162,70,157214,5,2,3:2:0:0:
183,87,157330,1,2,0:0:0:0:
263,99,157445,5,2,0:0:0:0:
270,124,157561,2,0,L|252:199,1,59.9999981689454,2|8,0:0|0:0,0:0:0:0:
98,373,157791,5,2,0:0:0:0:
60,308,157907,1,2,0:0:0:0:
124,266,158022,2,0,L|204:288,1,59.9999981689454,2|0,0:0|3:0,0:0:0:0:
452,366,158253,5,2,0:0:0:0:
497,302,158368,1,2,0:0:0:0:
452,239,158484,1,2,0:0:0:0:
377,263,158598,1,10,0:0:0:0:
377,341,158714,1,2,0:0:0:0:
302,365,158830,1,2,0:0:0:0:
257,302,158945,1,2,0:0:0:0:
302,238,159061,5,2,3:2:0:0:
289,194,159176,1,2,0:0:0:0:
212,162,159291,5,2,0:0:0:0:
186,170,159406,1,2,0:0:0:0:
82,270,159522,5,10,0:0:0:0:
105,347,159637,1,2,0:0:0:0:
182,324,159752,1,2,0:0:0:0:
160,247,159868,1,2,0:0:0:0:
109,308,159983,5,2,3:2:0:0:
138,324,160099,1,2,0:0:0:0:
154,296,160214,1,2,0:0:0:0:
125,279,160329,1,2,0:0:0:0:
21,363,160445,6,0,L|29:393,10,19.9999993896485,10|2|2|2|2|2|2|2|2|2|2,0:0|0:0|0:0|0:0|0:0|0:0|0:0|0:0|0:0|0:0|0:0,0:0:0:0:
131,303,160907,6,0,B|249:307|185:385|319:385,1,200,6|2,3:2|0:0,0:0:0:0:
345,138,161253,1,2,0:0:0:0:
237,190,161368,2,0,P|234:241|285:277,1,80,8|0,0:0|0:0,0:0:0:0:
397,354,161599,2,0,L|486:370,1,80,2|0,0:0|0:0,0:0:0:0:
389,18,161830,6,0,B|374:90|374:90|385:140|385:140|362:231,1,200,2|2,3:2|0:0,0:0:0:0:
475,368,162176,1,2,0:0:0:0:
512,300,162291,2,0,P|445:294|397:382,1,150,8|0,0:0|0:0,0:0:0:0:
310,384,162522,2,0,P|291:377|317:378,1,80,2|0,0:0|0:0,0:0:0:0:
257,106,162753,6,0,P|274:142|263:187,1,80,2|0,3:2|0:0,0:0:0:0:
0,210,162984,2,0,P|6:172|34:144,1,80,2|0,0:0|0:0,0:0:0:0:
268,277,163214,2,0,P|240:303|201:309,1,80,10|0,0:0|0:0,0:0:0:0:
89,64,163445,2,0,P|127:58|162:78,1,80,2|0,0:0|0:0,0:0:0:0:
110,341,163676,6,0,P|76:323|59:287,1,80,2|0,3:2|0:0,0:0:0:0:
195,160,163907,1,2,0:0:0:0:
289,376,164022,6,0,P|323:357|340:321,1,80,2|8,0:0|0:0,0:0:0:0:
182,150,164253,2,0,L|89:172,1,80,2|0,0:0|0:0,0:0:0:0:
425,366,164484,1,2,0:0:0:0:
485,303,164599,6,0,B|506:255|469:218|469:218|474:210|474:210|435:167|476:98,1,200,0|2,3:0|0:0,0:0:0:0:
487,0,164945,2,0,P|464:29|402:31,1,80,2|8,0:0|0:0,0:0:0:0:
300,136,165176,2,0,P|265:123|244:64,1,80,2|0,0:0|0:0,0:0:0:0:
0,55,165407,1,2,0:0:0:0:
113,0,165522,6,0,B|101:65|101:65|88:79|88:79|70:172,1,150,0|0,3:0|0:0,0:0:0:0:
29,235,165753,2,0,P|48:250|38:217,1,80,2|0,0:0|0:0,0:0:0:0:
188,38,165984,6,0,P|224:52|244:86,1,80,10|0,0:0|0:0,0:0:0:0:
145,364,166214,2,0,L|47:351,1,80,2|0,0:0|0:0,0:0:0:0:
170,119,166445,6,0,L|183:208,1,80,2|0,3:2|0:0,0:0:0:0:
272,384,166676,1,2,0:0:0:0:
362,112,166791,2,0,P|337:117|282:177,1,80,2|8,0:0|0:0,0:0:0:0:
178,284,167022,2,0,P|139:273|110:246,1,80,2|0,0:0|0:0,0:0:0:0:
244,86,167253,1,2,0:0:0:0:
364,281,167368,6,0,L|349:385,1,80,0|0,3:0|0:0,0:0:0:0:
178,284,167599,2,0,L|189:363,1,80,2|0,0:0|0:0,0:0:0:0:
444,142,167830,2,0,L|432:221,1,80,10|0,0:0|0:0,0:0:0:0:
77,0,168061,2,0,L|88:79,1,80,2|0,0:0|0:0,0:0:0:0:
512,33,168291,6,0,P|484:88|341:76,1,200,6|2,3:2|0:0,0:0:0:0:
167,42,168638,1,2,0:0:0:0:
331,3,168753,2,0,B|320:70|320:70|325:77|325:77|305:176,1,150,8|0,0:0|0:0,0:0:0:0:
283,222,168984,2,0,B|287:263|287:263|316:211,1,80,2|0,0:0|0:0,0:0:0:0:
88,79,169214,6,0,P|33:102|11:150,1,80,2|0,3:2|0:0,0:0:0:0:
101,315,169445,5,2,0:0:0:0:
181,120,169561,2,0,P|172:81|165:14,1,80,2|8,0:0|0:0,0:0:0:0:
1,196,169791,5,2,0:0:0:0:
176,227,169907,2,0,B|247:226|211:266|307:264,1,120,2|0,0:0|0:0,0:0:0:0:
354,315,170138,6,0,P|374:282|409:263,1,80,2|0,3:2|0:0,0:0:0:0:
496,384,170368,2,0,P|459:369|419:375,1,80,2|0,0:0|0:0,0:0:0:0:
497,143,170599,2,0,L|517:247,1,80,10|0,0:0|0:0,0:0:0:0:
273,0,170830,2,0,L|258:78,1,80,2|0,0:0|0:0,0:0:0:0:
100,377,171061,6,0,B|87:339|87:339|108:288,1,80,2|0,3:2|0:0,0:0:0:0:
257,78,171291,2,0,B|245:116|245:116|211:137,1,80,2|0,0:0|0:0,0:0:0:0:
0,179,171522,2,0,B|32:154|32:154|71:157,1,80,10|0,0:0|0:0,0:0:0:0:
310,306,171753,2,0,B|269:306|269:306|239:280,1,80,2|0,0:0|0:0,0:0:0:0:
43,78,171984,6,0,L|62:-18,1,80,2|0,3:2|0:0,0:0:0:0:
195,215,172214,2,0,L|210:136,1,80,2|0,0:0|0:0,0:0:0:0:
467,9,172445,2,0,B|488:22|488:22|417:43,1,80,10|0,0:0|0:0,0:0:0:0:
234,174,172676,2,0,B|213:187|213:187|284:208,1,80,2|0,0:0|0:0,0:0:0:0:
489,357,172907,6,0,B|511:318|511:318|387:354,1,150,2|0,3:2|0:0,0:0:0:0:
340,310,173138,2,0,P|327:263|354:221,1,80,2|0,0:0|0:0,0:0:0:0:
435,38,173368,2,0,L|512:16,1,80,8|0,0:0|0:0,0:0:0:0:
266,202,173599,2,0,L|188:180,1,80,2|0,0:0|0:0,0:0:0:0:
509,97,173830,6,0,B|526:136|526:136|503:198,1,80,0|0,3:0|0:0,0:0:0:0:
110,243,174061,5,2,0:0:0:0:
54,179,174176,1,2,0:0:0:0:
59,96,174291,1,10,0:0:0:0:
109,44,174407,1,2,0:0:0:0:
167,33,174522,1,2,0:0:0:0:
212,48,174638,1,2,0:0:0:0:
262,107,174753,5,2,3:0:0:0:
259,117,174868,1,2,0:0:0:0:
186,170,174984,5,2,0:0:0:0:
189,180,175099,1,2,0:0:0:0:
305,186,175214,5,10,0:0:0:0:
246,236,175330,1,2,0:0:0:0:
339,268,175445,5,2,0:0:0:0:
315,296,175561,1,2,0:0:0:0:
421,224,175676,6,0,L|510:247,1,80,6|0,3:2|0:0,0:0:0:0:
477,140,175907,5,2,0:3:0:0:
315,296,176022,2,0,L|226:319,1,80,2|0,0:3|3:0,0:0:0:0:
369,115,176253,5,2,0:3:0:0:
466,348,176368,1,2,0:3:0:0:
476,330,176599,5,0,3:0:0:0:
437,302,176714,1,2,0:0:0:0:
391,317,176830,1,2,0:0:0:0:
346,335,176945,1,2,0:0:0:0:
315,296,177061,6,0,L|331:209,1,80,10|0,0:0|0:0,0:0:0:0:
462,61,177291,2,0,L|476:139,1,80,2|0,0:0|0:0,0:0:0:0:
237,23,177522,6,0,B|267:-3|267:-3|255:45,1,80,6|0,3:0|0:0,0:0:0:0:
155,218,177753,5,2,3:0:0:0:
86,58,177868,2,0,B|55:31|55:31|68:80,1,80,2|0,0:3|3:0,0:0:0:0:
164,236,178099,5,2,0:3:0:0:
291,108,178214,1,2,0:3:0:0:
306,96,178445,5,0,3:0:0:0:
342,128,178560,1,2,0:0:0:0:
384,105,178675,1,2,0:0:0:0:
417,140,178791,1,2,0:0:0:0:
462,121,178906,5,10,0:0:0:0:
496,195,179022,1,2,0:0:0:0:
457,269,179137,1,2,0:0:0:0:
484,341,179253,6,0,P|452:305|325:330,1,160,2|0,0:0|0:0,0:0:0:0:
232,307,179599,5,2,0:0:0:0:
255,383,179714,1,2,0:0:0:0:
137,352,179830,5,10,0:0:0:0:
158,267,179945,1,2,0:0:0:0:
180,181,180061,1,2,0:0:0:0:
57,137,180176,6,0,P|24:176|109:175,1,160,2|0,0:0|0:0,0:0:0:0:
161,98,180522,5,2,0:0:0:0:
124,88,180638,1,2,0:0:0:0:
60,0,180753,5,10,0:0:0:0:
160,22,180868,1,2,0:0:0:0:
261,46,180983,1,2,0:0:0:0:
273,33,181099,6,0,B|279:106|279:106|273:123|273:123|279:217,1,160,2|0,0:0|0:0,0:0:0:0:
285,357,181445,2,0,P|267:374|278:345,1,80,2|0,0:0|0:0,0:0:0:0:
436,122,181676,5,10,0:0:0:0:
512,146,181791,1,2,0:0:0:0:
512,226,181906,1,2,0:0:0:0:
435,251,182022,1,2,0:0:0:0:
388,186,182138,6,0,P|361:206|353:267,1,80,6|0,3:2|0:0,0:0:0:0:
180,383,182368,2,0,P|171:344|141:320,1,80,4|4,0:3|0:3,0:0:0:0:
467,335,182599,2,0,L|375:325,1,80,8|0,0:0|0:0,0:0:0:0:
75,169,182830,2,0,L|167:159,1,80,2|0,0:0|0:0,0:0:0:0:
389,10,183061,6,0,P|345:30|328:70,1,80,4|0,3:2|0:0,0:0:0:0:
265,225,183291,5,2,0:0:0:0:
156,32,183407,2,0,L|253:52,1,80,2|8,0:0|0:0,0:0:0:0:
282,240,183638,5,2,0:0:0:0:
407,87,183753,2,0,B|351:99|351:99|327:127|327:127|250:142,1,160,2|2,0:0|3:2,0:0:0:0:
19,309,184099,5,2,0:0:0:0:
18,170,184214,1,2,0:0:0:0:
141,235,184330,1,2,0:0:0:0:
59,237,184445,5,10,0:0:0:0:
66,248,184561,1,2,0:0:0:0:
177,329,184676,5,2,0:0:0:0:
170,340,184792,1,2,0:0:0:0:
97,161,184907,6,0,L|116:51,1,80,0|0,3:0|0:0,0:0:0:0:
220,266,185138,5,2,0:0:0:0:
265,72,185253,2,0,P|225:71|191:91,1,80,2|8,0:0|0:0,0:0:0:0:
238,279,185484,5,2,0:0:0:0:
324,132,185599,2,0,L|425:154,1,80,2|0,0:0|0:0,0:0:0:0:
512,291,185830,5,0,3:0:0:0:
488,207,185945,1,2,0:0:0:0:
406,232,186060,1,2,0:0:0:0:
430,313,186176,1,2,0:0:0:0:
315,378,186291,6,0,L|208:357,1,80,10|0,0:0|0:0,0:0:0:0:
0,100,186522,1,2,0:3:0:0:
78,86,186638,1,2,0:3:0:0:
198,180,186753,6,0,P|167:239|136:146,1,220.000006713867,6|2,3:2|0:0,0:0:0:0:
303,29,187099,2,0,P|343:41|403:55,1,85.0000016212464,2|8,0:0|0:0,0:0:0:0:
277,221,187330,5,2,0:0:0:0:
159,63,187445,2,0,P|118:75|59:89,1,85.0000016212464,2|0,0:0|0:0,0:0:0:0:
294,240,187676,5,0,3:0:0:0:
452,105,187791,2,0,P|464:65|458:19,1,85.0000016212464,2|2,0:0|0:0,0:0:0:0:
229,105,188022,5,0,3:0:0:0:
369,274,188138,2,0,L|476:260,1,85.0000016212464,8|2,0:0|0:0,0:0:0:0:
147,382,188368,2,0,L|40:368,1,85.0000016212464,2|0,3:2|3:0,0:0:0:0:
255,1,188599,5,6,3:2:0:0:
298,21,188714,1,2,0:0:0:0:
330,71,188830,1,2,0:0:0:0:
323,139,188945,1,2,0:0:0:0:
265,191,189061,1,10,0:0:0:0:
205,244,189176,1,2,0:0:0:0:
201,324,189291,1,2,0:0:0:0:
256,384,189407,1,2,0:0:0:0:
404,353,189522,5,2,3:2:0:0:
432,276,189638,1,2,0:0:0:0:
397,204,189753,1,2,0:0:0:0:
320,179,189868,1,2,0:0:0:0:
246,153,189984,1,10,0:0:0:0:
215,94,190099,1,2,0:0:0:0:
224,35,190215,1,2,0:0:0:0:
255,1,190330,1,2,0:0:0:0:
433,17,199676,6,0,L|421:126,1,100,0|2,3:0|0:0,0:0:0:0:
302,0,200138,2,0,L|290:109,1,100,0|2,3:0|0:0,0:0:0:0:
512,216,200599,6,0,B|462:230|462:230|401:203,1,100,0|2,3:0|0:0,0:0:0:0:
291,99,201061,1,0,3:0:0:0:
203,225,201291,1,2,0:0:0:0:
85,0,201522,6,0,P|138:0|184:40,1,100,0|2,3:0|0:0,0:0:0:0:
214,92,201868,2,0,L|198:146,1,50,2|0,0:0|3:0,0:0:0:0:
21,208,202099,2,0,B|65:218|65:218|72:223|72:223|125:235,1,100,2|0,0:0|0:0,0:0:0:0:
169,294,202445,2,0,P|215:303|262:268,1,100,0|2,3:0|0:0,0:0:0:0:
291,71,202907,5,0,3:0:0:0:
201,221,203138,1,2,0:0:0:0:
507,196,203368,5,0,3:0:0:0:
429,162,203599,1,2,0:0:0:0:
496,117,203830,5,0,3:0:0:0:
439,246,204061,1,2,0:0:0:0:
391,22,204291,5,0,3:0:0:0:
512,282,204522,1,2,0:0:0:0:
300,5,204753,5,0,3:0:0:0:
223,343,204984,1,2,0:0:0:0:
53,30,205214,6,0,L|113:40,2,60,2|2|0,0:3|0:0|0:0,0:0:0:0:
36,42,207060,5,6,3:2:0:0:
89,100,207175,1,2,0:0:0:0:
118,29,207291,1,2,0:0:0:0:
0,164,207406,5,10,3:2:0:0:
130,210,207522,1,2,0:0:0:0:
14,151,207637,1,2,0:0:0:0:
169,143,207753,5,10,3:2:0:0:
89,282,207867,1,2,3:2:0:0:
36,42,207983,5,10,0:0:0:0:
208,210,208099,1,2,3:2:0:0:
0,242,208214,5,10,3:2:0:0:
246,144,208330,1,2,3:2:0:0:
53,30,208445,5,10,3:2:0:0:
168,280,208561,1,2,3:2:0:0:
318,9,208676,5,10,3:2:0:0:
208,210,208791,1,2,3:2:0:0:
432,65,208907,6,0,B|447:34|439:-1|407:-31|360:-38|336:7|342:52|368:78|412:94|412:94|481:112|503:155|503:155|471:127|421:143,1,419.999987182618,14|2,3:2|0:0,0:0:0:0:
288,237,209368,2,0,B|257:277|257:277|389:242,1,165.000005035401,8|0,0:0|0:0,0:0:0:0:
444,216,209599,2,0,B|456:259|456:259|434:310,1,85.0000016212464,2|0,0:0|0:0,0:0:0:0:
159,323,209830,6,0,L|190:140,1,165.000005035401,2|0,3:2|0:0,0:0:0:0:
200,82,210061,6,0,P|143:91|116:139,1,85.0000016212464,2|0,0:0|0:0,0:0:0:0:
263,357,210291,2,0,L|354:334,1,85.0000016212464,10|0,0:0|0:0,0:0:0:0:
43,99,210522,2,0,L|66:190,1,85.0000016212464,2|0,0:0|0:0,0:0:0:0:
0,384,210753,6,0,P|65:361|75:320,1,85.0000016212464,2|0,3:2|0:0,0:0:0:0:
125,109,210984,5,2,0:0:0:0:
263,357,211099,2,0,L|176:342,1,85.0000016212464,2|8,0:0|0:0,0:0:0:0:
63,181,211330,2,0,B|128:192|128:192|158:220|158:220|226:233,1,170.000003242493,2|0,0:0|0:0,0:0:0:0:
297,41,211676,6,0,B|329:-7|394:3|394:3|402:44|445:53,1,165.000005035401,2|0,3:2|0:0,0:0:0:0:
498,43,211907,2,0,P|463:75|474:138,1,85.0000016212464,2|0,0:0|0:0,0:0:0:0:
374,381,212137,6,0,P|363:334|303:312,1,85.0000016212464,10|0,0:0|0:0,0:0:0:0:
229,110,212368,2,0,L|317:128,1,85.0000016212464,2|0,0:0|0:0,0:0:0:0:
512,271,212599,6,0,P|470:280|437:315,1,85.0000016212464,2|0,3:2|0:0,0:0:0:0:
237,383,212830,2,0,P|196:373|165:344,1,85.0000016212464,2|0,0:0|0:0,0:0:0:0:
389,150,213061,2,0,L|405:243,1,85.0000016212464,10|0,0:0|0:0,0:0:0:0:
76,362,213291,2,0,L|90:278,1,85.0000016212464,2|0,0:0|0:0,0:0:0:0:
334,313,213522,6,0,P|348:308|325:308,1,85.0000016212464,2|0,3:2|0:0,0:0:0:0:
100,202,213753,2,0,P|85:197|108:197,1,85.0000016212464,2|0,0:0|0:0,0:0:0:0:
389,150,213984,2,0,P|406:144|379:144,1,100,10|0,0:0|0:0,0:0:0:0:
130,40,214214,2,0,P|112:34|139:34,1,100,2|0,0:0|0:0,0:0:0:0:
403,233,214445,6,0,L|511:219,1,85.0000016212464,2|0,3:2|0:0,0:0:0:0:
364,30,214676,5,2,0:0:0:0:
211,184,214791,2,0,L|227:287,1,85.0000016212464,2|8,0:0|0:0,0:0:0:0:
491,363,215022,2,0,B|509:330|509:330|474:346|439:338|439:338|414:364|414:364|382:353|343:379,1,200,2|0,0:0|0:0,0:0:0:0:
37,384,215368,6,0,P|7:303|129:377,1,330.000010070801,2|0,3:2|0:0,0:0:0:0:
29,156,215830,6,0,B|5:188|5:188|42:163|93:170,1,110.000003356934,10|0,0:0|0:0,0:0:0:0:
398,280,216061,2,0,B|422:312|422:312|385:287|334:294,1,110.000003356934,2|0,0:0|0:0,0:0:0:0:
72,77,216291,6,0,B|44:41|58:2|113:-27|166:-6|176:81|122:137|122:137|87:179|86:233|120:275,1,389.999982147218,6|2,3:2|0:0,0:0:0:0:
440,116,216753,2,0,B|377:130|377:130|356:160|356:160|281:178,1,165.000005035401,8|0,0:0|0:0,0:0:0:0:
219,205,216984,2,0,B|176:207|176:207|222:181,1,85.0000016212464,2|0,0:0|0:0,0:0:0:0:
496,47,217214,6,0,L|471:228,1,165.000005035401,2|0,3:2|0:0,0:0:0:0:
401,240,217445,6,0,P|441:284|490:284,1,85.0000016212464,2|0,0:0|0:0,0:0:0:0:
344,38,217676,2,0,P|285:50|261:93,1,85.0000016212464,10|0,0:0|0:0,0:0:0:0:
473,210,217907,2,0,L|488:101,1,85.0000016212464,2|0,0:0|0:0,0:0:0:0:
176,16,218138,6,0,L|192:131,1,85.0000016212464,2|0,3:2|0:0,0:0:0:0:
255,293,218368,5,2,0:0:0:0:
52,152,218484,2,0,P|92:166|151:182,1,85.0000016212464,2|8,0:0|0:0,0:0:0:0:
355,281,218714,2,0,B|267:284|312:369|178:360,1,170.000003242493,2|0,0:0|0:0,0:0:0:0:
29,384,219061,6,0,P|-9:349|114:357,1,330.000010070801,2|0,3:2|0:0,0:0:0:0:
37,47,219522,2,0,B|96:57|96:57|126:87|126:87|216:106,1,165.000005035401,10|0,0:0|0:0,0:0:0:0:
246,149,219753,2,0,P|262:110|256:68,1,85.0000016212464,2|0,0:0|0:0,0:0:0:0:
177,246,219984,6,0,P|221:277|284:266,1,85.0000016212464,2|0,3:2|0:0,0:0:0:0:
497,277,220214,2,0,P|482:222|436:194,1,85.0000016212464,2|0,0:0|0:0,0:0:0:0:
257,69,220445,2,0,P|240:119|259:170,1,85.0000016212464,10|0,0:0|0:0,0:0:0:0:
326,377,220676,2,0,P|372:345|386:291,1,85.0000016212464,2|0,0:0|0:0,0:0:0:0:
456,82,220907,6,0,P|402:79|360:113,1,85.0000016212464,2|0,3:2|0:0,0:0:0:0:
221,354,221138,2,0,P|250:308|242:255,1,85.0000016212464,2|0,0:0|0:0,0:0:0:0:
93,19,221368,2,0,P|117:67|167:86,1,85.0000016212464,10|0,0:0|0:0,0:0:0:0:
383,319,221599,2,0,P|436:311|469:269,1,85.0000016212464,2|0,0:0|0:0,0:0:0:0:
64,145,221830,6,0,B|13:127|-30:186|2:251|53:250|109:236|143:177|143:177|148:187|148:187|180:137|266:151,1,389.999982147218,2|0,3:2|0:0,0:0:0:0:
381,63,222291,2,0,P|371:22|370:69,1,129.999994049073,8|0,0:0|0:0,0:0:0:0:
257,384,222522,5,2,3:0:0:0:
306,373,222637,1,0,3:0:0:0:
381,307,222753,5,10,3:2:0:0:
294,292,222868,1,0,3:0:0:0:
184,230,222984,5,10,0:0:0:0:
280,211,223099,1,0,3:0:0:0:
376,157,223214,5,10,0:0:0:0:
268,132,223329,1,0,3:0:0:0:
109,82,223445,5,10,0:0:0:0:
255,51,223560,1,0,3:0:0:0:
69,0,223676,6,0,B|33:69|88:120|88:120|78:130|78:130|145:193|96:263|35:273|-12:221|-8:184|10:150|51:147,1,419.999987182618,14|2,3:2|0:0,0:0:0:0:
27,377,224138,2,0,P|69:332|172:337,1,165.000005035401,8|0,0:0|0:0,0:0:0:0:
253,384,224368,2,0,P|276:366|242:371,1,85.0000016212464,2|0,0:0|0:0,0:0:0:0:
450,140,224599,6,0,B|462:203|462:203|480:229|480:229|493:316,1,165.000005035401,2|0,3:2|0:0,0:0:0:0:
480,372,224830,6,0,P|440:358|415:293,1,85.0000016212464,2|0,0:0|0:0,0:0:0:0:
240,99,225061,2,0,L|262:-6,1,85.0000016212464,10|0,0:0|0:0,0:0:0:0:
490,216,225291,2,0,L|505:300,1,85.0000016212464,2|0,0:0|0:0,0:0:0:0:
126,199,225522,6,0,P|175:174|229:187,1,85.0000016212464,2|0,3:2|0:0,0:0:0:0:
348,287,225753,5,2,0:0:0:0:
110,363,225868,2,0,L|93:262,1,85.0000016212464,2|8,0:0|0:0,0:0:0:0:
326,181,226099,2,0,B|315:255|315:255|306:267|306:267|291:361,1,170.000003242493,2|0,0:0|0:0,0:0:0:0:
35,52,226445,6,0,B|130:12|130:12|171:25|158:77,1,165.000005035401,2|0,3:2|0:0,0:0:0:0:
107,116,226676,2,0,L|126:201,1,85.0000016212464,2|0,0:0|0:0,0:0:0:0:
390,128,226907,6,0,P|344:100|294:111,1,85.0000016212464,10|0,0:0|0:0,0:0:0:0:
95,279,227138,2,0,P|61:303|19:305,1,85.0000016212464,2|0,0:0|0:0,0:0:0:0:
327,183,227368,6,0,L|345:273,1,85.0000016212464,2|0,3:2|0:0,0:0:0:0:
177,266,227599,2,0,L|164:357,1,85.0000016212464,2|0,0:0|0:0,0:0:0:0:
404,377,227830,2,0,L|416:292,1,85.0000016212464,10|0,0:0|0:0,0:0:0:0:
188,81,228061,2,0,L|206:164,1,85.0000016212464,2|0,0:0|0:0,0:0:0:0:
499,226,228291,6,0,P|482:207|494:234,1,85.0000016212464,2|0,3:2|0:0,0:0:0:0:
335,7,228522,2,0,P|312:27|340:15,1,85.0000016212464,2|0,0:0|0:0,0:0:0:0:
261,255,228753,2,0,P|226:243|253:267,1,100,10|0,0:0|0:0,0:0:0:0:
79,21,228984,2,0,P|51:45|86:33,1,100,2|0,0:0|0:0,0:0:0:0:
326,202,229214,6,0,L|419:185,1,85.0000016212464,2|0,3:2|0:0,0:0:0:0:
217,5,229445,5,2,0:0:0:0:
140,231,229561,2,0,P|89:206|68:162,1,85.0000016212464,2|8,0:0|0:0,0:0:0:0:
335,7,229791,2,0,B|324:77|324:77|340:133|340:133|325:213,1,200,2|0,0:0|0:0,0:0:0:0:
144,384,230138,6,0,P|105:302|239:352,1,330.000010070801,2|0,3:2|0:0,0:0:0:0:
335,380,230599,6,0,B|384:359|384:359|305:367,1,110.000003356934,10|0,0:0|0:0,0:0:0:0:
74,183,230830,2,0,B|25:162|25:162|104:170,1,110.000003356934,2|0,0:0|0:0,0:0:0:0:
420,61,231061,6,0,B|470:22|436:-56|346:-53|306:29|352:119|352:119|420:145|416:205,1,389.999982147218,6|2,3:2|0:0,0:0:0:0:
512,331,231522,2,0,P|477:286|368:289,1,165.000005035401,8|0,0:0|0:0,0:0:0:0:
295,292,231753,2,0,L|311:389,1,85.0000016212464,2|0,0:0|0:0,0:0:0:0:
75,81,231984,6,0,B|137:93|137:93|169:122|169:122|244:134,1,165.000005035401,2|0,3:2|0:0,0:0:0:0:
296,171,232214,6,0,P|269:203|214:207,1,85.0000016212464,2|0,0:0|0:0,0:0:0:0:
77,283,232445,2,0,P|38:267|17:216,1,85.0000016212464,10|0,0:0|0:0,0:0:0:0:
285,7,232676,2,0,L|296:107,1,85.0000016212464,2|0,0:0|0:0,0:0:0:0:
142,358,232907,6,0,P|95:362|55:387,1,85.0000016212464,2|0,3:2|0:0,0:0:0:0:
352,236,233138,2,0,P|389:255|431:258,1,85.0000016212464,2|0,0:0|0:0,0:0:0:0:
143,0,233368,2,0,L|154:100,1,85.0000016212464,10|0,0:0|0:0,0:0:0:0:
493,384,233599,2,0,L|502:299,1,85.0000016212464,2|0,0:0|0:0,0:0:0:0:
411,9,233830,6,0,P|395:40|423:18,1,85.0000016212464,0|0,3:0|0:0,0:0:0:0:
512,181,234061,2,0,B|470:191|470:191|426:169,1,85.0000016212464,2|0,0:0|0:0,0:0:0:0:
133,163,234291,2,0,P|185:175|222:220,1,85.0000016212464,10|0,0:0|0:0,0:0:0:0:
334,372,234522,2,0,P|375:365|409:339,1,85.0000016212464,2|0,0:0|0:0,0:0:0:0:
120,77,234753,6,0,L|90:247,1,165.000005035401,0|0,3:0|0:0,0:0:0:0:
78,317,234984,6,0,P|120:315|158:281,1,85.0000016212464,2|0,0:0|0:0,0:0:0:0:
341,290,235214,2,0,P|351:248|331:201,1,85.0000016212464,10|0,0:0|0:0,0:0:0:0:
195,0,235445,2,0,L|212:107,1,85.0000016212464,2|0,0:0|0:0,0:0:0:0:
219,370,235676,6,0,B|260:379|260:379|294:353,1,85.0000016212464,2|0,3:2|0:0,0:0:0:0:
492,145,235907,2,0,B|451:136|451:136|416:161,1,85.0000016212464,2|0,0:0|0:0,0:0:0:0:
244,290,236138,2,0,L|230:206,1,85.0000016212464,10|0,0:0|0:0,0:0:0:0:
506,301,236368,2,0,L|489:408,1,85.0000016212464,2|0,0:0|0:0,0:0:0:0:
278,144,236599,6,0,P|306:124|341:119,1,69.9999978637696,2|0,3:2|0:0,0:0:0:0:
366,24,236830,2,0,P|393:45|409:75,1,69.9999978637696,2|0,0:0|0:0,0:0:0:0:
387,348,237061,6,0,P|361:324|348:276,1,75.0000028610231,10|0,0:0|0:0,0:0:0:0:
475,223,237292,2,0,P|447:245|431:286,1,75.0000028610231,2|0,0:0|0:0,0:0:0:0:
303,384,237522,6,0,L|230:368,1,75.0000028610231,2|0,3:2|0:0,0:0:0:0:
156,222,237753,2,0,L|230:206,1,75.0000028610231,2|0,0:0|0:0,0:0:0:0:
19,384,237984,6,0,P|4:337|37:283,1,85.0000016212464,10|0,0:0|0:0,0:0:0:0:
0,170,238214,2,0,P|40:141|101:155,1,85.0000016212464,2|0,0:0|0:0,0:0:0:0:
311,188,238445,6,0,L|294:284,1,85.0000016212464,4|0,3:2|0:0,0:0:0:0:
390,131,238676,2,0,L|407:227,1,85.0000016212464,2|0,0:0|0:0,0:0:0:0:
92,50,238907,6,0,P|96:92|106:134,1,85.0000016212464,8|0,0:0|0:0,0:0:0:0:
17,0,239138,2,0,P|9:41|-5:82,1,85.0000016212464,2|0,0:0|0:0,0:0:0:0:
278,61,239368,6,0,P|332:37|384:49,1,85.0000016212464,2|0,3:2|0:0,0:0:0:0:
126,223,239599,2,0,P|83:221|47:200,1,85.0000016212464,2|0,0:0|0:0,0:0:0:0:
197,5,239830,2,0,L|184:107,1,85.0000016212464,10|0,0:0|0:0,0:0:0:0:
423,218,240061,2,0,L|412:133,1,85.0000016212464,2|0,0:0|0:0,0:0:0:0:
176,316,240291,6,0,P|217:379|230:244,1,330.000010070801,2|2,3:2|0:0,0:0:0:0:
127,172,240753,2,0,P|90:189|23:203,1,85.0000016212464,10|0,0:0|0:0,0:0:0:0:
398,47,240984,2,0,P|439:57|477:75,1,85.0000016212464,2|0,0:0|0:0,0:0:0:0:
152,90,241214,6,0,B|118:52|147:11|147:11|200:-2|259:43|259:90|259:90|209:131|211:166,1,330.000010070801,2|0,3:2|0:0,0:0:0:0:
338,340,241676,2,0,P|368:349|347:325,1,85.0000016212464,10|0,0:0|0:0,0:0:0:0:
148,276,241907,2,0,L|45:303,1,85.0000016212464,2|0,0:0|0:0,0:0:0:0:
500,121,242138,5,6,3:2:0:0:
441,41,242253,1,2,0:3:0:0:
348,68,242367,1,2,0:3:0:0:
347,166,242484,1,2,0:3:0:0:
441,198,242599,1,8,0:0:0:0:
441,296,242714,1,2,0:3:0:0:
347,325,242830,1,2,0:3:0:0:
292,246,242945,5,6,3:2:0:0:
278,254,243291,5,8,0:0:0:0:
264,264,243522,6,0,L|234:260,1,29.9999990844727,2|2,0:0|0:0,0:0:0:0:
31,53,243983,5,6,3:2:0:0:
105,16,244099,2,0,P|147:37|169:83,1,80,2|0,0:0|0:0,0:0:0:0:
92,258,244330,1,2,0:0:0:0:
8,137,244445,2,0,B|64:146|64:146|94:175|94:175|170:189,1,150,10|0,0:0|0:0,0:0:0:0:
223,163,244676,2,0,P|225:202|208:237,1,80,2|0,0:0|0:0,0:0:0:0:
13,310,244907,6,0,L|-4:211,1,80,2|0,3:2|0:0,0:0:0:0:
164,306,245138,2,0,L|150:384,1,80,2|0,0:0|0:0,0:0:0:0:
259,90,245368,5,10,0:0:0:0:
346,102,245484,1,2,0:0:0:0:
402,178,245599,1,2,0:0:0:0:
489,190,245715,1,2,0:0:0:0:
444,101,245830,5,2,3:2:0:0:
311,183,245945,2,0,L|330:279,1,80,2|0,0:0|0:0,0:0:0:0:
494,383,246176,1,2,0:0:0:0:
511,274,246291,2,0,B|425:281|466:343|369:345,1,150,10|0,0:0|0:0,0:0:0:0:
310,380,246522,2,0,L|219:361,1,80,2|0,0:0|0:0,0:0:0:0:
0,117,246753,6,0,P|54:136|75:176,1,80,2|0,3:2|0:0,0:0:0:0:
177,284,246984,2,0,P|215:275|244:248,1,80,2|0,0:0|0:0,0:0:0:0:
3,199,247214,6,0,P|10:222|17:262,1,59.9999981689454,10|0,0:0|0:0,0:0:0:0:
95,384,247445,2,0,P|99:354|108:325,1,59.9999981689454,2|0,0:0|0:0,0:0:0:0:
196,90,247676,5,2,3:2:0:0:
260,140,247791,2,0,P|297:142|340:117,1,80,2|0,0:0|0:0,0:0:0:0:
253,6,248022,1,2,0:0:0:0:
105,72,248138,2,0,B|118:135|118:135|113:153|113:153|128:237,1,150,10|0,0:0|0:0,0:0:0:0:
177,284,248368,2,0,P|215:275|244:248,1,80,2|0,0:0|0:0,0:0:0:0:
409,151,248599,6,0,P|447:160|476:187,1,80,2|0,3:2|0:0,0:0:0:0:
314,383,248830,2,0,L|297:279,1,80,2|0,0:0|0:0,0:0:0:0:
512,275,249061,2,0,P|515:314|498:350,1,80,10|0,0:0|0:0,0:0:0:0:
244,247,249291,2,0,L|256:168,1,80,2|0,0:0|0:0,0:0:0:0:
498,17,249522,6,0,B|404:12|446:86|326:70,1,160,2|2,3:2|0:0,0:0:0:0:
175,69,249868,1,2,0:0:0:0:
266,20,249984,2,0,B|259:79|259:79|266:98|266:98|254:176,1,150,10|0,0:0|0:0,0:0:0:0:
244,247,250214,2,0,P|197:227|182:192,1,80,2|0,0:0|0:0,0:0:0:0:
93,32,250445,6,0,L|-1:50,1,80,2|0,3:2|0:0,0:0:0:0:
256,167,250676,2,0,L|350:185,1,80,2|0,0:0|0:0,0:0:0:0:
51,380,250907,5,10,0:0:0:0:
0,307,251021,1,2,0:0:0:0:
53,236,251138,1,2,0:0:0:0:
138,265,251253,1,2,0:0:0:0:
137,353,251367,5,6,3:2:0:0:
222,384,251484,2,0,L|331:357,1,80,2|0,0:0|0:0,0:0:0:0:
471,218,251714,1,2,0:0:0:0:
389,128,251830,2,0,B|379:194|379:194|384:205|384:205|371:290,1,150,10|0,0:0|0:0,0:0:0:0:
430,336,252061,2,0,P|458:344|442:310,1,80,2|0,0:0|0:0,0:0:0:0:
290,201,252291,6,0,P|249:223|200:229,1,80,2|0,3:2|0:0,0:0:0:0:
412,41,252522,2,0,P|450:49|485:69,1,80,2|0,0:0|0:0,0:0:0:0:
157,82,252753,5,10,0:0:0:0:
99,16,252868,1,2,0:0:0:0:
179,0,252984,1,2,0:0:0:0:
237,59,253099,1,2,0:0:0:0:
157,165,253214,5,2,3:2:0:0:
78,191,253330,2,0,L|-12:170,1,80,2|0,0:0|0:0,0:0:0:0:
157,82,253561,1,2,0:0:0:0:
216,229,253676,2,0,B|272:215|272:215|308:223|308:223|390:202,1,150,8|0,0:0|0:0,0:0:0:0:
414,150,253907,2,0,P|416:109|383:74,1,80,2|0,0:0|0:0,0:0:0:0:
136,252,254138,6,0,L|151:332,1,80,2|0,3:2|0:0,0:0:0:0:
311,103,254368,2,0,L|325:24,1,80,2|0,0:0|0:0,0:0:0:0:
512,371,254599,5,10,0:0:0:0:
425,359,254715,1,2,0:0:0:0:
369,283,254830,1,2,0:0:0:0:
282,271,254944,1,2,0:0:0:0:
329,359,255061,5,2,3:2:0:0:
459,277,255176,2,0,L|440:181,1,80,2|0,0:0|0:0,0:0:0:0:
349,58,255407,1,2,0:0:0:0:
227,136,255522,2,0,B|290:147|290:147|305:162|305:162|386:176,1,150,10|0,0:0|0:0,0:0:0:0:
443,198,255753,2,0,P|445:152|420:118,1,80,2|0,0:0|0:0,0:0:0:0:
148,179,255984,6,0,L|162:268,1,80,2|0,3:2|0:0,0:0:0:0:
446,355,256214,2,0,L|459:276,1,80,2|0,0:0|0:0,0:0:0:0:
196,341,256445,2,0,P|155:344|114:372,1,80,10|0,0:0|0:0,0:0:0:0:
369,174,256676,2,0,P|403:194|442:197,1,80,2|0,0:0|0:0,0:0:0:0:
216,21,256907,5,4,3:2:0:0:
198,27,257138,5,2,3:2:0:0:
158,64,257253,1,2,3:2:0:0:
165,122,257368,1,10,3:2:0:0:
218,173,257484,1,2,3:2:0:0:
253,254,257599,1,2,3:2:0:0:
188,324,257714,1,2,3:2:0:0:
86,269,257830,6,0,P|121:222|109:281,1,160,10|0,3:2|0:0,0:0:0:0:
380,172,258176,6,0,P|314:120|338:199,1,220.000006713867,10|0,3:2|0:0,0:0:0:0:
264,378,258522,5,10,3:2:0:0:
