osu file format v14

[General]
AudioFilename: audio.mp3
AudioLeadIn: 0
PreviewTime: 74191
Countdown: 0
SampleSet: Normal
StackLeniency: 0.7
Mode: 1
LetterboxInBreaks: 0
WidescreenStoryboard: 0

[Editor]
Bookmarks: 15345,22730,30576,37961,45345,60114,67499,74884,102518,102634,117230,117345,117461,123230,123345,123461,131999,132114,132230,145038,159691,159807,159922,174461,174576,174691,207691,207807,207922
DistanceSpacing: 1
BeatDivisor: 8
GridSize: 4
TimelineZoom: 1.4

[Metadata]
Title:Yoru ni Kakeru
TitleUnicode:夜に駆ける
Artist:YOASOBI
ArtistUnicode:YOASOBI
Creator:Charlotte
Version:Inner Oni
Source:
Tags:japanese jpop j-pop pop 幾田りら Ikuta Lilas Ayase ikura racing into the night iloveyou4ever
BeatmapID:2459933
BeatmapSetID:1179693

[Difficulty]
HPDrainRate:5.5
CircleSize:5
OverallDifficulty:5.5
ApproachRate:5
SliderMultiplier:1.4
SliderTickRate:1

[Events]
//Background and Video events
0,0,"BG.jpg",0,20
//Break Periods
//Storyboard Layer 0 (Background)
//Storyboard Layer 1 (Fail)
//Storyboard Layer 2 (Pass)
//Storyboard Layer 3 (Foreground)
//Storyboard Layer 4 (Overlay)
//Storyboard Sound Samples

[TimingPoints]
1038,461.538461538462,4,1,0,45,1,0
8364,-100,4,1,0,55,0,0
15288,-100,4,1,0,70,0,0
30518,-100,4,1,0,60,0,0
45288,-100,4,1,0,65,0,0
60057,-100,4,1,0,70,0,0
74884,-90.9090909090909,4,1,0,85,0,1
101826,-95.2380952380952,4,1,0,85,0,1
102057,-100,4,1,0,70,0,1
102576,-100,4,1,0,70,0,0
117288,-100,4,1,0,65,0,0
132057,-100,4,1,0,80,0,0
144980,-100,4,1,0,65,0,0
159749,-100,4,1,0,70,0,0
189288,-100,4,1,0,50,0,0
191134,-125,4,1,0,50,0,0
198518,-111.111111111111,4,1,0,60,0,0
202211,-100,4,1,0,70,0,0
205903,-100,4,1,0,80,0,0
207807,-83.3333333333333,4,1,0,90,0,1
242134,-86.9565217391304,4,1,0,90,0,1
242364,-90.9090909090909,4,1,0,60,0,1
242422,-90.9090909090909,4,1,0,60,0,0
242595,-95.2380952380952,4,1,0,60,0,0
242826,-100,4,1,0,70,0,0

[HitObjects]
256,192,576,5,0,0:0:0:0:
264,212,807,1,0,0:0:0:0:
256,192,1038,5,8,0:0:0:0:
256,192,1384,1,0,0:0:0:0:
256,192,1730,1,0,0:0:0:0:
256,192,1961,1,8,0:0:0:0:
256,192,2191,1,0,0:0:0:0:
256,192,2422,1,8,0:0:0:0:
256,192,2653,1,8,0:0:0:0:
256,192,2884,1,0,0:0:0:0:
260,200,3114,1,0,0:0:0:0:
260,200,3230,1,8,0:0:0:0:
260,200,3461,1,8,0:0:0:0:
260,204,3576,1,0,0:0:0:0:
256,192,3807,1,8,0:0:0:0:
272,216,4268,1,0,0:0:0:0:
272,216,4499,1,0,0:0:0:0:
272,216,4730,1,8,0:0:0:0:
264,216,5076,1,0,0:0:0:0:
264,216,5422,1,8,0:0:0:0:
264,216,5653,1,0,0:0:0:0:
264,216,5884,1,8,0:0:0:0:
264,216,6114,1,8,0:0:0:0:
280,228,6345,1,0,0:0:0:0:
280,228,6576,1,8,0:0:0:0:
280,232,6922,1,0,0:0:0:0:
280,228,7268,1,0,0:0:0:0:
280,228,7499,1,8,0:0:0:0:
292,248,7730,1,0,0:0:0:0:
292,244,7961,1,8,0:0:0:0:
292,244,8191,1,8,0:0:0:0:
284,216,8422,1,4,0:0:0:0:
292,232,8768,1,8,0:0:0:0:
292,244,8884,1,0,0:0:0:0:
308,240,9114,1,8,0:0:0:0:
284,216,9345,1,0,0:0:0:0:
296,208,9576,1,8,0:0:0:0:
312,216,9691,1,8,0:0:0:0:
284,216,9807,1,0,0:0:0:0:
284,216,10038,1,8,0:0:0:0:
284,216,10268,1,0,0:0:0:0:
308,220,10499,1,8,0:0:0:0:
312,212,10614,1,8,0:0:0:0:
304,216,10730,1,0,0:0:0:0:
312,212,10845,1,0,0:0:0:0:
304,216,10961,1,8,0:0:0:0:
304,216,11191,1,0,0:0:0:0:
304,216,11422,1,0,0:0:0:0:
300,196,11538,1,8,0:0:0:0:
304,216,11653,1,0,0:0:0:0:
308,204,11884,1,0,0:0:0:0:
308,204,11999,1,0,0:0:0:0:
304,216,12114,1,8,0:0:0:0:
304,216,12461,1,8,0:0:0:0:
304,216,12576,1,0,0:0:0:0:
304,216,12807,1,8,0:0:0:0:
304,216,13038,1,0,0:0:0:0:
304,216,13268,1,0,0:0:0:0:
308,208,13384,1,8,0:0:0:0:
304,216,13499,1,0,0:0:0:0:
304,216,13730,1,8,0:0:0:0:
312,216,13961,1,0,0:0:0:0:
344,232,14076,1,0,0:0:0:0:
344,232,14191,1,8,0:0:0:0:
344,232,14422,1,8,0:0:0:0:
344,232,14653,1,0,0:0:0:0:
344,232,14768,1,0,0:0:0:0:
344,232,14884,1,8,0:0:0:0:
344,232,15114,1,0,0:0:0:0:
308,208,15230,1,8,0:0:0:0:
276,200,15345,1,0,0:0:0:0:
284,200,15461,1,0,0:0:0:0:
336,224,15576,1,8,0:0:0:0:
328,216,15691,1,8,0:0:0:0:
336,224,15807,1,0,0:0:0:0:
336,208,15922,1,8,0:0:0:0:
336,208,16153,1,8,0:0:0:0:
336,208,16268,1,0,0:0:0:0:
336,208,16499,1,8,0:0:0:0:
256,200,16730,1,0,0:0:0:0:
256,200,16961,1,0,0:0:0:0:
272,212,17191,1,8,0:0:0:0:
272,212,17307,1,0,0:0:0:0:
260,208,17422,1,8,0:0:0:0:
260,208,17538,1,8,0:0:0:0:
260,208,17653,1,0,0:0:0:0:
272,224,17768,1,8,0:0:0:0:
260,220,17999,1,8,0:0:0:0:
260,220,18114,1,0,0:0:0:0:
272,212,18345,1,8,0:0:0:0:
264,220,18576,1,0,0:0:0:0:
240,208,18807,1,8,0:0:0:0:
272,204,18922,1,8,0:0:0:0:
260,220,19038,1,0,0:0:0:0:
252,220,19268,1,8,0:0:0:0:
252,220,19499,1,0,0:0:0:0:
252,220,19614,1,8,0:0:0:0:
252,224,19845,1,8,0:0:0:0:
252,224,19961,1,0,0:0:0:0:
272,212,20191,1,8,0:0:0:0:
272,212,20422,1,0,0:0:0:0:
280,216,20653,1,8,0:0:0:0:
280,216,20768,1,8,0:0:0:0:
280,216,20884,1,0,0:0:0:0:
280,208,21114,1,8,0:0:0:0:
280,208,21345,1,0,0:0:0:0:
292,216,21576,1,0,0:0:0:0:
292,216,21691,1,8,0:0:0:0:
288,216,21807,1,8,0:0:0:0:
288,208,22038,1,8,0:0:0:0:
296,208,22153,1,8,0:0:0:0:
296,212,22268,1,0,0:0:0:0:
288,208,22499,1,8,0:0:0:0:
312,208,22730,1,0,0:0:0:0:
308,208,22845,1,0,0:0:0:0:
304,208,22961,1,8,0:0:0:0:
304,208,23076,1,8,0:0:0:0:
288,208,23191,1,0,0:0:0:0:
312,208,23307,1,8,0:0:0:0:
308,208,23538,1,8,0:0:0:0:
308,208,23653,1,0,0:0:0:0:
304,212,23884,1,8,0:0:0:0:
304,212,24114,1,0,0:0:0:0:
312,212,24345,1,0,0:0:0:0:
312,212,24576,1,8,0:0:0:0:
308,212,24691,1,0,0:0:0:0:
308,212,24807,1,8,0:0:0:0:
344,240,24922,1,8,0:0:0:0:
308,212,25038,1,0,0:0:0:0:
308,212,25153,1,8,0:0:0:0:
312,212,25384,1,8,0:0:0:0:
312,212,25499,1,0,0:0:0:0:
332,224,25730,1,8,0:0:0:0:
332,224,25961,1,0,0:0:0:0:
332,224,26191,1,0,0:0:0:0:
332,224,26422,1,8,0:0:0:0:
328,224,26538,1,0,0:0:0:0:
328,228,26653,1,0,0:0:0:0:
332,224,26768,1,8,0:0:0:0:
332,224,26884,1,0,0:0:0:0:
328,228,26999,1,8,0:0:0:0:
324,232,27230,1,8,0:0:0:0:
324,232,27345,1,0,0:0:0:0:
324,232,27576,1,8,0:0:0:0:
344,240,27807,1,0,0:0:0:0:
344,240,28038,1,8,0:0:0:0:
352,232,28153,1,8,0:0:0:0:
344,240,28268,1,0,0:0:0:0:
344,240,28499,1,8,0:0:0:0:
344,240,28730,1,0,0:0:0:0:
344,240,28961,1,0,0:0:0:0:
344,240,29076,1,0,0:0:0:0:
344,240,29191,1,8,0:0:0:0:
344,240,29307,1,8,0:0:0:0:
344,240,29422,1,8,0:0:0:0:
344,240,29538,1,8,0:0:0:0:
344,240,29653,1,0,0:0:0:0:
344,228,29768,1,0,0:0:0:0:
340,232,29884,1,8,0:0:0:0:
341,233,29999,1,0,0:0:0:0:
341,233,30114,1,8,0:0:0:0:
284,196,30576,1,4,0:0:0:0:
284,196,30807,1,0,0:0:0:0:
320,196,31038,1,8,0:0:0:0:
280,200,31268,1,0,0:0:0:0:
280,200,31384,1,8,0:0:0:0:
276,184,31499,1,0,0:0:0:0:
292,208,31730,1,0,0:0:0:0:
268,196,31961,1,8,0:0:0:0:
272,216,32422,1,0,0:0:0:0:
280,220,32653,1,8,0:0:0:0:
292,232,32768,1,8,0:0:0:0:
264,216,32884,1,0,0:0:0:0:
288,212,33114,1,8,0:0:0:0:
263,207,33345,1,0,0:0:0:0:
263,208,33576,1,0,0:0:0:0:
261,211,33807,1,8,0:0:0:0:
280,204,34268,1,0,0:0:0:0:
250,200,34499,1,0,0:0:0:0:
250,200,34730,1,8,0:0:0:0:
250,200,34961,1,0,0:0:0:0:
256,196,35076,1,8,0:0:0:0:
256,196,35191,1,0,0:0:0:0:
250,200,35422,1,0,0:0:0:0:
250,200,35653,1,8,0:0:0:0:
250,200,35884,1,8,0:0:0:0:
272,192,35999,1,8,0:0:0:0:
261,197,36114,1,0,0:0:0:0:
264,200,36230,1,0,0:0:0:0:
244,212,36345,1,8,0:0:0:0:
261,197,36576,1,0,0:0:0:0:
276,200,37038,1,0,0:0:0:0:
272,192,37268,1,0,0:0:0:0:
257,204,37499,1,8,0:0:0:0:
268,204,37730,1,8,0:0:0:0:
272,204,37961,1,4,0:0:0:0:
284,208,38191,1,0,0:0:0:0:
264,204,38307,1,0,0:0:0:0:
272,200,38422,1,8,0:0:0:0:
272,212,38653,1,0,0:0:0:0:
276,208,38884,1,8,0:0:0:0:
264,208,38999,1,0,0:0:0:0:
276,208,39230,1,0,0:0:0:0:
272,200,39345,1,8,0:0:0:0:
276,196,39576,1,0,0:0:0:0:
276,196,39807,1,8,0:0:0:0:
264,196,40038,1,0,0:0:0:0:
296,196,40153,1,0,0:0:0:0:
264,184,40268,1,8,0:0:0:0:
268,192,40384,1,0,0:0:0:0:
272,180,40614,1,8,0:0:0:0:
276,196,40730,1,0,0:0:0:0:
276,192,40961,1,0,0:0:0:0:
276,196,41076,1,0,0:0:0:0:
280,188,41191,1,8,0:0:0:0:
256,172,41653,1,0,0:0:0:0:
248,184,41884,1,0,0:0:0:0:
248,184,42114,1,8,0:0:0:0:
248,184,42345,1,8,0:0:0:0:
240,192,42461,1,8,0:0:0:0:
248,184,42576,1,0,0:0:0:0:
260,180,42807,1,0,0:0:0:0:
248,184,43038,1,8,0:0:0:0:
276,192,43268,1,8,0:0:0:0:
260,168,43384,1,8,0:0:0:0:
276,192,43499,1,0,0:0:0:0:
248,184,43730,1,0,0:0:0:0:
264,176,43961,1,8,0:0:0:0:
252,192,44076,1,8,0:0:0:0:
248,180,44191,1,8,0:0:0:0:
252,192,44307,1,8,0:0:0:0:
248,180,44422,1,0,0:0:0:0:
248,180,44768,1,0,0:0:0:0:
248,184,45114,1,0,0:0:0:0:
305,218,45345,1,4,0:0:0:0:
276,212,45576,1,0,0:0:0:0:
320,196,45807,1,8,0:0:0:0:
300,208,46038,1,0,0:0:0:0:
304,188,46153,1,8,0:0:0:0:
276,184,46268,1,0,0:0:0:0:
276,204,46499,1,0,0:0:0:0:
268,196,46730,1,8,0:0:0:0:
268,196,46961,1,8,0:0:0:0:
272,216,47191,1,0,0:0:0:0:
272,212,47422,1,8,0:0:0:0:
272,212,47538,1,0,0:0:0:0:
264,216,47653,1,0,0:0:0:0:
248,216,47884,1,8,0:0:0:0:
263,207,48114,1,0,0:0:0:0:
263,208,48345,1,0,0:0:0:0:
261,211,48576,1,8,0:0:0:0:
263,207,48807,1,8,0:0:0:0:
260,200,48922,1,8,0:0:0:0:
263,207,49038,1,0,0:0:0:0:
250,200,49268,1,0,0:0:0:0:
250,200,49499,1,8,0:0:0:0:
250,200,49730,1,0,0:0:0:0:
256,196,49845,1,8,0:0:0:0:
256,196,49961,1,0,0:0:0:0:
250,200,50191,1,0,0:0:0:0:
250,200,50422,1,8,0:0:0:0:
250,200,50653,1,8,0:0:0:0:
272,192,50768,1,8,0:0:0:0:
261,197,50884,1,0,0:0:0:0:
264,200,50999,1,0,0:0:0:0:
244,212,51114,1,8,0:0:0:0:
261,197,51345,1,0,0:0:0:0:
276,200,51807,1,8,0:0:0:0:
272,192,52038,1,0,0:0:0:0:
257,204,52268,1,8,0:0:0:0:
268,204,52499,1,8,0:0:0:0:
257,204,52730,1,4,0:0:0:0:
284,208,52961,1,0,0:0:0:0:
264,204,53076,1,0,0:0:0:0:
272,200,53191,1,8,0:0:0:0:
272,212,53422,1,0,0:0:0:0:
276,208,53653,1,8,0:0:0:0:
264,208,53768,1,0,0:0:0:0:
276,208,53999,1,0,0:0:0:0:
272,200,54114,1,8,0:0:0:0:
276,196,54345,1,0,0:0:0:0:
276,196,54576,1,8,0:0:0:0:
264,196,54807,1,0,0:0:0:0:
264,184,54922,1,0,0:0:0:0:
296,200,55038,1,8,0:0:0:0:
268,192,55153,1,0,0:0:0:0:
276,196,55384,1,0,0:0:0:0:
276,196,55499,1,8,0:0:0:0:
276,192,55730,1,0,0:0:0:0:
276,192,55845,1,0,0:0:0:0:
280,188,55961,1,8,0:0:0:0:
248,196,56422,1,0,0:0:0:0:
248,184,56653,1,0,0:0:0:0:
248,184,56884,1,8,0:0:0:0:
248,184,57114,1,8,0:0:0:0:
272,180,57230,1,8,0:0:0:0:
248,184,57345,1,0,0:0:0:0:
248,184,57576,1,0,0:0:0:0:
268,184,57691,1,0,0:0:0:0:
248,184,57807,1,8,0:0:0:0:
276,192,58038,1,8,0:0:0:0:
272,180,58153,1,8,0:0:0:0:
276,192,58268,1,0,0:0:0:0:
248,184,58499,1,0,0:0:0:0:
264,176,58730,1,8,0:0:0:0:
248,180,58961,1,8,0:0:0:0:
248,180,59076,1,8,0:0:0:0:
248,180,59191,1,0,0:0:0:0:
272,180,59422,1,0,0:0:0:0:
308,180,59538,1,0,0:0:0:0:
268,168,59653,1,8,0:0:0:0:
268,168,59768,1,0,0:0:0:0:
292,172,59884,1,8,0:0:0:0:
320,188,60114,1,4,0:0:0:0:
280,184,60345,1,8,0:0:0:0:
280,184,60461,1,0,0:0:0:0:
280,184,60691,1,0,0:0:0:0:
280,184,60807,1,8,0:0:0:0:
268,192,61038,1,0,0:0:0:0:
284,160,61153,1,0,0:0:0:0:
264,192,61268,1,8,0:0:0:0:
260,188,61384,1,8,0:0:0:0:
280,192,61499,1,0,0:0:0:0:
284,192,61730,1,8,0:0:0:0:
292,192,61961,1,4,0:0:0:0:
280,188,62191,1,8,0:0:0:0:
280,188,62307,1,0,0:0:0:0:
272,188,62538,1,0,0:0:0:0:
272,188,62653,1,8,0:0:0:0:
268,188,62884,1,0,0:0:0:0:
304,180,62999,1,0,0:0:0:0:
280,188,63114,1,8,0:0:0:0:
280,188,63230,1,0,0:0:0:0:
284,184,63345,1,8,0:0:0:0:
284,184,63461,1,8,0:0:0:0:
284,184,63576,1,0,0:0:0:0:
304,192,63691,1,8,0:0:0:0:
284,184,63807,1,0,0:0:0:0:
296,184,64038,1,0,0:0:0:0:
284,176,64153,1,0,0:0:0:0:
272,188,64268,1,8,0:0:0:0:
284,184,64499,1,8,0:0:0:0:
284,184,64614,1,8,0:0:0:0:
284,184,64730,1,0,0:0:0:0:
284,204,64961,1,8,0:0:0:0:
284,204,65076,1,0,0:0:0:0:
284,204,65191,1,8,0:0:0:0:
284,204,65307,1,8,0:0:0:0:
284,204,65422,1,0,0:0:0:0:
284,204,65653,1,0,0:0:0:0:
296,208,65768,1,8,0:0:0:0:
296,208,65884,1,0,0:0:0:0:
296,208,65999,1,0,0:0:0:0:
296,208,66114,1,8,0:0:0:0:
296,208,66230,1,0,0:0:0:0:
296,208,66345,1,8,0:0:0:0:
296,208,66461,1,8,0:0:0:0:
296,208,66576,1,0,0:0:0:0:
300,208,66807,1,0,0:0:0:0:
328,224,66922,1,0,0:0:0:0:
296,208,67038,1,8,0:0:0:0:
300,208,67153,1,8,0:0:0:0:
316,224,67268,1,0,0:0:0:0:
324,232,67499,1,8,0:0:0:0:
348,248,67961,1,0,0:0:0:0:
328,232,68191,1,0,0:0:0:0:
320,224,68307,1,0,0:0:0:0:
328,232,68422,1,8,0:0:0:0:
320,232,68653,1,0,0:0:0:0:
320,232,68884,1,8,0:0:0:0:
320,232,69114,1,8,0:0:0:0:
320,232,69345,1,0,0:0:0:0:
320,232,69576,1,0,0:0:0:0:
320,232,69807,1,8,0:0:0:0:
320,232,70038,1,0,0:0:0:0:
400,280,70153,1,0,0:0:0:0:
320,236,70268,1,8,0:0:0:0:
320,236,70499,1,0,0:0:0:0:
320,236,70730,1,8,0:0:0:0:
320,240,70961,1,8,0:0:0:0:
336,232,71076,1,8,0:0:0:0:
320,236,71191,1,0,0:0:0:0:
296,236,71422,1,0,0:0:0:0:
300,236,71653,1,8,0:0:0:0:
300,236,71884,1,0,0:0:0:0:
340,236,71999,1,0,0:0:0:0:
300,236,72114,1,8,0:0:0:0:
296,236,72345,1,0,0:0:0:0:
316,232,72461,1,0,0:0:0:0:
300,236,72576,1,8,0:0:0:0:
296,220,72691,1,0,0:0:0:0:
308,240,72807,1,8,0:0:0:0:
308,224,72922,1,8,0:0:0:0:
280,224,73038,1,0,0:0:0:0:
272,200,73268,1,8,0:0:0:0:
272,200,73384,1,0,0:0:0:0:
264,196,73614,1,0,0:0:0:0:
264,196,73730,1,8,0:0:0:0:
264,196,73845,1,8,0:0:0:0:
264,196,73961,1,0,0:0:0:0:
256,208,74884,1,4,0:0:0:0:
264,204,75230,1,8,0:0:0:0:
276,220,75345,1,0,0:0:0:0:
276,216,75576,1,8,0:0:0:0:
264,216,75807,1,0,0:0:0:0:
264,216,76038,1,0,0:0:0:0:
264,216,76153,1,0,0:0:0:0:
264,216,76268,1,8,0:0:0:0:
272,216,76499,1,8,0:0:0:0:
272,216,76730,1,0,0:0:0:0:
280,224,76961,1,8,0:0:0:0:
272,216,77076,1,0,0:0:0:0:
276,208,77191,1,0,0:0:0:0:
296,212,77307,1,8,0:0:0:0:
284,200,77538,1,8,0:0:0:0:
272,216,77653,1,0,0:0:0:0:
296,220,77884,1,8,0:0:0:0:
280,216,78114,1,0,0:0:0:0:
284,212,78345,1,8,0:0:0:0:
272,216,78461,1,8,0:0:0:0:
288,208,78576,1,0,0:0:0:0:
280,216,78807,1,0,0:0:0:0:
280,216,79038,1,8,0:0:0:0:
280,216,79268,1,8,0:0:0:0:
280,216,79499,1,0,0:0:0:0:
280,216,79730,1,0,0:0:0:0:
264,204,79845,1,0,0:0:0:0:
280,216,79961,1,8,0:0:0:0:
280,216,80191,1,8,0:0:0:0:
280,216,80422,1,0,0:0:0:0:
256,192,80768,1,8,0:0:0:0:
268,196,80884,1,0,0:0:0:0:
272,196,81114,1,8,0:0:0:0:
292,196,81345,1,0,0:0:0:0:
276,200,81461,1,8,0:0:0:0:
296,196,81576,1,0,0:0:0:0:
292,196,81807,1,0,0:0:0:0:
292,196,81922,1,0,0:0:0:0:
292,196,82038,1,8,0:0:0:0:
296,208,82268,1,4,0:0:0:0:
296,196,82614,1,0,0:0:0:0:
296,192,82730,1,8,0:0:0:0:
304,184,82961,1,0,0:0:0:0:
304,184,83191,1,8,0:0:0:0:
304,184,83422,1,0,0:0:0:0:
304,192,83538,1,0,0:0:0:0:
304,184,83653,1,8,0:0:0:0:
304,184,83884,1,8,0:0:0:0:
304,184,84114,1,0,0:0:0:0:
304,184,84345,1,0,0:0:0:0:
304,184,84461,1,8,0:0:0:0:
304,184,84691,1,8,0:0:0:0:
304,184,84807,1,0,0:0:0:0:
320,200,85038,1,8,0:0:0:0:
312,184,85499,1,0,0:0:0:0:
312,184,85730,1,0,0:0:0:0:
312,184,85845,1,8,0:0:0:0:
304,184,85961,1,0,0:0:0:0:
312,184,86191,1,0,0:0:0:0:
312,184,86422,1,8,0:0:0:0:
312,184,86653,1,8,0:0:0:0:
312,184,86768,1,8,0:0:0:0:
312,184,86884,1,0,0:0:0:0:
312,184,87114,1,0,0:0:0:0:
312,184,87345,1,8,0:0:0:0:
312,184,87576,1,0,0:0:0:0:
312,184,87691,1,0,0:0:0:0:
316,192,87807,1,8,0:0:0:0:
316,192,88038,1,0,0:0:0:0:
316,192,88268,1,8,0:0:0:0:
316,192,88499,1,0,0:0:0:0:
316,192,88730,1,0,0:0:0:0:
316,200,88845,1,0,0:0:0:0:
316,192,88961,1,8,0:0:0:0:
340,216,89076,1,8,0:0:0:0:
316,192,89191,1,0,0:0:0:0:
352,212,89307,1,0,0:0:0:0:
316,192,89422,1,8,0:0:0:0:
316,192,89653,1,4,0:0:0:0:
264,204,89999,1,8,0:0:0:0:
276,220,90114,1,0,0:0:0:0:
276,216,90345,1,8,0:0:0:0:
264,216,90576,1,0,0:0:0:0:
264,216,90807,1,0,0:0:0:0:
288,212,90922,1,0,0:0:0:0:
264,216,91038,1,8,0:0:0:0:
272,216,91268,1,8,0:0:0:0:
272,216,91499,1,0,0:0:0:0:
304,208,91730,1,8,0:0:0:0:
288,224,91845,1,8,0:0:0:0:
272,216,91961,1,0,0:0:0:0:
296,212,92076,1,8,0:0:0:0:
284,200,92307,1,8,0:0:0:0:
272,216,92422,1,0,0:0:0:0:
296,220,92653,1,8,0:0:0:0:
280,216,92884,1,0,0:0:0:0:
284,212,93114,1,8,0:0:0:0:
280,216,93230,1,8,0:0:0:0:
272,216,93345,1,0,0:0:0:0:
280,216,93576,1,0,0:0:0:0:
288,196,93691,1,0,0:0:0:0:
280,216,93807,1,8,0:0:0:0:
280,216,94038,1,8,0:0:0:0:
280,216,94268,1,0,0:0:0:0:
280,216,94499,1,0,0:0:0:0:
280,216,94614,1,0,0:0:0:0:
280,216,94730,1,8,0:0:0:0:
280,216,94961,1,8,0:0:0:0:
296,204,95191,1,0,0:0:0:0:
256,192,95422,1,8,0:0:0:0:
280,192,95538,1,0,0:0:0:0:
268,196,95768,1,0,0:0:0:0:
272,196,95884,1,8,0:0:0:0:
292,196,96114,1,0,0:0:0:0:
296,204,96230,1,0,0:0:0:0:
292,196,96345,1,0,0:0:0:0:
292,196,96576,1,8,0:0:0:0:
292,196,96691,1,8,0:0:0:0:
292,196,96807,1,8,0:0:0:0:
292,196,97038,1,4,0:0:0:0:
296,196,97384,1,0,0:0:0:0:
296,192,97499,1,8,0:0:0:0:
304,184,97730,1,0,0:0:0:0:
304,184,97961,1,8,0:0:0:0:
304,184,98191,1,0,0:0:0:0:
304,192,98307,1,0,0:0:0:0:
304,184,98422,1,8,0:0:0:0:
304,184,98653,1,8,0:0:0:0:
304,184,98884,1,0,0:0:0:0:
324,204,99114,1,0,0:0:0:0:
320,200,99230,1,8,0:0:0:0:
296,192,99345,1,8,0:0:0:0:
304,184,99576,1,8,0:0:0:0:
316,192,99807,1,0,0:0:0:0:
312,184,100268,1,0,0:0:0:0:
312,184,100499,1,0,0:0:0:0:
320,208,100730,1,8,0:0:0:0:
320,204,100845,1,0,0:0:0:0:
320,204,100961,1,0,0:0:0:0:
320,204,101076,1,0,0:0:0:0:
320,204,101191,1,8,0:0:0:0:
320,204,101307,1,8,0:0:0:0:
340,204,101422,1,8,0:0:0:0:
320,204,101538,1,0,0:0:0:0:
316,184,101884,1,0,0:0:0:0:
276,200,102114,1,0,0:0:0:0:
284,200,102230,1,0,0:0:0:0:
336,224,102345,1,8,0:0:0:0:
328,216,102461,1,8,0:0:0:0:
336,224,102576,1,0,0:0:0:0:
336,208,102691,1,8,0:0:0:0:
336,208,102922,1,8,0:0:0:0:
336,208,103038,1,0,0:0:0:0:
336,208,103268,1,8,0:0:0:0:
256,200,103499,1,0,0:0:0:0:
256,200,103730,1,0,0:0:0:0:
272,212,103961,1,8,0:0:0:0:
272,212,104076,1,0,0:0:0:0:
260,208,104191,1,8,0:0:0:0:
260,208,104307,1,8,0:0:0:0:
260,208,104422,1,0,0:0:0:0:
272,224,104538,1,8,0:0:0:0:
260,220,104768,1,8,0:0:0:0:
260,220,104884,1,0,0:0:0:0:
272,212,105114,1,8,0:0:0:0:
264,220,105345,1,0,0:0:0:0:
240,208,105576,1,8,0:0:0:0:
272,204,105691,1,8,0:0:0:0:
260,220,105807,1,0,0:0:0:0:
252,220,106038,1,8,0:0:0:0:
252,220,106268,1,0,0:0:0:0:
252,220,106384,1,8,0:0:0:0:
252,224,106614,1,8,0:0:0:0:
252,224,106730,1,0,0:0:0:0:
272,212,106961,1,8,0:0:0:0:
272,212,107191,1,0,0:0:0:0:
280,216,107422,1,8,0:0:0:0:
280,216,107538,1,8,0:0:0:0:
280,216,107653,1,0,0:0:0:0:
280,208,107884,1,8,0:0:0:0:
280,208,108114,1,0,0:0:0:0:
292,216,108345,1,0,0:0:0:0:
292,216,108461,1,8,0:0:0:0:
288,216,108576,1,8,0:0:0:0:
288,208,108807,1,8,0:0:0:0:
296,208,108922,1,8,0:0:0:0:
296,212,109038,1,0,0:0:0:0:
288,208,109268,1,8,0:0:0:0:
312,208,109499,1,0,0:0:0:0:
308,208,109614,1,0,0:0:0:0:
304,208,109730,1,8,0:0:0:0:
304,208,109845,1,8,0:0:0:0:
288,208,109961,1,0,0:0:0:0:
312,208,110076,1,8,0:0:0:0:
308,208,110307,1,8,0:0:0:0:
308,208,110422,1,0,0:0:0:0:
304,212,110653,1,8,0:0:0:0:
304,212,110884,1,0,0:0:0:0:
312,212,111114,1,0,0:0:0:0:
312,212,111345,1,8,0:0:0:0:
308,212,111461,1,0,0:0:0:0:
308,212,111576,1,8,0:0:0:0:
344,240,111691,1,8,0:0:0:0:
308,212,111807,1,0,0:0:0:0:
308,212,111922,1,8,0:0:0:0:
312,212,112153,1,8,0:0:0:0:
312,212,112268,1,0,0:0:0:0:
332,224,112499,1,8,0:0:0:0:
332,224,112730,1,0,0:0:0:0:
332,224,112961,1,0,0:0:0:0:
332,224,113191,1,8,0:0:0:0:
328,224,113307,1,0,0:0:0:0:
328,228,113422,1,0,0:0:0:0:
332,224,113538,1,8,0:0:0:0:
332,224,113653,1,0,0:0:0:0:
328,228,113768,1,8,0:0:0:0:
324,232,113999,1,8,0:0:0:0:
324,232,114114,1,0,0:0:0:0:
324,232,114345,1,8,0:0:0:0:
344,240,114576,1,0,0:0:0:0:
344,240,114807,1,8,0:0:0:0:
352,232,114922,1,8,0:0:0:0:
344,240,115038,1,0,0:0:0:0:
344,240,115268,1,8,0:0:0:0:
344,240,115499,1,0,0:0:0:0:
272,188,115730,1,8,0:0:0:0:
344,240,115845,1,0,0:0:0:0:
344,240,115961,1,8,0:0:0:0:
344,240,116076,1,8,0:0:0:0:
344,240,116191,1,0,0:0:0:0:
344,240,116307,1,8,0:0:0:0:
344,240,116422,1,0,0:0:0:0:
344,240,116538,1,0,0:0:0:0:
340,232,116653,1,8,0:0:0:0:
341,233,116768,1,0,0:0:0:0:
341,233,116884,1,8,0:0:0:0:
296,212,117345,1,4,0:0:0:0:
336,208,117691,1,0,0:0:0:0:
336,208,117807,1,8,0:0:0:0:
300,208,118038,1,8,0:0:0:0:
304,188,118153,1,8,0:0:0:0:
276,184,118268,1,0,0:0:0:0:
276,204,118499,1,0,0:0:0:0:
276,208,118614,1,0,0:0:0:0:
268,196,118730,1,8,0:0:0:0:
268,196,118961,1,8,0:0:0:0:
272,216,119191,1,0,0:0:0:0:
248,216,119422,1,0,0:0:0:0:
248,216,119538,1,8,0:0:0:0:
264,216,119653,1,0,0:0:0:0:
248,216,119884,1,8,0:0:0:0:
263,207,120114,1,0,0:0:0:0:
256,208,120345,1,8,0:0:0:0:
260,204,120461,1,0,0:0:0:0:
261,211,120576,1,8,0:0:0:0:
263,207,120807,1,8,0:0:0:0:
260,200,120922,1,8,0:0:0:0:
263,207,121038,1,0,0:0:0:0:
250,200,121268,1,0,0:0:0:0:
252,192,121384,1,0,0:0:0:0:
250,200,121499,1,8,0:0:0:0:
250,200,121730,1,8,0:0:0:0:
256,196,121961,1,0,0:0:0:0:
250,200,122307,1,0,0:0:0:0:
250,200,122422,1,8,0:0:0:0:
250,200,122653,1,8,0:0:0:0:
272,192,122768,1,8,0:0:0:0:
261,197,122884,1,0,0:0:0:0:
264,200,122999,1,0,0:0:0:0:
244,212,123114,1,8,0:0:0:0:
261,197,123345,1,0,0:0:0:0:
268,192,123576,1,0,0:0:0:0:
296,220,123691,1,0,0:0:0:0:
276,200,123807,1,8,0:0:0:0:
272,192,124038,1,0,0:0:0:0:
296,220,124153,1,8,0:0:0:0:
284,204,124268,1,0,0:0:0:0:
284,204,124384,1,0,0:0:0:0:
284,204,124499,1,8,0:0:0:0:
284,204,124614,1,8,0:0:0:0:
257,204,124730,1,0,0:0:0:0:
284,208,124961,1,8,0:0:0:0:
300,200,125191,1,0,0:0:0:0:
304,216,125307,1,8,0:0:0:0:
272,212,125422,1,8,0:0:0:0:
276,208,125538,1,8,0:0:0:0:
308,204,125653,1,0,0:0:0:0:
292,196,125768,1,8,0:0:0:0:
276,208,125999,1,8,0:0:0:0:
276,196,126114,1,0,0:0:0:0:
276,176,126230,1,8,0:0:0:0:
284,200,126345,1,0,0:0:0:0:
280,200,126576,1,0,0:0:0:0:
288,204,126691,1,0,0:0:0:0:
276,200,126807,1,8,0:0:0:0:
276,200,126922,1,8,0:0:0:0:
276,200,127038,1,0,0:0:0:0:
268,208,127153,1,8,0:0:0:0:
288,188,127384,1,8,0:0:0:0:
276,196,127499,1,0,0:0:0:0:
276,196,127614,1,8,0:0:0:0:
276,192,127730,1,0,0:0:0:0:
272,188,127845,1,0,0:0:0:0:
280,188,127961,1,8,0:0:0:0:
248,196,128422,1,0,0:0:0:0:
248,184,128653,1,0,0:0:0:0:
264,192,128768,1,0,0:0:0:0:
248,184,128884,1,8,0:0:0:0:
248,184,129114,1,8,0:0:0:0:
256,192,129230,1,8,0:0:0:0:
248,184,129345,1,0,0:0:0:0:
280,184,129461,1,0,0:0:0:0:
280,192,129576,1,8,0:0:0:0:
280,192,129691,1,8,0:0:0:0:
280,192,129807,1,0,0:0:0:0:
256,172,129922,1,8,0:0:0:0:
264,200,130038,1,8,0:0:0:0:
264,200,130153,1,8,0:0:0:0:
276,192,130268,1,0,0:0:0:0:
248,184,130499,1,8,0:0:0:0:
264,176,130730,1,0,0:0:0:0:
248,180,130845,1,8,0:0:0:0:
248,180,131076,1,0,0:0:0:0:
248,180,131191,1,8,0:0:0:0:
272,180,131422,1,0,0:0:0:0:
308,180,131538,1,8,0:0:0:0:
352,208,131653,1,0,0:0:0:0:
268,168,131768,1,0,0:0:0:0:
292,172,131884,1,8,0:0:0:0:
320,188,132114,1,4,0:0:0:0:
328,188,132345,1,8,0:0:0:0:
344,196,132461,1,8,0:0:0:0:
344,196,132576,1,0,0:0:0:0:
344,200,132691,1,0,0:0:0:0:
344,196,132807,1,8,0:0:0:0:
344,196,132922,1,8,0:0:0:0:
332,188,133038,1,0,0:0:0:0:
344,192,133268,1,8,0:0:0:0:
368,212,133384,1,0,0:0:0:0:
360,196,133499,1,8,0:0:0:0:
344,196,133614,1,0,0:0:0:0:
344,196,133730,1,8,0:0:0:0:
364,196,133845,1,8,0:0:0:0:
344,196,133961,1,0,0:0:0:0:
344,196,134191,1,8,0:0:0:0:
344,196,134307,1,0,0:0:0:0:
356,192,134538,1,0,0:0:0:0:
344,196,134653,1,8,0:0:0:0:
344,196,134884,1,0,0:0:0:0:
352,192,135114,1,0,0:0:0:0:
344,196,135230,1,0,0:0:0:0:
352,196,135345,1,8,0:0:0:0:
352,196,135461,1,0,0:0:0:0:
352,196,135576,1,8,0:0:0:0:
352,200,135691,1,8,0:0:0:0:
352,196,135807,1,0,0:0:0:0:
344,208,136038,1,8,0:0:0:0:
352,192,136153,1,0,0:0:0:0:
352,196,136268,1,8,0:0:0:0:
352,196,136384,1,8,0:0:0:0:
344,208,136499,1,0,0:0:0:0:
352,196,136614,1,0,0:0:0:0:
352,196,136730,1,8,0:0:0:0:
336,208,136845,1,0,0:0:0:0:
348,208,136961,1,8,0:0:0:0:
348,208,137076,1,8,0:0:0:0:
348,208,137191,1,0,0:0:0:0:
348,208,137307,1,0,0:0:0:0:
352,212,137422,1,8,0:0:0:0:
348,208,137538,1,8,0:0:0:0:
352,196,137653,1,0,0:0:0:0:
352,212,137884,1,8,0:0:0:0:
352,212,137999,1,0,0:0:0:0:
352,212,138230,1,0,0:0:0:0:
352,212,138345,1,8,0:0:0:0:
352,212,138576,1,0,0:0:0:0:
368,212,138922,1,8,0:0:0:0:
368,212,139038,1,0,0:0:0:0:
368,212,139153,1,0,0:0:0:0:
368,224,139268,1,8,0:0:0:0:
368,224,139499,1,0,0:0:0:0:
368,212,139730,1,8,0:0:0:0:
364,224,139845,1,0,0:0:0:0:
368,232,139961,1,0,0:0:0:0:
352,216,140076,1,0,0:0:0:0:
364,236,140191,1,8,0:0:0:0:
364,236,140422,1,0,0:0:0:0:
360,224,140653,1,0,0:0:0:0:
364,236,140768,1,8,0:0:0:0:
368,240,140884,1,0,0:0:0:0:
368,240,140999,1,0,0:0:0:0:
368,240,141114,1,8,0:0:0:0:
364,236,141230,1,8,0:0:0:0:
368,240,141345,1,0,0:0:0:0:
384,240,141576,1,0,0:0:0:0:
328,224,141691,1,0,0:0:0:0:
380,240,141807,1,8,0:0:0:0:
380,240,142038,1,0,0:0:0:0:
296,216,142268,1,8,0:0:0:0:
360,232,142499,1,0,0:0:0:0:
304,212,142614,1,0,0:0:0:0:
304,212,142730,1,8,0:0:0:0:
344,212,142845,1,8,0:0:0:0:
328,220,142961,1,0,0:0:0:0:
328,220,143191,1,8,0:0:0:0:
368,256,143307,1,8,0:0:0:0:
368,256,143422,1,0,0:0:0:0:
368,256,143538,1,0,0:0:0:0:
368,256,143653,1,0,0:0:0:0:
368,256,143768,1,0,0:0:0:0:
368,256,143884,1,8,0:0:0:0:
368,256,143999,1,8,0:0:0:0:
368,256,144114,1,0,0:0:0:0:
368,256,144345,1,8,0:0:0:0:
356,256,144576,1,0,0:0:0:0:
352,256,145038,1,0,0:0:0:0:
360,248,145153,1,0,0:0:0:0:
360,248,145268,1,8,0:0:0:0:
360,248,145384,1,8,0:0:0:0:
360,252,145614,1,0,0:0:0:0:
360,252,145730,1,8,0:0:0:0:
360,252,145845,1,8,0:0:0:0:
312,196,146076,1,0,0:0:0:0:
360,248,146191,1,8,0:0:0:0:
292,188,146307,1,8,0:0:0:0:
268,180,146422,1,0,0:0:0:0:
268,180,146538,1,0,0:0:0:0:
268,180,146653,1,8,0:0:0:0:
268,180,146768,1,8,0:0:0:0:
312,196,146884,1,0,0:0:0:0:
312,196,146999,1,0,0:0:0:0:
268,176,147230,1,0,0:0:0:0:
268,176,147345,1,8,0:0:0:0:
268,176,147576,1,8,0:0:0:0:
268,176,147691,1,0,0:0:0:0:
268,176,147922,1,0,0:0:0:0:
284,184,148038,1,0,0:0:0:0:
284,184,148153,1,8,0:0:0:0:
284,184,148268,1,0,0:0:0:0:
284,184,148384,1,0,0:0:0:0:
284,184,148499,1,8,0:0:0:0:
284,184,148614,1,8,0:0:0:0:
284,184,148730,1,0,0:0:0:0:
284,184,148845,1,0,0:0:0:0:
284,184,148961,1,8,0:0:0:0:
284,184,149076,1,8,0:0:0:0:
284,184,149307,1,0,0:0:0:0:
284,184,149422,1,8,0:0:0:0:
284,184,149538,1,8,0:0:0:0:
324,184,149768,1,8,0:0:0:0:
324,184,149884,1,0,0:0:0:0:
300,180,149999,1,0,0:0:0:0:
300,180,150114,1,8,0:0:0:0:
304,180,150230,1,8,0:0:0:0:
304,180,150345,1,0,0:0:0:0:
304,184,150461,1,0,0:0:0:0:
304,184,150576,1,8,0:0:0:0:
304,184,150691,1,8,0:0:0:0:
312,172,150922,1,0,0:0:0:0:
312,176,151038,1,8,0:0:0:0:
312,176,151268,1,8,0:0:0:0:
312,176,151384,1,0,0:0:0:0:
308,180,151614,1,0,0:0:0:0:
308,180,151730,1,8,0:0:0:0:
308,180,151845,1,0,0:0:0:0:
304,180,151961,1,8,0:0:0:0:
304,180,152076,1,8,0:0:0:0:
328,176,152191,1,0,0:0:0:0:
336,184,152307,1,0,0:0:0:0:
304,180,152422,1,8,0:0:0:0:
308,180,152538,1,0,0:0:0:0:
308,180,152768,1,0,0:0:0:0:
320,176,152884,1,8,0:0:0:0:
320,176,153114,1,8,0:0:0:0:
320,176,153230,1,0,0:0:0:0:
320,176,153461,1,0,0:0:0:0:
320,176,153576,1,8,0:0:0:0:
320,176,153691,1,8,0:0:0:0:
320,176,153807,1,0,0:0:0:0:
320,176,153922,1,8,0:0:0:0:
320,176,154038,1,0,0:0:0:0:
320,176,154153,1,8,0:0:0:0:
320,176,154268,1,0,0:0:0:0:
320,176,154384,1,0,0:0:0:0:
320,176,154614,1,0,0:0:0:0:
320,176,154730,1,8,0:0:0:0:
320,176,154961,1,8,0:0:0:0:
320,176,155076,1,0,0:0:0:0:
320,176,155307,1,0,0:0:0:0:
320,176,155422,1,0,0:0:0:0:
320,176,155538,1,8,0:0:0:0:
320,176,155653,1,0,0:0:0:0:
320,176,155768,1,0,0:0:0:0:
320,176,155884,1,8,0:0:0:0:
320,176,155999,1,8,0:0:0:0:
320,176,156114,1,0,0:0:0:0:
324,176,156230,1,0,0:0:0:0:
324,176,156345,1,8,0:0:0:0:
324,176,156461,1,8,0:0:0:0:
324,176,156691,1,0,0:0:0:0:
324,176,156807,1,8,0:0:0:0:
324,176,156922,1,8,0:0:0:0:
324,176,157153,1,8,0:0:0:0:
324,176,157268,1,0,0:0:0:0:
324,176,157384,1,0,0:0:0:0:
324,176,157499,1,8,0:0:0:0:
324,176,157614,1,0,0:0:0:0:
324,176,157730,1,8,0:0:0:0:
324,176,157845,1,0,0:0:0:0:
324,176,157961,1,8,0:0:0:0:
324,176,158076,1,8,0:0:0:0:
324,176,158191,1,0,0:0:0:0:
340,176,158307,1,8,0:0:0:0:
324,176,158422,1,0,0:0:0:0:
324,176,158538,1,0,0:0:0:0:
324,176,158653,1,8,0:0:0:0:
324,176,158768,1,8,0:0:0:0:
324,176,158884,1,0,0:0:0:0:
324,176,158999,1,0,0:0:0:0:
324,176,159114,1,0,0:0:0:0:
324,176,159230,1,0,0:0:0:0:
324,176,159345,1,8,0:0:0:0:
324,176,159461,1,8,0:0:0:0:
316,184,159576,1,8,0:0:0:0:
304,172,159691,1,8,0:0:0:0:
324,176,159807,1,0,0:0:0:0:
320,168,160153,1,8,0:0:0:0:
320,168,160268,1,0,0:0:0:0:
320,168,160499,1,0,0:0:0:0:
296,188,160614,1,0,0:0:0:0:
320,168,160730,1,8,0:0:0:0:
300,176,160961,1,8,0:0:0:0:
316,172,161076,1,8,0:0:0:0:
320,168,161191,1,0,0:0:0:0:
316,192,161422,1,0,0:0:0:0:
296,184,161538,1,0,0:0:0:0:
292,180,161653,1,8,0:0:0:0:
296,180,161884,1,0,0:0:0:0:
296,180,162114,1,0,0:0:0:0:
284,176,162230,1,8,0:0:0:0:
296,180,162345,1,0,0:0:0:0:
288,184,162576,1,8,0:0:0:0:
296,184,162807,1,8,0:0:0:0:
312,204,162922,1,8,0:0:0:0:
296,184,163038,1,0,0:0:0:0:
288,184,163153,1,8,0:0:0:0:
280,180,163384,1,8,0:0:0:0:
280,180,163499,1,0,0:0:0:0:
304,208,163730,1,8,0:0:0:0:
296,196,163845,1,0,0:0:0:0:
296,196,163961,1,0,0:0:0:0:
296,196,164076,1,8,0:0:0:0:
296,196,164307,1,8,0:0:0:0:
296,196,164422,1,0,0:0:0:0:
288,192,164653,1,0,0:0:0:0:
280,200,164768,1,0,0:0:0:0:
300,200,164884,1,8,0:0:0:0:
296,196,165114,1,8,0:0:0:0:
312,200,165230,1,8,0:0:0:0:
296,196,165345,1,0,0:0:0:0:
296,196,165576,1,0,0:0:0:0:
296,196,165691,1,0,0:0:0:0:
296,196,165807,1,0,0:0:0:0:
300,200,165922,1,8,0:0:0:0:
288,188,166153,1,8,0:0:0:0:
288,200,166268,1,0,0:0:0:0:
288,200,166499,1,8,0:0:0:0:
284,200,166614,1,8,0:0:0:0:
288,200,166730,1,0,0:0:0:0:
288,200,166845,1,0,0:0:0:0:
288,196,166961,1,8,0:0:0:0:
288,196,167191,1,4,0:0:0:0:
276,208,167422,1,0,0:0:0:0:
276,192,167538,1,8,0:0:0:0:
276,192,167653,1,0,0:0:0:0:
320,168,167884,1,0,0:0:0:0:
320,168,167999,1,0,0:0:0:0:
320,168,168114,1,8,0:0:0:0:
300,176,168345,1,8,0:0:0:0:
320,168,168461,1,8,0:0:0:0:
316,172,168576,1,8,0:0:0:0:
312,192,168691,1,0,0:0:0:0:
308,180,168922,1,0,0:0:0:0:
292,180,169038,1,8,0:0:0:0:
304,180,169268,1,0,0:0:0:0:
308,180,169499,1,0,0:0:0:0:
320,192,169614,1,8,0:0:0:0:
324,180,169730,1,0,0:0:0:0:
324,180,169961,1,8,0:0:0:0:
328,188,170191,1,0,0:0:0:0:
336,204,170307,1,0,0:0:0:0:
328,188,170422,1,8,0:0:0:0:
328,188,170653,1,8,0:0:0:0:
324,188,170884,1,0,0:0:0:0:
336,204,171114,1,8,0:0:0:0:
336,204,171230,1,8,0:0:0:0:
336,204,171345,1,0,0:0:0:0:
328,188,171576,1,0,0:0:0:0:
328,192,171807,1,8,0:0:0:0:
328,188,172038,1,0,0:0:0:0:
328,188,172153,1,0,0:0:0:0:
312,192,172268,1,8,0:0:0:0:
328,188,172499,1,8,0:0:0:0:
316,196,172730,1,0,0:0:0:0:
340,212,172961,1,0,0:0:0:0:
340,212,173076,1,0,0:0:0:0:
340,208,173191,1,8,0:0:0:0:
340,208,173307,1,8,0:0:0:0:
340,208,173422,1,8,0:0:0:0:
340,208,173538,1,8,0:0:0:0:
340,208,173653,1,0,0:0:0:0:
340,208,173884,1,0,0:0:0:0:
340,208,173999,1,0,0:0:0:0:
340,208,174114,1,8,0:0:0:0:
340,240,174230,1,0,0:0:0:0:
280,196,174345,1,8,0:0:0:0:
280,196,174576,1,4,0:0:0:0:
312,200,174807,1,8,0:0:0:0:
320,216,174922,1,0,0:0:0:0:
324,216,175153,1,0,0:0:0:0:
324,216,175268,1,8,0:0:0:0:
328,220,175499,1,0,0:0:0:0:
328,220,175614,1,8,0:0:0:0:
328,220,175730,1,8,0:0:0:0:
340,220,175845,1,8,0:0:0:0:
328,220,175961,1,0,0:0:0:0:
328,220,176191,1,0,0:0:0:0:
324,216,176307,1,8,0:0:0:0:
328,220,176422,1,0,0:0:0:0:
328,220,176653,1,8,0:0:0:0:
328,220,176768,1,0,0:0:0:0:
328,220,176999,1,0,0:0:0:0:
328,220,177114,1,8,0:0:0:0:
336,208,177345,1,0,0:0:0:0:
336,208,177461,1,8,0:0:0:0:
336,208,177576,1,8,0:0:0:0:
340,212,177691,1,0,0:0:0:0:
336,208,177807,1,8,0:0:0:0:
336,208,177922,1,0,0:0:0:0:
336,208,178038,1,8,0:0:0:0:
336,208,178153,1,8,0:0:0:0:
336,208,178268,1,0,0:0:0:0:
296,184,178499,1,0,0:0:0:0:
288,180,178614,1,0,0:0:0:0:
272,188,178730,1,8,0:0:0:0:
280,176,178845,1,0,0:0:0:0:
284,184,178961,1,8,0:0:0:0:
284,184,179076,1,8,0:0:0:0:
284,184,179191,1,0,0:0:0:0:
284,204,179422,1,0,0:0:0:0:
284,204,179538,1,0,0:0:0:0:
284,204,179653,1,8,0:0:0:0:
284,204,179768,1,8,0:0:0:0:
284,204,179884,1,8,0:0:0:0:
292,204,179999,1,8,0:0:0:0:
304,200,180114,1,0,0:0:0:0:
304,200,180230,1,0,0:0:0:0:
296,208,180345,1,8,0:0:0:0:
312,200,180461,1,8,0:0:0:0:
296,208,180576,1,0,0:0:0:0:
320,216,180691,1,0,0:0:0:0:
296,208,180807,1,8,0:0:0:0:
296,208,181038,1,0,0:0:0:0:
324,220,181268,1,0,0:0:0:0:
324,220,181384,1,0,0:0:0:0:
296,208,181499,1,8,0:0:0:0:
316,224,181614,1,8,0:0:0:0:
324,212,181730,1,0,0:0:0:0:
324,232,181961,1,12,0:0:0:0:
320,212,182191,1,0,0:0:0:0:
320,212,182307,1,8,0:0:0:0:
320,212,182538,1,8,0:0:0:0:
320,212,182653,1,0,0:0:0:0:
320,212,182884,1,0,0:0:0:0:
316,204,183114,1,0,0:0:0:0:
312,196,183230,1,0,0:0:0:0:
316,204,183345,1,8,0:0:0:0:
312,196,183461,1,0,0:0:0:0:
316,204,183576,1,8,0:0:0:0:
316,204,183691,1,8,0:0:0:0:
316,204,183807,1,0,0:0:0:0:
316,204,184038,1,8,0:0:0:0:
316,204,184153,1,0,0:0:0:0:
316,204,184384,1,0,0:0:0:0:
316,204,184499,1,8,0:0:0:0:
316,204,184730,1,0,0:0:0:0:
316,204,184961,1,0,0:0:0:0:
320,200,185076,1,8,0:0:0:0:
316,204,185191,1,0,0:0:0:0:
316,204,185422,1,0,0:0:0:0:
320,200,185538,1,0,0:0:0:0:
316,204,185653,1,8,0:0:0:0:
316,204,185999,1,8,0:0:0:0:
308,208,186114,1,0,0:0:0:0:
308,208,186345,1,8,0:0:0:0:
308,208,186576,1,0,0:0:0:0:
308,208,186691,1,8,0:0:0:0:
320,220,186922,1,8,0:0:0:0:
308,208,187038,1,0,0:0:0:0:
312,216,187268,1,8,0:0:0:0:
260,196,187499,1,0,0:0:0:0:
280,224,187614,1,0,0:0:0:0:
280,224,187730,1,0,0:0:0:0:
280,224,187845,1,0,0:0:0:0:
280,224,187961,1,8,0:0:0:0:
280,224,188076,1,0,0:0:0:0:
280,224,188191,1,0,0:0:0:0:
280,224,188307,1,0,0:0:0:0:
280,224,188422,1,8,0:0:0:0:
280,224,188538,1,8,0:0:0:0:
280,224,188653,1,0,0:0:0:0:
280,224,188768,1,0,0:0:0:0:
280,224,188884,1,8,0:0:0:0:
280,224,188999,1,8,0:0:0:0:
280,224,189114,1,8,0:0:0:0:
280,224,189230,1,8,0:0:0:0:
248,200,189345,1,0,0:0:0:0:
340,192,191191,1,0,0:0:0:0:
328,176,192114,1,0,0:0:0:0:
328,176,193038,1,0,0:0:0:0:
328,176,193961,1,0,0:0:0:0:
264,204,194884,5,0,0:0:0:0:
264,204,195807,1,0,0:0:0:0:
264,204,196730,1,0,0:0:0:0:
264,204,197653,1,0,0:0:0:0:
264,204,198576,1,0,0:0:0:0:
284,200,199038,1,0,0:0:0:0:
264,204,199499,1,0,0:0:0:0:
256,212,199961,1,0,0:0:0:0:
264,204,200422,1,0,0:0:0:0:
264,208,200884,1,0,0:0:0:0:
264,204,201345,1,0,0:0:0:0:
264,208,201807,1,0,0:0:0:0:
264,212,202268,1,0,0:0:0:0:
284,208,202499,1,8,0:0:0:0:
272,212,202730,1,0,0:0:0:0:
284,208,202961,1,8,0:0:0:0:
264,212,203191,1,0,0:0:0:0:
248,212,203422,1,8,0:0:0:0:
248,212,203653,1,0,0:0:0:0:
248,212,203884,1,8,0:0:0:0:
248,212,204114,1,0,0:0:0:0:
256,192,204345,12,0,205499,0:0:0:0:
260,196,205961,5,0,0:0:0:0:
260,196,206076,1,0,0:0:0:0:
260,196,206191,1,8,0:0:0:0:
260,196,206307,1,0,0:0:0:0:
260,196,206422,1,0,0:0:0:0:
260,196,206538,1,8,0:0:0:0:
260,196,206653,1,0,0:0:0:0:
260,196,206768,1,0,0:0:0:0:
260,196,206884,1,8,0:0:0:0:
260,196,206999,1,8,0:0:0:0:
260,196,207114,1,0,0:0:0:0:
260,196,207230,1,0,0:0:0:0:
260,196,207345,1,8,0:0:0:0:
260,196,207461,1,0,0:0:0:0:
260,196,207576,1,8,0:0:0:0:
260,196,207807,1,4,0:0:0:0:
264,204,208038,1,0,0:0:0:0:
264,204,208153,1,8,0:0:0:0:
276,220,208268,1,0,0:0:0:0:
276,216,208499,1,8,0:0:0:0:
264,216,208730,1,0,0:0:0:0:
264,216,208961,1,0,0:0:0:0:
264,216,209076,1,0,0:0:0:0:
264,216,209191,1,8,0:0:0:0:
272,216,209422,1,8,0:0:0:0:
300,212,209538,1,8,0:0:0:0:
272,216,209653,1,0,0:0:0:0:
280,224,209884,1,8,0:0:0:0:
296,212,209999,1,0,0:0:0:0:
272,216,210114,1,0,0:0:0:0:
296,212,210230,1,8,0:0:0:0:
284,200,210461,1,8,0:0:0:0:
272,216,210576,1,0,0:0:0:0:
296,220,210807,1,8,0:0:0:0:
280,216,211038,1,0,0:0:0:0:
284,212,211268,1,8,0:0:0:0:
272,216,211384,1,8,0:0:0:0:
256,188,211499,1,0,0:0:0:0:
280,216,211730,1,0,0:0:0:0:
316,212,211845,1,0,0:0:0:0:
316,212,211961,1,8,0:0:0:0:
280,216,212191,1,8,0:0:0:0:
280,216,212422,1,0,0:0:0:0:
280,216,212653,1,0,0:0:0:0:
264,204,212768,1,0,0:0:0:0:
280,216,212884,1,8,0:0:0:0:
280,216,212999,1,0,0:0:0:0:
280,216,213114,1,8,0:0:0:0:
280,216,213345,1,0,0:0:0:0:
280,196,213576,1,0,0:0:0:0:
256,192,213691,1,8,0:0:0:0:
268,196,213807,1,0,0:0:0:0:
284,212,213922,1,0,0:0:0:0:
272,196,214038,1,8,0:0:0:0:
292,196,214268,1,0,0:0:0:0:
276,200,214384,1,8,0:0:0:0:
296,196,214499,1,0,0:0:0:0:
292,196,214730,1,0,0:0:0:0:
292,196,214845,1,0,0:0:0:0:
292,196,214961,1,8,0:0:0:0:
296,208,215191,1,4,0:0:0:0:
296,196,215538,1,0,0:0:0:0:
296,192,215653,1,8,0:0:0:0:
304,184,215884,1,0,0:0:0:0:
304,184,216114,1,8,0:0:0:0:
304,184,216345,1,0,0:0:0:0:
304,192,216461,1,0,0:0:0:0:
304,184,216576,1,8,0:0:0:0:
304,184,216807,1,8,0:0:0:0:
304,184,217038,1,0,0:0:0:0:
304,184,217268,1,0,0:0:0:0:
304,184,217384,1,8,0:0:0:0:
288,192,217499,1,0,0:0:0:0:
304,184,217614,1,8,0:0:0:0:
304,184,217730,1,0,0:0:0:0:
320,200,217961,1,8,0:0:0:0:
312,184,218422,1,0,0:0:0:0:
312,184,218653,1,0,0:0:0:0:
312,184,218768,1,8,0:0:0:0:
316,184,218884,1,0,0:0:0:0:
312,184,219114,1,0,0:0:0:0:
312,184,219345,1,8,0:0:0:0:
312,184,219576,1,8,0:0:0:0:
312,184,219691,1,8,0:0:0:0:
312,184,219807,1,0,0:0:0:0:
312,184,220038,1,0,0:0:0:0:
312,184,220268,1,8,0:0:0:0:
312,184,220499,1,0,0:0:0:0:
312,184,220614,1,0,0:0:0:0:
316,192,220730,1,8,0:0:0:0:
316,192,220961,1,0,0:0:0:0:
316,192,221191,1,8,0:0:0:0:
316,192,221422,1,0,0:0:0:0:
340,200,221538,1,0,0:0:0:0:
316,192,221653,1,8,0:0:0:0:
316,200,221768,1,0,0:0:0:0:
316,192,221884,1,8,0:0:0:0:
340,216,221999,1,8,0:0:0:0:
316,192,222114,1,0,0:0:0:0:
352,212,222230,1,0,0:0:0:0:
316,192,222345,1,8,0:0:0:0:
316,192,222576,1,4,0:0:0:0:
272,208,222807,1,0,0:0:0:0:
264,204,222922,1,8,0:0:0:0:
276,220,223038,1,0,0:0:0:0:
276,216,223268,1,8,0:0:0:0:
264,216,223499,1,0,0:0:0:0:
264,216,223730,1,0,0:0:0:0:
288,212,223845,1,0,0:0:0:0:
264,216,223961,1,8,0:0:0:0:
272,216,224191,1,8,0:0:0:0:
304,240,224307,1,8,0:0:0:0:
272,216,224422,1,0,0:0:0:0:
304,208,224653,1,8,0:0:0:0:
288,224,224768,1,8,0:0:0:0:
272,216,224884,1,0,0:0:0:0:
296,212,224999,1,8,0:0:0:0:
284,200,225230,1,8,0:0:0:0:
272,216,225345,1,0,0:0:0:0:
296,220,225576,1,8,0:0:0:0:
280,216,225807,1,0,0:0:0:0:
284,212,226038,1,8,0:0:0:0:
280,216,226153,1,8,0:0:0:0:
272,216,226268,1,0,0:0:0:0:
284,208,226499,1,0,0:0:0:0:
284,208,226614,1,0,0:0:0:0:
280,216,226730,1,8,0:0:0:0:
280,216,226961,1,8,0:0:0:0:
280,216,227191,1,0,0:0:0:0:
280,216,227422,1,0,0:0:0:0:
264,204,227538,1,0,0:0:0:0:
280,216,227653,1,8,0:0:0:0:
280,216,227768,1,0,0:0:0:0:
280,216,227884,1,8,0:0:0:0:
296,204,228114,1,0,0:0:0:0:
280,192,228345,1,8,0:0:0:0:
256,192,228461,1,0,0:0:0:0:
284,196,228691,1,0,0:0:0:0:
284,196,228807,1,8,0:0:0:0:
292,196,229038,1,0,0:0:0:0:
276,200,229153,1,8,0:0:0:0:
296,196,229268,1,0,0:0:0:0:
292,196,229499,1,8,0:0:0:0:
292,196,229614,1,0,0:0:0:0:
292,196,229730,1,8,0:0:0:0:
292,196,229961,1,4,0:0:0:0:
296,196,230307,1,0,0:0:0:0:
296,192,230422,1,8,0:0:0:0:
304,184,230653,1,0,0:0:0:0:
304,184,230884,1,8,0:0:0:0:
304,184,231114,1,0,0:0:0:0:
304,192,231230,1,0,0:0:0:0:
304,184,231345,1,8,0:0:0:0:
304,184,231576,1,8,0:0:0:0:
304,184,231807,1,0,0:0:0:0:
324,204,232038,1,0,0:0:0:0:
320,200,232153,1,8,0:0:0:0:
296,192,232268,1,8,0:0:0:0:
304,184,232499,1,8,0:0:0:0:
316,192,232730,1,0,0:0:0:0:
312,184,233191,1,0,0:0:0:0:
312,184,233422,1,8,0:0:0:0:
320,208,233653,1,0,0:0:0:0:
320,204,233884,1,0,0:0:0:0:
320,204,233999,1,0,0:0:0:0:
336,180,234114,1,8,0:0:0:0:
308,216,234345,1,8,0:0:0:0:
320,204,234576,1,0,0:0:0:0:
292,200,234807,1,0,0:0:0:0:
312,212,234922,1,0,0:0:0:0:
292,200,235038,1,8,0:0:0:0:
292,200,235268,1,0,0:0:0:0:
292,200,235499,1,8,0:0:0:0:
308,212,235614,1,0,0:0:0:0:
292,200,235730,1,8,0:0:0:0:
284,204,235961,1,0,0:0:0:0:
284,204,236191,1,0,0:0:0:0:
296,216,236307,1,0,0:0:0:0:
284,204,236422,1,8,0:0:0:0:
284,204,236653,1,0,0:0:0:0:
284,204,236884,1,8,0:0:0:0:
292,200,237114,1,8,0:0:0:0:
300,208,237230,1,8,0:0:0:0:
284,204,237345,1,0,0:0:0:0:
284,204,237576,1,0,0:0:0:0:
296,216,237691,1,0,0:0:0:0:
284,204,237807,1,8,0:0:0:0:
284,204,238038,1,8,0:0:0:0:
284,204,238268,1,0,0:0:0:0:
284,204,238499,1,0,0:0:0:0:
284,204,238614,1,0,0:0:0:0:
284,204,238730,1,8,0:0:0:0:
284,204,238961,1,0,0:0:0:0:
284,204,239191,1,8,0:0:0:0:
284,204,239422,1,0,0:0:0:0:
320,208,239538,1,8,0:0:0:0:
284,204,239653,1,0,0:0:0:0:
320,208,239768,1,0,0:0:0:0:
284,204,239884,1,8,0:0:0:0:
308,212,239999,1,8,0:0:0:0:
284,204,240114,1,0,0:0:0:0:
284,204,240345,1,0,0:0:0:0:
300,192,240461,1,0,0:0:0:0:
284,204,240576,1,8,0:0:0:0:
284,204,240807,1,0,0:0:0:0:
284,204,241038,1,8,0:0:0:0:
336,196,241153,1,8,0:0:0:0:
336,196,241268,1,0,0:0:0:0:
336,196,241384,1,0,0:0:0:0:
336,196,241499,1,0,0:0:0:0:
284,204,241614,1,8,0:0:0:0:
284,184,241845,1,0,0:0:0:0:
312,176,242191,1,0,0:0:0:0:
312,176,242422,1,8,0:0:0:0:
292,208,242653,1,0,0:0:0:0:
320,192,242884,1,0,0:0:0:0:
316,180,242999,1,8,0:0:0:0:
324,196,243230,1,8,0:0:0:0:
324,196,243345,1,0,0:0:0:0:
336,208,243576,1,8,0:0:0:0:
256,200,243807,1,0,0:0:0:0:
300,240,243922,1,0,0:0:0:0:
256,200,244038,1,8,0:0:0:0:
272,212,244268,1,8,0:0:0:0:
272,212,244384,1,0,0:0:0:0:
260,208,244499,1,8,0:0:0:0:
260,208,244614,1,8,0:0:0:0:
260,208,244730,1,0,0:0:0:0:
272,224,244845,1,8,0:0:0:0:
260,220,245076,1,8,0:0:0:0:
260,220,245191,1,0,0:0:0:0:
272,212,245422,1,8,0:0:0:0:
264,220,245653,1,0,0:0:0:0:
240,208,245884,1,8,0:0:0:0:
272,204,245999,1,8,0:0:0:0:
260,220,246114,1,0,0:0:0:0:
252,220,246345,1,8,0:0:0:0:
252,220,246576,1,0,0:0:0:0:
252,220,246691,1,8,0:0:0:0:
252,224,246922,1,8,0:0:0:0:
252,224,247038,1,0,0:0:0:0:
280,224,247153,1,0,0:0:0:0:
272,212,247268,1,8,0:0:0:0:
272,212,247499,1,0,0:0:0:0:
280,216,247730,1,8,0:0:0:0:
280,216,247845,1,8,0:0:0:0:
280,216,247961,1,0,0:0:0:0:
292,216,248076,1,0,0:0:0:0:
280,208,248191,1,8,0:0:0:0:
280,208,248422,1,0,0:0:0:0:
292,216,248653,1,0,0:0:0:0:
292,216,248768,1,8,0:0:0:0:
288,216,248884,1,8,0:0:0:0:
288,208,249114,1,8,0:0:0:0:
296,208,249230,1,8,0:0:0:0:
296,212,249345,1,0,0:0:0:0:
288,208,249576,1,8,0:0:0:0:
312,208,249807,1,0,0:0:0:0:
308,208,249922,1,0,0:0:0:0:
304,208,250038,1,8,0:0:0:0:
304,208,250153,1,8,0:0:0:0:
288,208,250268,1,0,0:0:0:0:
312,208,250384,1,8,0:0:0:0:
308,208,250614,1,8,0:0:0:0:
308,208,250730,1,0,0:0:0:0:
304,212,250961,1,8,0:0:0:0:
312,216,251191,1,0,0:0:0:0:
312,216,251307,1,0,0:0:0:0:
312,216,251422,1,8,0:0:0:0:
312,212,251653,1,8,0:0:0:0:
308,212,251768,1,0,0:0:0:0:
308,212,251884,1,8,0:0:0:0:
308,212,251999,1,8,0:0:0:0:
308,212,252114,1,0,0:0:0:0:
308,212,252230,1,8,0:0:0:0:
312,212,252461,1,8,0:0:0:0:
312,212,252576,1,0,0:0:0:0:
332,224,252807,1,8,0:0:0:0:
332,224,253038,1,0,0:0:0:0:
336,224,253153,1,8,0:0:0:0:
332,224,253268,1,0,0:0:0:0:
332,224,253499,1,8,0:0:0:0:
328,224,253614,1,0,0:0:0:0:
328,228,253730,1,0,0:0:0:0:
332,224,253845,1,8,0:0:0:0:
332,224,253961,1,0,0:0:0:0:
328,228,254076,1,8,0:0:0:0:
324,232,254307,1,8,0:0:0:0:
324,232,254422,1,0,0:0:0:0:
324,232,254653,1,8,0:0:0:0:
344,240,254884,1,0,0:0:0:0:
344,240,255114,1,8,0:0:0:0:
352,232,255230,1,8,0:0:0:0:
344,240,255345,1,0,0:0:0:0:
344,240,255576,1,8,0:0:0:0:
344,240,255807,1,0,0:0:0:0:
336,224,255922,1,0,0:0:0:0:
344,240,256038,1,8,0:0:0:0:
344,240,256153,1,0,0:0:0:0:
344,240,256268,1,8,0:0:0:0:
344,240,256384,1,8,0:0:0:0:
344,240,256499,1,0,0:0:0:0:
272,208,256614,1,8,0:0:0:0:
304,192,256730,1,0,0:0:0:0:
300,200,257076,1,8,0:0:0:0:
300,200,257422,1,4,0:0:0:0:
