osu file format v14

[General]
AudioFilename: audio.mp3
AudioLeadIn: 0
PreviewTime: 74191
Countdown: 0
SampleSet: Soft
StackLeniency: 0.7
Mode: 3
LetterboxInBreaks: 0
SpecialStyle: 0
WidescreenStoryboard: 0

[Editor]
DistanceSpacing: 0.7
BeatDivisor: 4
GridSize: 32
TimelineZoom: 1

[Metadata]
Title:Yoru ni Kakeru
TitleUnicode:夜に駆ける
Artist:YOASOBI
ArtistUnicode:YOASOBI
Creator:[Emiria]
Version:YOASOBI
Source:
Tags:Japanese Pop 幾田りら Ikuta Lilas Ayase The Book J-Pop
BeatmapID:2842217
BeatmapSetID:1374931

[Difficulty]
HPDrainRate:8
CircleSize:4
OverallDifficulty:8
ApproachRate:5
SliderMultiplier:1.4
SliderTickRate:1

[Events]
//Background and Video events
0,0,"bg.png",0,0
//Break Periods
//Storyboard Layer 0 (Background)
//Storyboard Layer 1 (Fail)
//Storyboard Layer 2 (Pass)
//Storyboard Layer 3 (Foreground)
//Storyboard Layer 4 (Overlay)
//Storyboard Sound Samples

[TimingPoints]
1038,461.538461538462,4,2,1,25,1,0
74884,-100,4,2,1,25,0,1
102576,-100,4,2,1,25,0,0
207807,-100,4,2,1,25,0,1
242884,-100,4,2,1,25,0,0

[HitObjects]
64,192,1038,5,0,0:0:0:0:
192,192,1038,1,0,0:0:0:0:
448,192,1384,1,0,0:0:0:0:
320,192,1730,1,0,0:0:0:0:
64,192,1961,128,0,2422:0:0:0:0:
448,192,1961,1,0,0:0:0:0:
320,192,2422,128,0,2884:0:0:0:0:
448,192,2884,1,0,0:0:0:0:
64,192,2884,1,0,0:0:0:0:
320,192,3230,1,0,0:0:0:0:
192,192,3576,1,0,0:0:0:0:
320,192,3807,1,0,0:0:0:0:
64,192,3807,1,0,0:0:0:0:
192,192,4268,1,0,0:0:0:0:
320,192,4499,1,0,0:0:0:0:
448,192,4730,1,0,0:0:0:0:
64,192,4730,1,0,0:0:0:0:
320,192,5076,1,0,0:0:0:0:
192,192,5422,1,0,0:0:0:0:
64,192,5653,1,0,0:0:0:0:
448,192,5653,1,0,0:0:0:0:
192,192,5884,1,0,0:0:0:0:
320,192,6114,1,0,0:0:0:0:
448,192,6345,1,0,0:0:0:0:
64,192,6576,1,0,0:0:0:0:
448,192,6576,1,0,0:0:0:0:
320,192,6922,1,0,0:0:0:0:
192,192,7268,1,0,0:0:0:0:
64,192,7499,1,0,0:0:0:0:
448,192,7499,1,0,0:0:0:0:
192,192,7730,1,0,0:0:0:0:
64,192,7961,1,0,0:0:0:0:
320,192,7961,1,0,0:0:0:0:
448,192,8191,1,0,0:0:0:0:
64,192,8422,1,2,0:0:0:0:
320,192,8422,1,0,0:0:0:0:
448,192,8768,1,0,0:0:0:0:
192,192,8884,1,2,0:0:0:0:
320,192,9114,1,0,0:0:0:0:
64,192,9345,128,2,9807:0:0:0:0:
192,192,9345,1,0,0:0:0:0:
448,192,9807,1,2,0:0:0:0:
192,192,9807,128,0,10268:0:0:0:0:
448,192,10268,1,2,0:0:0:0:
64,192,10268,1,0,0:0:0:0:
320,192,10614,1,0,0:0:0:0:
64,192,10730,1,2,0:0:0:0:
192,192,10961,1,0,0:0:0:0:
448,192,11191,1,2,0:0:0:0:
64,192,11191,1,0,0:0:0:0:
192,192,11422,128,0,11653:0:0:0:0:
64,192,11653,1,2,0:0:0:0:
320,192,11653,128,0,11884:0:0:0:0:
448,192,11884,128,0,13961:0:0:0:0:
64,192,12114,1,2,0:0:0:0:
320,192,12114,1,0,0:0:0:0:
192,192,12461,1,0,0:0:0:0:
64,192,12576,1,2,0:0:0:0:
320,192,12807,1,0,0:0:0:0:
64,192,13038,1,2,0:0:0:0:
192,192,13038,1,0,0:0:0:0:
320,192,13499,1,2,0:0:0:0:
192,192,13499,1,0,0:0:0:0:
64,192,13961,1,0,0:0:0:0:
192,192,14191,128,0,14307:0:0:0:0:
192,192,14422,128,0,14538:0:0:0:0:
192,192,14768,1,0,0:0:0:0:
192,192,14884,128,0,14999:0:0:0:0:
192,192,15230,128,0,15345:0:0:0:0:
448,192,15345,1,0,0:0:0:0:
320,192,15461,1,0,0:0:0:0:
64,192,15576,128,0,15691:0:0:0:0:
192,192,15576,1,0,0:0:0:0:
448,192,15691,1,0,0:0:0:0:
320,192,15807,1,2,0:0:0:0:
64,192,15807,1,4,0:0:0:0:
192,192,15807,1,0,0:0:0:0:
448,192,15922,1,0,0:0:0:0:
320,192,16153,1,0,0:0:0:0:
192,192,16268,1,8,0:0:0:0:
64,192,16268,1,0,0:0:0:0:
320,192,16499,1,0,0:0:0:0:
64,192,16730,1,2,0:0:0:0:
448,192,16730,1,0,0:0:0:0:
320,192,16961,1,0,0:0:0:0:
64,192,17191,1,8,0:0:0:0:
448,192,17191,1,0,0:0:0:0:
192,192,17191,1,0,0:0:0:0:
320,192,17307,1,0,0:0:0:0:
192,192,17422,1,0,0:0:0:0:
320,192,17538,1,0,0:0:0:0:
448,192,17653,1,2,0:0:0:0:
64,192,17653,1,0,0:0:0:0:
192,192,17768,1,0,0:0:0:0:
320,192,17999,1,0,0:0:0:0:
64,192,18114,1,8,0:0:0:0:
192,192,18114,1,0,0:0:0:0:
448,192,18345,1,0,0:0:0:0:
64,192,18576,1,2,0:0:0:0:
192,192,18576,1,0,0:0:0:0:
320,192,18807,1,0,0:0:0:0:
448,192,19038,1,8,0:0:0:0:
192,192,19038,1,0,0:0:0:0:
64,192,19038,1,0,0:0:0:0:
320,192,19268,1,0,0:0:0:0:
192,192,19499,1,2,0:0:0:0:
64,192,19499,1,0,0:0:0:0:
320,192,19614,1,0,0:0:0:0:
64,192,19845,1,0,0:0:0:0:
192,192,19961,1,8,0:0:0:0:
320,192,19961,1,0,0:0:0:0:
448,192,20191,1,0,0:0:0:0:
64,192,20422,1,2,0:0:0:0:
320,192,20422,1,0,0:0:0:0:
192,192,20653,1,0,0:0:0:0:
448,192,20884,1,8,0:0:0:0:
64,192,20884,1,0,0:0:0:0:
320,192,20884,1,0,0:0:0:0:
192,192,21114,1,0,0:0:0:0:
448,192,21345,1,2,0:0:0:0:
320,192,21345,1,0,0:0:0:0:
64,192,21576,1,0,0:0:0:0:
192,192,21691,1,0,0:0:0:0:
320,192,21807,1,8,0:0:0:0:
448,192,21807,1,0,0:0:0:0:
192,192,22038,1,0,0:0:0:0:
64,192,22268,1,2,0:0:0:0:
320,192,22268,1,0,0:0:0:0:
192,192,22499,1,0,0:0:0:0:
64,192,22730,1,8,0:0:0:0:
448,192,22730,1,0,0:0:0:0:
192,192,22730,1,0,0:0:0:0:
320,192,22845,1,0,0:0:0:0:
192,192,22961,1,0,0:0:0:0:
320,192,23076,1,0,0:0:0:0:
448,192,23191,1,2,0:0:0:0:
64,192,23191,1,4,0:0:0:0:
192,192,23191,1,0,0:0:0:0:
320,192,23307,1,0,0:0:0:0:
192,192,23538,1,0,0:0:0:0:
64,192,23653,1,8,0:0:0:0:
320,192,23653,1,0,0:0:0:0:
192,192,23884,1,0,0:0:0:0:
320,192,24114,1,2,0:0:0:0:
448,192,24114,1,0,0:0:0:0:
192,192,24345,1,0,0:0:0:0:
64,192,24576,1,8,0:0:0:0:
320,192,24576,1,0,0:0:0:0:
192,192,24576,1,0,0:0:0:0:
448,192,24691,1,0,0:0:0:0:
64,192,24807,1,0,0:0:0:0:
320,192,24922,1,0,0:0:0:0:
192,192,25038,1,2,0:0:0:0:
448,192,25038,1,0,0:0:0:0:
320,192,25153,1,0,0:0:0:0:
192,192,25384,1,0,0:0:0:0:
64,192,25499,1,8,0:0:0:0:
320,192,25499,1,0,0:0:0:0:
192,192,25730,1,0,0:0:0:0:
64,192,25961,1,2,0:0:0:0:
448,192,25961,1,0,0:0:0:0:
192,192,26191,1,0,0:0:0:0:
320,192,26422,1,8,0:0:0:0:
448,192,26422,1,0,0:0:0:0:
64,192,26422,1,0,0:0:0:0:
192,192,26538,1,0,0:0:0:0:
64,192,26653,1,0,0:0:0:0:
192,192,26768,1,0,0:0:0:0:
320,192,26884,1,2,0:0:0:0:
448,192,26884,1,0,0:0:0:0:
192,192,26999,1,0,0:0:0:0:
64,192,27230,1,0,0:0:0:0:
192,192,27345,1,8,0:0:0:0:
448,192,27345,1,0,0:0:0:0:
320,192,27576,1,0,0:0:0:0:
64,192,27807,1,2,0:0:0:0:
192,192,27807,1,0,0:0:0:0:
320,192,28038,1,0,0:0:0:0:
448,192,28268,1,8,0:0:0:0:
192,192,28268,1,0,0:0:0:0:
64,192,28268,1,0,0:0:0:0:
192,192,28499,1,0,0:0:0:0:
448,192,28730,1,2,0:0:0:0:
64,192,28961,1,0,0:0:0:0:
192,192,29076,1,0,0:0:0:0:
320,192,29191,1,8,0:0:0:0:
448,192,29191,1,0,0:0:0:0:
64,192,29191,1,0,0:0:0:0:
192,192,29307,1,0,0:0:0:0:
320,192,29422,1,0,0:0:0:0:
448,192,29538,1,0,0:0:0:0:
192,192,29653,1,2,0:0:0:0:
64,192,29653,1,0,0:0:0:0:
448,192,29768,1,0,0:0:0:0:
320,192,29884,1,0,0:0:0:0:
192,192,29999,1,0,0:0:0:0:
64,192,30114,1,8,0:0:0:0:
320,192,30114,1,0,0:0:0:0:
448,192,30114,1,0,0:0:0:0:
192,192,30345,1,0,0:0:0:0:
64,192,30576,1,2,0:0:0:0:
320,192,30576,1,4,0:0:0:0:
448,192,30807,1,0,0:0:0:0:
192,192,30807,128,0,31038:0:0:0:0:
448,192,31038,1,2,0:0:0:0:
64,192,31038,1,0,0:0:0:0:
320,192,31038,128,0,31268:0:0:0:0:
192,192,31384,128,0,31614:0:0:0:0:
64,192,31499,1,2,0:0:0:0:
448,192,31499,1,0,0:0:0:0:
320,192,31614,1,0,0:0:0:0:
320,192,31845,1,0,0:0:0:0:
192,192,31961,1,2,0:0:0:0:
64,192,31961,128,0,32191:0:0:0:0:
448,192,31961,1,0,0:0:0:0:
320,192,32307,1,0,0:0:0:0:
192,192,32422,1,2,0:0:0:0:
64,192,32422,1,0,0:0:0:0:
320,192,32538,1,0,0:0:0:0:
448,192,32653,1,0,0:0:0:0:
320,192,32768,1,0,0:0:0:0:
64,192,32884,1,2,0:0:0:0:
192,192,32884,1,0,0:0:0:0:
448,192,32884,128,0,33114:0:0:0:0:
320,192,33114,1,0,0:0:0:0:
192,192,33230,1,0,0:0:0:0:
64,192,33345,1,2,0:0:0:0:
320,192,33345,1,0,0:0:0:0:
448,192,33461,1,0,0:0:0:0:
192,192,33576,1,0,0:0:0:0:
320,192,33691,1,0,0:0:0:0:
64,192,33807,1,2,0:0:0:0:
192,192,33807,1,0,0:0:0:0:
448,192,33807,128,0,34038:0:0:0:0:
64,192,34038,1,0,0:0:0:0:
192,192,34153,1,0,0:0:0:0:
448,192,34268,1,2,0:0:0:0:
320,192,34268,1,4,0:0:0:0:
64,192,34384,1,0,0:0:0:0:
320,192,34499,128,0,34730:0:0:0:0:
64,192,34730,1,2,0:0:0:0:
192,192,34730,1,0,0:0:0:0:
448,192,34730,128,0,34961:0:0:0:0:
320,192,35076,128,0,35307:0:0:0:0:
192,192,35191,1,2,0:0:0:0:
64,192,35191,1,0,0:0:0:0:
448,192,35307,1,0,0:0:0:0:
320,192,35538,1,0,0:0:0:0:
192,192,35653,1,2,0:0:0:0:
64,192,35653,1,0,0:0:0:0:
448,192,35653,128,0,35884:0:0:0:0:
64,192,35999,1,0,0:0:0:0:
448,192,36114,1,2,0:0:0:0:
192,192,36114,1,0,0:0:0:0:
64,192,36230,1,0,0:0:0:0:
192,192,36345,128,0,36576:0:0:0:0:
64,192,36576,1,2,0:0:0:0:
448,192,36576,1,0,0:0:0:0:
320,192,36576,128,0,36807:0:0:0:0:
192,192,36807,1,0,0:0:0:0:
448,192,36922,128,0,37153:0:0:0:0:
192,192,37038,1,2,0:0:0:0:
64,192,37038,1,0,0:0:0:0:
320,192,37153,1,0,0:0:0:0:
192,192,37384,1,0,0:0:0:0:
64,192,37499,1,2,0:0:0:0:
320,192,37499,1,0,0:0:0:0:
192,192,37730,1,0,0:0:0:0:
320,192,37845,1,0,0:0:0:0:
448,192,37961,1,2,0:0:0:0:
192,192,37961,1,4,0:0:0:0:
64,192,37961,1,0,0:0:0:0:
320,192,38191,128,0,38422:0:0:0:0:
192,192,38422,1,8,0:0:0:0:
64,192,38422,1,0,0:0:0:0:
448,192,38422,128,0,38653:0:0:0:0:
192,192,38768,1,0,0:0:0:0:
64,192,38884,1,2,0:0:0:0:
320,192,38884,1,0,0:0:0:0:
448,192,38999,1,0,0:0:0:0:
192,192,39230,1,0,0:0:0:0:
64,192,39345,1,8,0:0:0:0:
448,192,39345,1,0,0:0:0:0:
320,192,39345,128,0,39576:0:0:0:0:
64,192,39576,1,0,0:0:0:0:
192,192,39691,1,0,0:0:0:0:
320,192,39807,1,2,0:0:0:0:
448,192,39807,1,0,0:0:0:0:
192,192,40038,128,0,40268:0:0:0:0:
64,192,40268,1,8,0:0:0:0:
448,192,40268,128,0,40499:0:0:0:0:
320,192,40268,1,0,0:0:0:0:
64,192,40499,1,0,0:0:0:0:
320,192,40614,1,0,0:0:0:0:
448,192,40730,1,2,0:0:0:0:
192,192,40730,1,0,0:0:0:0:
64,192,40845,1,0,0:0:0:0:
320,192,40961,1,0,0:0:0:0:
192,192,41076,1,0,0:0:0:0:
448,192,41191,1,8,0:0:0:0:
64,192,41191,128,0,41422:0:0:0:0:
320,192,41191,1,0,0:0:0:0:
192,192,41422,1,0,0:0:0:0:
320,192,41538,1,0,0:0:0:0:
448,192,41653,1,2,0:0:0:0:
192,192,41653,1,4,0:0:0:0:
320,192,41768,1,0,0:0:0:0:
64,192,41884,128,0,42114:0:0:0:0:
192,192,42114,1,8,0:0:0:0:
320,192,42114,1,0,0:0:0:0:
448,192,42114,128,0,42345:0:0:0:0:
64,192,42345,1,0,0:0:0:0:
320,192,42461,128,0,42691:0:0:0:0:
192,192,42576,1,2,0:0:0:0:
448,192,42576,1,0,0:0:0:0:
64,192,42691,1,0,0:0:0:0:
320,192,42922,1,0,0:0:0:0:
64,192,43038,1,8,0:0:0:0:
192,192,43038,1,0,0:0:0:0:
448,192,43038,1,0,0:0:0:0:
192,192,43268,1,0,0:0:0:0:
448,192,43268,128,0,43730:0:0:0:0:
320,192,43499,1,2,0:0:0:0:
64,192,43499,1,0,0:0:0:0:
192,192,43730,128,0,43961:0:0:0:0:
64,192,43961,1,8,0:0:0:0:
448,192,43961,1,0,0:0:0:0:
320,192,43961,128,0,44191:0:0:0:0:
192,192,44191,1,0,0:0:0:0:
320,192,44307,1,0,0:0:0:0:
64,192,44422,1,2,0:0:0:0:
448,192,44422,1,0,0:0:0:0:
64,192,44768,1,2,0:0:0:0:
448,192,44768,1,0,0:0:0:0:
64,192,45114,1,2,0:0:0:0:
448,192,45114,1,0,0:0:0:0:
64,192,45345,1,2,0:0:0:0:
192,192,45345,1,4,0:0:0:0:
320,192,45576,1,0,0:0:0:0:
192,192,45691,1,0,0:0:0:0:
448,192,45807,1,8,0:0:0:0:
64,192,45807,128,0,46038:0:0:0:0:
320,192,45807,1,0,0:0:0:0:
64,192,46268,1,2,0:0:0:0:
448,192,46268,1,0,0:0:0:0:
192,192,46268,128,0,46499:0:0:0:0:
320,192,46614,1,0,0:0:0:0:
64,192,46730,1,8,0:0:0:0:
192,192,46730,1,0,0:0:0:0:
448,192,46730,1,0,0:0:0:0:
192,192,46961,128,0,47422:0:0:0:0:
448,192,47191,1,2,0:0:0:0:
64,192,47191,1,0,0:0:0:0:
448,192,47422,128,0,47653:0:0:0:0:
192,192,47653,1,8,0:0:0:0:
320,192,47653,1,0,0:0:0:0:
64,192,47653,128,0,47884:0:0:0:0:
192,192,47884,1,0,0:0:0:0:
320,192,47999,1,0,0:0:0:0:
64,192,48114,1,2,0:0:0:0:
448,192,48114,128,0,48345:0:0:0:0:
192,192,48345,1,0,0:0:0:0:
320,192,48461,1,0,0:0:0:0:
448,192,48576,1,8,0:0:0:0:
64,192,48576,1,0,0:0:0:0:
320,192,48691,1,0,0:0:0:0:
192,192,48807,128,0,49038:0:0:0:0:
320,192,49038,1,2,0:0:0:0:
448,192,49038,1,0,0:0:0:0:
64,192,49268,128,0,49499:0:0:0:0:
192,192,49499,1,8,0:0:0:0:
448,192,49499,128,0,49730:0:0:0:0:
320,192,49730,1,0,0:0:0:0:
448,192,49961,1,2,0:0:0:0:
192,192,49961,1,0,0:0:0:0:
64,192,49961,128,0,50191:0:0:0:0:
192,192,50191,1,0,0:0:0:0:
320,192,50307,1,0,0:0:0:0:
448,192,50422,1,8,0:0:0:0:
64,192,50422,1,0,0:0:0:0:
64,192,50653,128,0,50884:0:0:0:0:
192,192,50884,1,2,0:0:0:0:
448,192,50884,1,0,0:0:0:0:
320,192,50999,1,0,0:0:0:0:
448,192,51114,128,0,51345:0:0:0:0:
192,192,51345,1,8,0:0:0:0:
320,192,51345,1,0,0:0:0:0:
64,192,51345,128,0,51576:0:0:0:0:
192,192,51576,1,0,0:0:0:0:
320,192,51691,1,0,0:0:0:0:
448,192,51807,1,2,0:0:0:0:
64,192,51807,128,0,52038:0:0:0:0:
192,192,52038,1,0,0:0:0:0:
64,192,52268,1,8,0:0:0:0:
320,192,52268,1,0,0:0:0:0:
448,192,52268,1,0,0:0:0:0:
320,192,52499,1,0,0:0:0:0:
448,192,52614,1,0,0:0:0:0:
64,192,52730,1,2,0:0:0:0:
192,192,52730,1,4,0:0:0:0:
320,192,52961,128,0,53191:0:0:0:0:
192,192,53191,1,8,0:0:0:0:
448,192,53191,1,0,0:0:0:0:
64,192,53191,128,0,53422:0:0:0:0:
64,192,53653,128,2,53884:0:0:0:0:
192,192,53653,1,0,0:0:0:0:
192,192,53999,128,0,54230:0:0:0:0:
448,192,54114,1,8,0:0:0:0:
320,192,54114,1,0,0:0:0:0:
64,192,54345,1,0,0:0:0:0:
320,192,54461,1,0,0:0:0:0:
192,192,54576,1,2,0:0:0:0:
64,192,54576,1,0,0:0:0:0:
448,192,54807,128,0,55038:0:0:0:0:
192,192,55038,128,8,55268:0:0:0:0:
320,192,55038,1,0,0:0:0:0:
64,192,55038,1,0,0:0:0:0:
448,192,55268,1,0,0:0:0:0:
320,192,55384,1,0,0:0:0:0:
192,192,55499,1,2,0:0:0:0:
64,192,55499,128,0,55730:0:0:0:0:
192,192,55845,1,0,0:0:0:0:
448,192,55961,1,8,0:0:0:0:
320,192,55961,1,0,0:0:0:0:
64,192,55961,1,0,0:0:0:0:
64,192,56191,1,0,0:0:0:0:
192,192,56307,1,0,0:0:0:0:
320,192,56422,1,2,0:0:0:0:
448,192,56422,1,0,0:0:0:0:
64,192,56653,128,0,56884:0:0:0:0:
192,192,56884,128,8,57114:0:0:0:0:
448,192,56884,1,0,0:0:0:0:
320,192,56884,1,0,0:0:0:0:
64,192,57114,1,0,0:0:0:0:
64,192,57345,1,2,0:0:0:0:
320,192,57345,128,0,57576:0:0:0:0:
448,192,57691,128,0,57922:0:0:0:0:
64,192,57807,1,8,0:0:0:0:
192,192,57807,1,0,0:0:0:0:
320,192,58038,128,0,58268:0:0:0:0:
448,192,58268,1,0,0:0:0:0:
64,192,58268,1,2,0:0:0:0:
320,192,58384,1,0,0:0:0:0:
192,192,58499,128,0,58730:0:0:0:0:
320,192,58730,128,8,58961:0:0:0:0:
448,192,58730,1,0,0:0:0:0:
64,192,58730,1,0,0:0:0:0:
192,192,58961,1,0,0:0:0:0:
64,192,59076,1,0,0:0:0:0:
192,192,59191,1,2,0:0:0:0:
448,192,59191,1,0,0:0:0:0:
192,192,59422,1,0,0:0:0:0:
320,192,59538,1,0,0:0:0:0:
64,192,59653,1,8,0:0:0:0:
448,192,59653,1,0,0:0:0:0:
192,192,59768,1,2,0:0:0:0:
320,192,59768,1,0,0:0:0:0:
64,192,59884,1,2,0:0:0:0:
448,192,59884,1,0,0:0:0:0:
320,192,59999,1,2,0:0:0:0:
192,192,59999,1,0,0:0:0:0:
64,192,60114,1,2,0:0:0:0:
448,192,60114,1,4,0:0:0:0:
320,192,60345,1,0,0:0:0:0:
448,192,60461,1,0,0:0:0:0:
64,192,60576,1,2,0:0:0:0:
320,192,60691,1,0,0:0:0:0:
448,192,60807,1,0,0:0:0:0:
320,192,61038,1,2,0:0:0:0:
64,192,61153,1,0,0:0:0:0:
192,192,61268,1,0,0:0:0:0:
64,192,61384,1,0,0:0:0:0:
320,192,61499,1,8,0:0:0:0:
448,192,61499,1,0,0:0:0:0:
192,192,61614,1,0,0:0:0:0:
64,192,61730,1,0,0:0:0:0:
192,192,61845,1,0,0:0:0:0:
320,192,61961,1,2,0:0:0:0:
64,192,61961,1,0,0:0:0:0:
192,192,62191,1,0,0:0:0:0:
64,192,62191,1,0,0:0:0:0:
448,192,62307,1,0,0:0:0:0:
320,192,62307,1,0,0:0:0:0:
64,192,62422,1,2,0:0:0:0:
192,192,62538,1,0,0:0:0:0:
320,192,62538,1,0,0:0:0:0:
64,192,62653,1,0,0:0:0:0:
448,192,62653,1,0,0:0:0:0:
64,192,62884,1,2,0:0:0:0:
192,192,62999,1,0,0:0:0:0:
320,192,63114,1,0,0:0:0:0:
64,192,63230,1,0,0:0:0:0:
192,192,63345,1,8,0:0:0:0:
448,192,63345,1,0,0:0:0:0:
320,192,63461,1,0,0:0:0:0:
192,192,63576,1,0,0:0:0:0:
64,192,63691,1,0,0:0:0:0:
320,192,63691,1,0,0:0:0:0:
192,192,63807,1,2,0:0:0:0:
448,192,63807,1,0,0:0:0:0:
448,192,64038,1,0,0:0:0:0:
64,192,64268,1,8,0:0:0:0:
320,192,64268,1,0,0:0:0:0:
64,192,64499,1,0,0:0:0:0:
192,192,64614,1,0,0:0:0:0:
320,192,64730,1,2,0:0:0:0:
448,192,64730,1,0,0:0:0:0:
64,192,64961,1,0,0:0:0:0:
192,192,65191,1,8,0:0:0:0:
448,192,65191,1,0,0:0:0:0:
320,192,65191,128,0,65422:0:0:0:0:
64,192,65538,1,0,0:0:0:0:
448,192,65653,1,2,0:0:0:0:
320,192,65653,1,0,0:0:0:0:
192,192,65768,1,0,0:0:0:0:
320,192,65884,1,0,0:0:0:0:
448,192,65999,1,0,0:0:0:0:
64,192,66114,1,8,0:0:0:0:
320,192,66114,1,0,0:0:0:0:
192,192,66230,1,0,0:0:0:0:
64,192,66345,1,0,0:0:0:0:
192,192,66461,1,0,0:0:0:0:
64,192,66576,1,2,0:0:0:0:
448,192,66576,1,4,0:0:0:0:
320,192,66576,1,0,0:0:0:0:
64,192,66807,1,0,0:0:0:0:
448,192,66807,1,0,0:0:0:0:
192,192,66922,1,0,0:0:0:0:
64,192,67038,1,8,0:0:0:0:
320,192,67038,1,0,0:0:0:0:
448,192,67038,1,0,0:0:0:0:
64,192,67268,1,0,0:0:0:0:
192,192,67268,1,0,0:0:0:0:
320,192,67384,1,0,0:0:0:0:
448,192,67499,1,2,0:0:0:0:
192,192,67499,1,4,0:0:0:0:
64,192,67730,1,0,0:0:0:0:
320,192,67730,1,0,0:0:0:0:
64,192,67961,1,8,0:0:0:0:
192,192,67961,1,0,0:0:0:0:
448,192,67961,1,0,0:0:0:0:
320,192,68191,1,0,0:0:0:0:
192,192,68191,1,0,0:0:0:0:
448,192,68307,128,0,68653:0:0:0:0:
64,192,68422,1,2,0:0:0:0:
192,192,68422,1,0,0:0:0:0:
320,192,68653,128,0,68884:0:0:0:0:
192,192,68884,128,8,69114:0:0:0:0:
64,192,68884,1,0,0:0:0:0:
448,192,68884,1,0,0:0:0:0:
448,192,69114,128,0,69345:0:0:0:0:
64,192,69345,128,2,69576:0:0:0:0:
192,192,69345,1,0,0:0:0:0:
192,192,69576,128,0,69807:0:0:0:0:
64,192,69807,1,8,0:0:0:0:
448,192,69807,1,0,0:0:0:0:
320,192,69807,1,0,0:0:0:0:
192,192,70038,1,0,0:0:0:0:
64,192,70153,1,0,0:0:0:0:
192,192,70268,1,2,0:0:0:0:
448,192,70268,1,0,0:0:0:0:
64,192,70499,1,0,0:0:0:0:
320,192,70614,1,0,0:0:0:0:
192,192,70730,1,8,0:0:0:0:
448,192,70730,1,4,0:0:0:0:
64,192,70730,1,0,0:0:0:0:
64,192,70961,1,0,0:0:0:0:
320,192,70961,1,0,0:0:0:0:
192,192,71076,1,0,0:0:0:0:
64,192,71191,1,2,0:0:0:0:
320,192,71191,1,4,0:0:0:0:
448,192,71191,1,0,0:0:0:0:
192,192,71422,1,0,0:0:0:0:
448,192,71538,1,0,0:0:0:0:
64,192,71653,1,8,0:0:0:0:
320,192,71653,1,0,0:0:0:0:
192,192,71884,1,0,0:0:0:0:
448,192,71884,1,0,0:0:0:0:
64,192,72114,1,2,0:0:0:0:
320,192,72114,1,0,0:0:0:0:
192,192,72345,1,0,0:0:0:0:
320,192,72345,1,0,0:0:0:0:
192,192,72576,1,8,0:0:0:0:
320,192,72576,1,0,0:0:0:0:
448,192,72576,1,0,0:0:0:0:
64,192,72691,1,0,0:0:0:0:
320,192,72807,1,0,0:0:0:0:
192,192,72807,1,0,0:0:0:0:
448,192,72922,1,0,0:0:0:0:
320,192,73038,1,2,0:0:0:0:
64,192,73038,1,0,0:0:0:0:
64,192,73268,1,2,0:0:0:0:
320,192,73268,1,0,0:0:0:0:
192,192,73384,1,2,0:0:0:0:
448,192,73384,1,0,0:0:0:0:
64,192,73614,1,2,0:0:0:0:
320,192,73614,1,0,0:0:0:0:
192,192,73730,1,0,0:0:0:0:
448,192,73730,1,0,0:0:0:0:
320,192,73845,1,0,0:0:0:0:
64,192,73845,1,0,0:0:0:0:
192,192,73961,1,2,0:0:0:0:
448,192,73961,1,0,0:0:0:0:
64,192,74884,1,2,0:0:0:0:
192,192,74884,1,4,0:0:0:0:
448,192,74884,1,0,0:0:0:0:
320,192,75114,1,0,0:0:0:0:
192,192,75230,1,0,0:0:0:0:
64,192,75345,1,8,0:0:0:0:
448,192,75345,1,0,0:0:0:0:
192,192,75576,1,0,0:0:0:0:
320,192,75576,1,0,0:0:0:0:
64,192,75807,1,2,0:0:0:0:
320,192,75807,1,0,0:0:0:0:
448,192,76038,1,0,0:0:0:0:
192,192,76038,1,0,0:0:0:0:
64,192,76268,1,8,0:0:0:0:
320,192,76268,1,0,0:0:0:0:
448,192,76268,1,0,0:0:0:0:
192,192,76499,1,0,0:0:0:0:
320,192,76499,1,0,0:0:0:0:
64,192,76730,1,2,0:0:0:0:
448,192,76730,1,0,0:0:0:0:
320,192,76961,1,0,0:0:0:0:
192,192,76961,1,0,0:0:0:0:
64,192,77191,1,8,0:0:0:0:
320,192,77191,1,0,0:0:0:0:
192,192,77191,1,0,0:0:0:0:
448,192,77307,1,0,0:0:0:0:
64,192,77422,1,0,0:0:0:0:
448,192,77538,1,0,0:0:0:0:
192,192,77653,1,2,0:0:0:0:
320,192,77653,1,0,0:0:0:0:
64,192,77884,1,0,0:0:0:0:
448,192,77884,1,0,0:0:0:0:
320,192,78114,1,8,0:0:0:0:
64,192,78114,1,0,0:0:0:0:
192,192,78114,1,0,0:0:0:0:
192,192,78345,1,0,0:0:0:0:
448,192,78345,1,0,0:0:0:0:
64,192,78576,1,2,0:0:0:0:
320,192,78576,1,0,0:0:0:0:
192,192,78807,1,0,0:0:0:0:
320,192,78922,1,0,0:0:0:0:
448,192,79038,1,8,0:0:0:0:
64,192,79038,1,0,0:0:0:0:
192,192,79038,1,0,0:0:0:0:
320,192,79268,1,0,0:0:0:0:
192,192,79268,1,0,0:0:0:0:
64,192,79499,1,2,0:0:0:0:
320,192,79499,1,0,0:0:0:0:
192,192,79730,1,0,0:0:0:0:
448,192,79730,1,0,0:0:0:0:
448,192,79961,1,8,0:0:0:0:
320,192,79961,1,0,0:0:0:0:
64,192,79961,1,0,0:0:0:0:
192,192,80191,1,0,0:0:0:0:
448,192,80191,1,0,0:0:0:0:
320,192,80422,1,2,0:0:0:0:
64,192,80422,1,0,0:0:0:0:
192,192,80653,1,0,0:0:0:0:
448,192,80768,1,0,0:0:0:0:
320,192,80884,1,8,0:0:0:0:
64,192,80884,1,0,0:0:0:0:
192,192,81114,1,0,0:0:0:0:
320,192,81114,1,0,0:0:0:0:
64,192,81345,1,2,0:0:0:0:
320,192,81345,1,0,0:0:0:0:
192,192,81461,1,0,0:0:0:0:
448,192,81576,1,0,0:0:0:0:
64,192,81807,1,8,0:0:0:0:
192,192,81807,1,0,0:0:0:0:
320,192,81807,1,0,0:0:0:0:
192,192,82038,1,0,0:0:0:0:
448,192,82038,1,0,0:0:0:0:
320,192,82268,1,2,0:0:0:0:
448,192,82268,1,4,0:0:0:0:
64,192,82499,1,0,0:0:0:0:
192,192,82614,1,0,0:0:0:0:
64,192,82730,1,8,0:0:0:0:
320,192,82730,1,0,0:0:0:0:
448,192,82730,1,0,0:0:0:0:
192,192,82961,1,0,0:0:0:0:
320,192,82961,1,0,0:0:0:0:
64,192,83191,1,2,0:0:0:0:
320,192,83191,1,0,0:0:0:0:
192,192,83422,1,0,0:0:0:0:
320,192,83422,1,0,0:0:0:0:
192,192,83653,1,8,0:0:0:0:
448,192,83653,1,0,0:0:0:0:
64,192,83653,1,0,0:0:0:0:
320,192,83884,1,0,0:0:0:0:
192,192,83884,1,0,0:0:0:0:
320,192,84114,1,2,0:0:0:0:
448,192,84114,1,0,0:0:0:0:
64,192,84345,1,0,0:0:0:0:
320,192,84461,1,0,0:0:0:0:
192,192,84576,1,8,0:0:0:0:
448,192,84576,1,0,0:0:0:0:
320,192,84807,1,0,0:0:0:0:
192,192,84807,1,0,0:0:0:0:
192,192,85038,1,2,0:0:0:0:
64,192,85038,1,0,0:0:0:0:
320,192,85268,1,0,0:0:0:0:
64,192,85499,1,8,0:0:0:0:
320,192,85499,1,0,0:0:0:0:
448,192,85499,1,0,0:0:0:0:
192,192,85730,1,0,0:0:0:0:
64,192,85961,1,2,0:0:0:0:
320,192,85961,1,0,0:0:0:0:
192,192,86191,1,0,0:0:0:0:
320,192,86307,1,0,0:0:0:0:
64,192,86422,1,8,0:0:0:0:
192,192,86422,1,0,0:0:0:0:
448,192,86422,1,0,0:0:0:0:
320,192,86653,1,0,0:0:0:0:
192,192,86653,1,0,0:0:0:0:
64,192,86884,1,2,0:0:0:0:
320,192,86884,1,0,0:0:0:0:
192,192,87114,1,0,0:0:0:0:
320,192,87345,1,8,0:0:0:0:
448,192,87345,1,0,0:0:0:0:
64,192,87345,1,0,0:0:0:0:
192,192,87576,1,0,0:0:0:0:
64,192,87807,1,2,0:0:0:0:
320,192,87807,1,0,0:0:0:0:
192,192,88038,1,0,0:0:0:0:
320,192,88038,1,0,0:0:0:0:
64,192,88268,1,8,0:0:0:0:
320,192,88268,1,4,0:0:0:0:
448,192,88268,1,0,0:0:0:0:
448,192,88499,1,0,0:0:0:0:
192,192,88499,1,0,0:0:0:0:
64,192,88730,1,2,0:0:0:0:
448,192,88730,1,0,0:0:0:0:
320,192,88730,1,0,0:0:0:0:
192,192,88961,1,0,0:0:0:0:
448,192,88961,1,0,0:0:0:0:
64,192,89191,1,8,0:0:0:0:
320,192,89191,1,0,0:0:0:0:
448,192,89191,1,0,0:0:0:0:
320,192,89422,1,0,0:0:0:0:
448,192,89422,1,0,0:0:0:0:
192,192,89538,1,0,0:0:0:0:
64,192,89653,1,4,0:0:0:0:
320,192,89653,1,2,0:0:0:0:
448,192,89653,1,0,0:0:0:0:
192,192,89884,1,0,0:0:0:0:
320,192,89999,1,0,0:0:0:0:
64,192,90114,1,8,0:0:0:0:
448,192,90114,1,0,0:0:0:0:
192,192,90114,1,0,0:0:0:0:
192,192,90345,1,0,0:0:0:0:
320,192,90345,1,0,0:0:0:0:
64,192,90576,1,2,0:0:0:0:
192,192,90576,1,0,0:0:0:0:
320,192,90807,1,0,0:0:0:0:
64,192,90807,1,0,0:0:0:0:
192,192,90922,1,0,0:0:0:0:
64,192,91038,1,8,0:0:0:0:
320,192,91038,1,0,0:0:0:0:
448,192,91038,1,0,0:0:0:0:
64,192,91268,1,0,0:0:0:0:
448,192,91268,1,0,0:0:0:0:
64,192,91499,1,2,0:0:0:0:
192,192,91499,1,0,0:0:0:0:
192,192,91730,1,0,0:0:0:0:
448,192,91730,1,0,0:0:0:0:
64,192,91961,1,8,0:0:0:0:
320,192,91961,1,0,0:0:0:0:
448,192,91961,1,0,0:0:0:0:
192,192,92076,1,0,0:0:0:0:
448,192,92191,1,0,0:0:0:0:
192,192,92307,1,0,0:0:0:0:
64,192,92422,1,2,0:0:0:0:
320,192,92422,1,0,0:0:0:0:
192,192,92653,1,0,0:0:0:0:
320,192,92653,1,0,0:0:0:0:
320,192,92884,1,8,0:0:0:0:
448,192,92884,1,0,0:0:0:0:
64,192,92884,1,0,0:0:0:0:
192,192,93114,1,0,0:0:0:0:
320,192,93114,1,0,0:0:0:0:
64,192,93345,1,2,0:0:0:0:
448,192,93345,1,0,0:0:0:0:
64,192,93576,1,0,0:0:0:0:
192,192,93691,1,0,0:0:0:0:
320,192,93807,1,8,0:0:0:0:
448,192,93807,1,0,0:0:0:0:
64,192,93807,1,0,0:0:0:0:
192,192,94038,1,0,0:0:0:0:
320,192,94038,1,0,0:0:0:0:
64,192,94268,1,2,0:0:0:0:
192,192,94268,1,0,0:0:0:0:
192,192,94499,1,0,0:0:0:0:
320,192,94499,1,0,0:0:0:0:
320,192,94730,1,8,0:0:0:0:
448,192,94730,1,0,0:0:0:0:
64,192,94730,1,0,0:0:0:0:
192,192,94961,1,0,0:0:0:0:
448,192,94961,1,0,0:0:0:0:
64,192,95191,1,2,0:0:0:0:
320,192,95191,1,0,0:0:0:0:
192,192,95422,1,0,0:0:0:0:
448,192,95422,1,0,0:0:0:0:
320,192,95653,1,8,0:0:0:0:
448,192,95653,1,0,0:0:0:0:
64,192,95653,1,0,0:0:0:0:
192,192,95768,1,0,0:0:0:0:
448,192,95884,1,0,0:0:0:0:
192,192,95999,1,0,0:0:0:0:
64,192,96114,1,2,0:0:0:0:
320,192,96114,1,0,0:0:0:0:
192,192,96345,1,0,0:0:0:0:
320,192,96345,1,0,0:0:0:0:
192,192,96576,1,8,0:0:0:0:
448,192,96576,1,0,0:0:0:0:
64,192,96576,1,0,0:0:0:0:
320,192,96807,1,0,0:0:0:0:
192,192,96807,1,0,0:0:0:0:
64,192,97038,1,2,0:0:0:0:
192,192,97038,1,4,0:0:0:0:
448,192,97038,1,0,0:0:0:0:
320,192,97268,1,0,0:0:0:0:
64,192,97499,1,8,0:0:0:0:
448,192,97499,1,0,0:0:0:0:
192,192,97499,1,0,0:0:0:0:
320,192,97730,1,0,0:0:0:0:
192,192,97730,1,0,0:0:0:0:
448,192,97961,1,2,0:0:0:0:
64,192,97961,1,0,0:0:0:0:
64,192,98191,1,0,0:0:0:0:
192,192,98191,1,0,0:0:0:0:
192,192,98422,1,8,0:0:0:0:
320,192,98422,1,0,0:0:0:0:
448,192,98422,1,0,0:0:0:0:
320,192,98653,1,0,0:0:0:0:
64,192,98653,1,0,0:0:0:0:
64,192,98884,1,2,0:0:0:0:
448,192,98884,1,0,0:0:0:0:
320,192,99114,1,0,0:0:0:0:
192,192,99230,1,0,0:0:0:0:
64,192,99345,1,8,0:0:0:0:
448,192,99345,1,0,0:0:0:0:
320,192,99345,1,0,0:0:0:0:
192,192,99576,1,0,0:0:0:0:
448,192,99576,1,0,0:0:0:0:
64,192,99807,1,2,0:0:0:0:
320,192,99807,1,0,0:0:0:0:
192,192,100038,1,0,0:0:0:0:
64,192,100268,1,8,0:0:0:0:
320,192,100268,1,0,0:0:0:0:
448,192,100268,1,0,0:0:0:0:
192,192,100499,1,0,0:0:0:0:
448,192,100730,1,2,0:0:0:0:
320,192,100730,1,4,0:0:0:0:
64,192,100730,1,0,0:0:0:0:
192,192,100961,1,0,0:0:0:0:
64,192,100961,1,0,0:0:0:0:
320,192,101076,1,0,0:0:0:0:
448,192,101191,1,8,0:0:0:0:
192,192,101191,1,0,0:0:0:0:
64,192,101191,1,0,0:0:0:0:
64,192,101422,1,0,0:0:0:0:
320,192,101538,1,2,0:0:0:0:
448,192,101538,1,0,0:0:0:0:
192,192,101884,1,2,0:0:0:0:
448,192,101884,1,0,0:0:0:0:
64,192,102114,1,0,0:0:0:0:
448,192,102114,1,0,0:0:0:0:
320,192,102230,1,0,0:0:0:0:
192,192,102345,1,0,0:0:0:0:
320,192,102461,1,0,0:0:0:0:
448,192,102576,1,2,0:0:0:0:
64,192,102576,1,4,0:0:0:0:
192,192,102691,1,0,0:0:0:0:
64,192,102922,1,0,0:0:0:0:
192,192,103038,1,8,0:0:0:0:
448,192,103038,1,0,0:0:0:0:
320,192,103268,1,0,0:0:0:0:
64,192,103499,1,2,0:0:0:0:
192,192,103499,1,0,0:0:0:0:
320,192,103730,1,0,0:0:0:0:
64,192,103961,1,8,0:0:0:0:
192,192,103961,1,0,0:0:0:0:
448,192,103961,1,0,0:0:0:0:
320,192,104076,1,0,0:0:0:0:
192,192,104191,1,0,0:0:0:0:
320,192,104307,1,0,0:0:0:0:
448,192,104422,1,2,0:0:0:0:
64,192,104422,1,0,0:0:0:0:
192,192,104538,1,0,0:0:0:0:
320,192,104768,1,0,0:0:0:0:
448,192,104884,1,8,0:0:0:0:
64,192,104884,1,0,0:0:0:0:
320,192,105114,1,0,0:0:0:0:
192,192,105345,1,2,0:0:0:0:
64,192,105345,1,0,0:0:0:0:
320,192,105576,1,0,0:0:0:0:
64,192,105807,1,8,0:0:0:0:
448,192,105807,1,0,0:0:0:0:
192,192,105807,1,0,0:0:0:0:
320,192,106038,1,0,0:0:0:0:
192,192,106268,1,2,0:0:0:0:
64,192,106268,1,0,0:0:0:0:
448,192,106384,1,0,0:0:0:0:
192,192,106614,1,0,0:0:0:0:
64,192,106730,1,8,0:0:0:0:
320,192,106730,1,0,0:0:0:0:
192,192,106961,1,0,0:0:0:0:
64,192,107191,1,2,0:0:0:0:
320,192,107191,1,0,0:0:0:0:
192,192,107422,1,0,0:0:0:0:
320,192,107653,1,8,0:0:0:0:
64,192,107653,1,0,0:0:0:0:
448,192,107653,1,0,0:0:0:0:
192,192,107884,1,0,0:0:0:0:
64,192,108114,1,2,0:0:0:0:
320,192,108114,1,0,0:0:0:0:
192,192,108345,1,0,0:0:0:0:
320,192,108461,1,0,0:0:0:0:
448,192,108576,1,8,0:0:0:0:
64,192,108576,1,0,0:0:0:0:
320,192,108807,1,0,0:0:0:0:
192,192,109038,1,2,0:0:0:0:
64,192,109038,1,0,0:0:0:0:
320,192,109268,1,0,0:0:0:0:
64,192,109499,1,8,0:0:0:0:
448,192,109499,1,0,0:0:0:0:
320,192,109499,1,0,0:0:0:0:
192,192,109614,1,0,0:0:0:0:
320,192,109730,1,0,0:0:0:0:
448,192,109845,1,0,0:0:0:0:
64,192,109961,1,2,0:0:0:0:
320,192,109961,1,4,0:0:0:0:
192,192,110076,1,0,0:0:0:0:
64,192,110307,1,0,0:0:0:0:
192,192,110422,1,8,0:0:0:0:
448,192,110422,1,0,0:0:0:0:
320,192,110653,1,0,0:0:0:0:
448,192,110884,1,2,0:0:0:0:
192,192,110884,1,0,0:0:0:0:
64,192,111114,1,0,0:0:0:0:
192,192,111345,1,8,0:0:0:0:
64,192,111345,1,0,0:0:0:0:
448,192,111345,1,0,0:0:0:0:
320,192,111461,1,0,0:0:0:0:
192,192,111576,1,0,0:0:0:0:
64,192,111691,1,0,0:0:0:0:
192,192,111807,1,2,0:0:0:0:
448,192,111807,1,0,0:0:0:0:
320,192,111922,1,0,0:0:0:0:
192,192,112153,1,0,0:0:0:0:
64,192,112268,1,8,0:0:0:0:
320,192,112268,1,0,0:0:0:0:
192,192,112499,1,0,0:0:0:0:
320,192,112730,1,2,0:0:0:0:
448,192,112730,1,0,0:0:0:0:
192,192,112961,1,0,0:0:0:0:
64,192,113191,1,8,0:0:0:0:
320,192,113191,1,0,0:0:0:0:
448,192,113191,1,0,0:0:0:0:
192,192,113307,1,0,0:0:0:0:
448,192,113422,1,0,0:0:0:0:
64,192,113538,1,0,0:0:0:0:
192,192,113653,1,2,0:0:0:0:
320,192,113653,1,0,0:0:0:0:
448,192,113768,1,0,0:0:0:0:
320,192,113999,1,0,0:0:0:0:
192,192,114114,1,8,0:0:0:0:
64,192,114114,1,0,0:0:0:0:
320,192,114345,1,0,0:0:0:0:
64,192,114576,1,2,0:0:0:0:
448,192,114576,1,0,0:0:0:0:
192,192,114807,1,0,0:0:0:0:
320,192,115038,1,8,0:0:0:0:
448,192,115038,1,0,0:0:0:0:
64,192,115038,1,0,0:0:0:0:
192,192,115268,1,0,0:0:0:0:
64,192,115499,1,2,0:0:0:0:
448,192,115499,1,4,0:0:0:0:
320,192,115730,1,0,0:0:0:0:
192,192,115845,1,0,0:0:0:0:
64,192,115961,1,8,0:0:0:0:
448,192,115961,1,0,0:0:0:0:
320,192,115961,1,0,0:0:0:0:
192,192,116076,1,0,0:0:0:0:
320,192,116191,1,0,0:0:0:0:
448,192,116307,1,0,0:0:0:0:
192,192,116422,1,2,0:0:0:0:
64,192,116422,1,0,0:0:0:0:
448,192,116538,1,0,0:0:0:0:
320,192,116653,1,0,0:0:0:0:
192,192,116768,1,0,0:0:0:0:
448,192,116884,1,8,0:0:0:0:
320,192,116884,1,0,0:0:0:0:
64,192,116884,1,0,0:0:0:0:
192,192,117114,1,0,0:0:0:0:
448,192,117345,1,2,0:0:0:0:
64,192,117345,1,4,0:0:0:0:
448,192,117691,1,0,0:0:0:0:
192,192,117807,1,8,0:0:0:0:
64,192,117807,1,0,0:0:0:0:
320,192,118038,1,0,0:0:0:0:
64,192,118268,1,2,0:0:0:0:
192,192,118268,1,0,0:0:0:0:
320,192,118614,1,0,0:0:0:0:
64,192,118730,1,8,0:0:0:0:
192,192,118730,1,0,0:0:0:0:
448,192,118961,1,0,0:0:0:0:
64,192,119191,1,2,0:0:0:0:
320,192,119653,1,8,0:0:0:0:
192,192,119653,1,0,0:0:0:0:
448,192,119884,1,0,0:0:0:0:
64,192,120114,1,2,0:0:0:0:
320,192,120114,1,0,0:0:0:0:
192,192,120345,1,0,0:0:0:0:
192,192,120576,1,8,0:0:0:0:
448,192,120576,1,0,0:0:0:0:
64,192,120576,1,0,0:0:0:0:
320,192,120807,1,0,0:0:0:0:
192,192,121038,1,2,0:0:0:0:
64,192,121038,1,0,0:0:0:0:
320,192,121384,1,0,0:0:0:0:
448,192,121499,1,8,0:0:0:0:
64,192,121499,1,0,0:0:0:0:
320,192,121730,1,0,0:0:0:0:
192,192,121961,1,2,0:0:0:0:
64,192,121961,1,0,0:0:0:0:
320,192,122307,1,0,0:0:0:0:
64,192,122422,1,8,0:0:0:0:
192,192,122422,1,0,0:0:0:0:
448,192,122653,128,0,123345:0:0:0:0:
64,192,122884,1,2,0:0:0:0:
320,192,123345,1,8,0:0:0:0:
192,192,123345,1,0,0:0:0:0:
64,192,123461,1,0,0:0:0:0:
192,192,123576,1,0,0:0:0:0:
320,192,123691,1,0,0:0:0:0:
448,192,123807,1,2,0:0:0:0:
64,192,123807,1,0,0:0:0:0:
320,192,123922,1,0,0:0:0:0:
192,192,124038,1,0,0:0:0:0:
448,192,124153,1,0,0:0:0:0:
320,192,124268,1,8,0:0:0:0:
64,192,124268,1,0,0:0:0:0:
192,192,124384,1,0,0:0:0:0:
448,192,124499,1,0,0:0:0:0:
192,192,124614,1,0,0:0:0:0:
448,192,124730,1,2,0:0:0:0:
64,192,124730,1,0,0:0:0:0:
320,192,124845,1,0,0:0:0:0:
192,192,124961,1,0,0:0:0:0:
64,192,125076,1,0,0:0:0:0:
192,192,125191,1,8,0:0:0:0:
320,192,125191,1,0,0:0:0:0:
448,192,125307,1,0,0:0:0:0:
320,192,125422,1,0,0:0:0:0:
192,192,125538,1,0,0:0:0:0:
64,192,125653,1,2,0:0:0:0:
320,192,125653,1,0,0:0:0:0:
448,192,125768,1,0,0:0:0:0:
192,192,125884,1,0,0:0:0:0:
448,192,125999,1,0,0:0:0:0:
320,192,126114,1,8,0:0:0:0:
64,192,126114,1,0,0:0:0:0:
448,192,126230,1,0,0:0:0:0:
320,192,126345,1,0,0:0:0:0:
192,192,126461,1,0,0:0:0:0:
64,192,126576,1,2,0:0:0:0:
448,192,126576,1,0,0:0:0:0:
192,192,126691,1,0,0:0:0:0:
320,192,126807,1,0,0:0:0:0:
192,192,126922,1,0,0:0:0:0:
320,192,127038,1,8,0:0:0:0:
64,192,127038,1,0,0:0:0:0:
448,192,127153,1,0,0:0:0:0:
192,192,127268,1,0,0:0:0:0:
448,192,127384,1,0,0:0:0:0:
64,192,127499,1,2,0:0:0:0:
320,192,127499,1,0,0:0:0:0:
192,192,127614,1,0,0:0:0:0:
320,192,127730,1,0,0:0:0:0:
448,192,127845,1,0,0:0:0:0:
192,192,127961,1,8,0:0:0:0:
320,192,127961,1,0,0:0:0:0:
64,192,128076,1,0,0:0:0:0:
192,192,128191,1,0,0:0:0:0:
320,192,128307,1,0,0:0:0:0:
448,192,128422,1,2,0:0:0:0:
64,192,128422,1,0,0:0:0:0:
192,192,128538,1,0,0:0:0:0:
320,192,128653,1,0,0:0:0:0:
192,192,128768,1,0,0:0:0:0:
64,192,128884,1,8,0:0:0:0:
448,192,128884,1,0,0:0:0:0:
192,192,128999,1,0,0:0:0:0:
448,192,129114,1,0,0:0:0:0:
320,192,129230,1,0,0:0:0:0:
192,192,129345,1,2,0:0:0:0:
64,192,129345,1,0,0:0:0:0:
448,192,129461,1,0,0:0:0:0:
192,192,129576,1,0,0:0:0:0:
320,192,129691,1,0,0:0:0:0:
64,192,129807,1,8,0:0:0:0:
192,192,129807,1,0,0:0:0:0:
448,192,129922,1,0,0:0:0:0:
320,192,130038,1,0,0:0:0:0:
192,192,130153,1,0,0:0:0:0:
64,192,130268,1,2,0:0:0:0:
320,192,130268,1,0,0:0:0:0:
192,192,130499,1,0,0:0:0:0:
448,192,130499,1,0,0:0:0:0:
64,192,130730,1,8,0:0:0:0:
320,192,130730,1,0,0:0:0:0:
192,192,130845,1,0,0:0:0:0:
448,192,130845,1,0,0:0:0:0:
320,192,130961,1,0,0:0:0:0:
320,192,131076,1,0,0:0:0:0:
192,192,131191,1,2,0:0:0:0:
448,192,131191,1,0,0:0:0:0:
64,192,131191,1,0,0:0:0:0:
192,192,131422,1,0,0:0:0:0:
64,192,131538,1,0,0:0:0:0:
448,192,131538,1,0,0:0:0:0:
192,192,131653,1,8,0:0:0:0:
320,192,131653,1,0,0:0:0:0:
320,192,131884,1,0,0:0:0:0:
448,192,131884,1,0,0:0:0:0:
192,192,131999,1,0,0:0:0:0:
448,192,132114,1,2,0:0:0:0:
64,192,132114,1,4,0:0:0:0:
320,192,132114,1,0,0:0:0:0:
192,192,132230,1,0,0:0:0:0:
64,192,132345,1,0,0:0:0:0:
192,192,132461,1,0,0:0:0:0:
64,192,132576,1,8,0:0:0:0:
448,192,132576,1,0,0:0:0:0:
320,192,132691,1,0,0:0:0:0:
448,192,132807,1,0,0:0:0:0:
192,192,132922,1,0,0:0:0:0:
448,192,133038,1,2,0:0:0:0:
64,192,133038,1,0,0:0:0:0:
320,192,133153,1,0,0:0:0:0:
192,192,133268,1,0,0:0:0:0:
320,192,133384,1,0,0:0:0:0:
192,192,133441,1,0,0:0:0:0:
64,192,133499,1,8,0:0:0:0:
448,192,133499,1,0,0:0:0:0:
320,192,133614,1,0,0:0:0:0:
192,192,133730,1,0,0:0:0:0:
448,192,133845,1,0,0:0:0:0:
320,192,133961,1,2,0:0:0:0:
64,192,133961,1,0,0:0:0:0:
192,192,134076,1,0,0:0:0:0:
320,192,134191,1,0,0:0:0:0:
448,192,134307,1,0,0:0:0:0:
64,192,134422,1,8,0:0:0:0:
320,192,134422,1,0,0:0:0:0:
192,192,134538,1,0,0:0:0:0:
448,192,134653,1,0,0:0:0:0:
320,192,134768,1,0,0:0:0:0:
64,192,134884,1,2,0:0:0:0:
192,192,134884,1,0,0:0:0:0:
448,192,135114,1,8,0:0:0:0:
64,192,135114,1,0,0:0:0:0:
320,192,135230,1,0,0:0:0:0:
192,192,135345,1,8,0:0:0:0:
64,192,135345,1,0,0:0:0:0:
320,192,135461,1,0,0:0:0:0:
448,192,135576,1,0,0:0:0:0:
320,192,135691,1,0,0:0:0:0:
64,192,135807,1,2,0:0:0:0:
192,192,135807,1,0,0:0:0:0:
320,192,135922,1,0,0:0:0:0:
448,192,136038,1,0,0:0:0:0:
192,192,136153,1,0,0:0:0:0:
64,192,136268,1,8,0:0:0:0:
320,192,136268,1,0,0:0:0:0:
192,192,136384,1,0,0:0:0:0:
320,192,136499,1,0,0:0:0:0:
192,192,136614,1,0,0:0:0:0:
448,192,136730,1,2,0:0:0:0:
64,192,136730,1,0,0:0:0:0:
320,192,136845,1,0,0:0:0:0:
192,192,136961,1,0,0:0:0:0:
448,192,137076,1,0,0:0:0:0:
320,192,137191,1,8,0:0:0:0:
64,192,137191,1,0,0:0:0:0:
448,192,137307,1,0,0:0:0:0:
192,192,137422,1,0,0:0:0:0:
320,192,137538,1,0,0:0:0:0:
192,192,137653,1,2,0:0:0:0:
448,192,137653,1,0,0:0:0:0:
64,192,137768,1,0,0:0:0:0:
192,192,137884,1,0,0:0:0:0:
320,192,137999,1,0,0:0:0:0:
448,192,138114,1,8,0:0:0:0:
64,192,138114,1,0,0:0:0:0:
320,192,138230,1,0,0:0:0:0:
192,192,138345,1,0,0:0:0:0:
320,192,138461,1,0,0:0:0:0:
192,192,138576,1,2,0:0:0:0:
64,192,138576,1,0,0:0:0:0:
448,192,138691,1,0,0:0:0:0:
320,192,138807,1,0,0:0:0:0:
64,192,138807,1,8,0:0:0:0:
192,192,138922,1,0,0:0:0:0:
64,192,139038,1,8,0:0:0:0:
448,192,139038,1,0,0:0:0:0:
192,192,139153,1,0,0:0:0:0:
320,192,139268,1,0,0:0:0:0:
448,192,139384,1,0,0:0:0:0:
64,192,139499,1,2,0:0:0:0:
192,192,139499,1,4,0:0:0:0:
448,192,139614,1,0,0:0:0:0:
192,192,139730,1,0,0:0:0:0:
64,192,139961,1,8,0:0:0:0:
320,192,139961,1,0,0:0:0:0:
448,192,140076,1,0,0:0:0:0:
64,192,140307,1,0,0:0:0:0:
192,192,140422,1,2,0:0:0:0:
448,192,140422,1,0,0:0:0:0:
320,192,140538,1,0,0:0:0:0:
192,192,140653,1,0,0:0:0:0:
448,192,140768,1,0,0:0:0:0:
320,192,140884,1,8,0:0:0:0:
64,192,140884,1,0,0:0:0:0:
192,192,140999,1,0,0:0:0:0:
64,192,141114,1,0,0:0:0:0:
320,192,141230,1,0,0:0:0:0:
192,192,141345,1,2,0:0:0:0:
448,192,141345,1,0,0:0:0:0:
64,192,141461,1,0,0:0:0:0:
192,192,141576,1,0,0:0:0:0:
320,192,141691,1,0,0:0:0:0:
448,192,141807,1,8,0:0:0:0:
192,192,141807,1,0,0:0:0:0:
320,192,141922,1,0,0:0:0:0:
64,192,142038,1,0,0:0:0:0:
320,192,142153,1,0,0:0:0:0:
192,192,142268,1,2,0:0:0:0:
448,192,142268,1,0,0:0:0:0:
64,192,142384,1,0,0:0:0:0:
320,192,142499,1,0,0:0:0:0:
192,192,142614,1,0,0:0:0:0:
448,192,142730,1,8,0:0:0:0:
64,192,142730,1,0,0:0:0:0:
192,192,142845,1,0,0:0:0:0:
320,192,142961,1,0,0:0:0:0:
192,192,143076,1,0,0:0:0:0:
320,192,143191,1,2,0:0:0:0:
448,192,143191,1,4,0:0:0:0:
64,192,143191,1,0,0:0:0:0:
64,192,143422,1,0,0:0:0:0:
192,192,143538,1,0,0:0:0:0:
320,192,143653,1,8,0:0:0:0:
448,192,143653,1,0,0:0:0:0:
192,192,143884,1,0,0:0:0:0:
448,192,143884,1,0,0:0:0:0:
320,192,143999,1,0,0:0:0:0:
192,192,144114,1,2,0:0:0:0:
448,192,144114,1,0,0:0:0:0:
64,192,144114,1,0,0:0:0:0:
320,192,144345,1,0,0:0:0:0:
64,192,144576,1,2,0:0:0:0:
192,192,144576,1,0,0:0:0:0:
448,192,144576,1,0,0:0:0:0:
320,192,144691,1,0,0:0:0:0:
192,192,144807,1,0,0:0:0:0:
320,192,144922,1,0,0:0:0:0:
64,192,145038,1,2,0:0:0:0:
448,192,145038,1,0,0:0:0:0:
320,192,145153,1,0,0:0:0:0:
192,192,145268,1,0,0:0:0:0:
64,192,145384,1,0,0:0:0:0:
64,192,145614,1,0,0:0:0:0:
192,192,145730,1,0,0:0:0:0:
320,192,145845,1,0,0:0:0:0:
192,192,146076,1,0,0:0:0:0:
320,192,146191,1,2,0:0:0:0:
448,192,146307,1,0,0:0:0:0:
192,192,146422,1,8,0:0:0:0:
320,192,146538,1,0,0:0:0:0:
64,192,146653,1,0,0:0:0:0:
192,192,146768,1,0,0:0:0:0:
64,192,146884,1,2,0:0:0:0:
320,192,146999,1,0,0:0:0:0:
192,192,147230,1,0,0:0:0:0:
320,192,147345,1,8,0:0:0:0:
192,192,147576,1,0,0:0:0:0:
64,192,147691,1,2,0:0:0:0:
64,192,147922,1,0,0:0:0:0:
192,192,148038,1,2,0:0:0:0:
320,192,148153,1,0,0:0:0:0:
192,192,148268,1,8,0:0:0:0:
64,192,148384,1,0,0:0:0:0:
192,192,148499,1,0,0:0:0:0:
320,192,148614,1,0,0:0:0:0:
64,192,148730,1,2,0:0:0:0:
192,192,148845,1,0,0:0:0:0:
320,192,148961,1,0,0:0:0:0:
448,192,149076,1,0,0:0:0:0:
64,192,149307,1,0,0:0:0:0:
192,192,149422,1,0,0:0:0:0:
320,192,149538,1,0,0:0:0:0:
192,192,149768,1,0,0:0:0:0:
320,192,149884,1,2,0:0:0:0:
448,192,149999,1,0,0:0:0:0:
448,192,150114,1,8,0:0:0:0:
320,192,150230,1,0,0:0:0:0:
192,192,150345,1,0,0:0:0:0:
64,192,150461,1,0,0:0:0:0:
320,192,150576,1,0,0:0:0:0:
192,192,150691,1,0,0:0:0:0:
192,192,150922,1,0,0:0:0:0:
64,192,151038,1,8,0:0:0:0:
192,192,151268,1,0,0:0:0:0:
320,192,151384,1,2,0:0:0:0:
64,192,151614,1,0,0:0:0:0:
192,192,151730,1,2,0:0:0:0:
320,192,151845,1,0,0:0:0:0:
448,192,151961,1,8,0:0:0:0:
448,192,152076,1,0,0:0:0:0:
320,192,152191,1,2,0:0:0:0:
192,192,152307,1,0,0:0:0:0:
64,192,152422,1,2,0:0:0:0:
320,192,152538,1,0,0:0:0:0:
192,192,152768,1,0,0:0:0:0:
320,192,152884,1,8,0:0:0:0:
320,192,153114,1,0,0:0:0:0:
448,192,153230,1,0,0:0:0:0:
320,192,153461,1,0,0:0:0:0:
448,192,153576,1,0,0:0:0:0:
320,192,153691,1,0,0:0:0:0:
192,192,153807,1,8,0:0:0:0:
448,192,153922,1,0,0:0:0:0:
64,192,154038,1,0,0:0:0:0:
448,192,154153,1,0,0:0:0:0:
320,192,154268,1,2,0:0:0:0:
192,192,154384,1,0,0:0:0:0:
64,192,154614,1,0,0:0:0:0:
320,192,154730,1,8,0:0:0:0:
192,192,154961,1,0,0:0:0:0:
64,192,155076,1,0,0:0:0:0:
64,192,155307,1,0,0:0:0:0:
192,192,155422,1,0,0:0:0:0:
320,192,155538,1,0,0:0:0:0:
448,192,155653,1,8,0:0:0:0:
192,192,155884,1,0,0:0:0:0:
64,192,155999,1,0,0:0:0:0:
192,192,156114,1,2,0:0:0:0:
320,192,156230,1,0,0:0:0:0:
192,192,156345,1,0,0:0:0:0:
448,192,156461,1,0,0:0:0:0:
192,192,156691,1,0,0:0:0:0:
320,192,156807,1,0,0:0:0:0:
448,192,156922,1,0,0:0:0:0:
448,192,157153,1,0,0:0:0:0:
320,192,157268,1,0,0:0:0:0:
192,192,157384,1,0,0:0:0:0:
448,192,157499,1,8,0:0:0:0:
320,192,157614,1,0,0:0:0:0:
192,192,157730,1,0,0:0:0:0:
64,192,157845,1,0,0:0:0:0:
192,192,157961,1,2,0:0:0:0:
448,192,158076,1,0,0:0:0:0:
64,192,158191,1,0,0:0:0:0:
320,192,158307,1,0,0:0:0:0:
192,192,158422,1,8,0:0:0:0:
64,192,158538,1,0,0:0:0:0:
192,192,158653,1,0,0:0:0:0:
320,192,158768,1,0,0:0:0:0:
192,192,158884,1,2,0:0:0:0:
448,192,158999,1,0,0:0:0:0:
192,192,159114,1,0,0:0:0:0:
320,192,159230,1,0,0:0:0:0:
448,192,159345,128,8,159807:0:0:0:0:
64,192,159807,1,2,0:0:0:0:
320,192,159807,1,4,0:0:0:0:
192,192,160038,1,0,0:0:0:0:
64,192,160268,1,8,0:0:0:0:
320,192,160268,1,0,0:0:0:0:
448,192,160268,1,0,0:0:0:0:
192,192,160384,1,0,0:0:0:0:
320,192,160499,1,0,0:0:0:0:
64,192,160614,1,0,0:0:0:0:
192,192,160730,1,2,0:0:0:0:
448,192,160730,1,0,0:0:0:0:
320,192,160961,1,0,0:0:0:0:
64,192,161076,1,0,0:0:0:0:
192,192,161191,1,8,0:0:0:0:
320,192,161191,1,0,0:0:0:0:
448,192,161191,1,0,0:0:0:0:
192,192,161422,1,0,0:0:0:0:
64,192,161653,1,2,0:0:0:0:
320,192,161653,1,0,0:0:0:0:
192,192,161884,1,0,0:0:0:0:
64,192,162114,1,8,0:0:0:0:
448,192,162114,1,0,0:0:0:0:
192,192,162345,1,0,0:0:0:0:
64,192,162576,1,2,0:0:0:0:
320,192,162576,1,0,0:0:0:0:
448,192,162576,1,0,0:0:0:0:
192,192,162807,1,0,0:0:0:0:
64,192,162807,1,0,0:0:0:0:
320,192,162922,1,0,0:0:0:0:
448,192,163038,1,8,0:0:0:0:
64,192,163038,1,0,0:0:0:0:
320,192,163153,1,0,0:0:0:0:
192,192,163268,1,0,0:0:0:0:
448,192,163384,1,0,0:0:0:0:
64,192,163499,1,2,0:0:0:0:
320,192,163499,1,0,0:0:0:0:
192,192,163730,1,0,0:0:0:0:
320,192,163730,1,0,0:0:0:0:
64,192,163961,1,8,0:0:0:0:
320,192,163961,1,0,0:0:0:0:
448,192,163961,1,0,0:0:0:0:
192,192,164191,1,0,0:0:0:0:
448,192,164191,1,0,0:0:0:0:
64,192,164422,1,2,0:0:0:0:
320,192,164422,1,0,0:0:0:0:
192,192,164653,1,0,0:0:0:0:
320,192,164653,1,0,0:0:0:0:
64,192,164884,1,8,0:0:0:0:
448,192,164884,1,0,0:0:0:0:
320,192,164884,1,0,0:0:0:0:
192,192,165114,1,0,0:0:0:0:
448,192,165114,1,0,0:0:0:0:
64,192,165345,1,2,0:0:0:0:
320,192,165345,1,0,0:0:0:0:
192,192,165576,1,0,0:0:0:0:
64,192,165807,1,8,0:0:0:0:
448,192,165807,1,0,0:0:0:0:
320,192,166038,1,0,0:0:0:0:
64,192,166268,1,2,0:0:0:0:
192,192,166268,1,0,0:0:0:0:
192,192,166499,1,0,0:0:0:0:
320,192,166499,1,0,0:0:0:0:
320,192,166730,1,8,0:0:0:0:
448,192,166730,1,0,0:0:0:0:
64,192,166730,1,0,0:0:0:0:
192,192,166961,1,0,0:0:0:0:
448,192,166961,1,0,0:0:0:0:
64,192,167191,1,2,0:0:0:0:
192,192,167191,1,4,0:0:0:0:
448,192,167191,1,0,0:0:0:0:
320,192,167422,1,0,0:0:0:0:
64,192,167653,1,8,0:0:0:0:
192,192,167653,1,0,0:0:0:0:
448,192,167884,1,0,0:0:0:0:
64,192,168114,1,2,0:0:0:0:
320,192,168114,128,0,168576:0:0:0:0:
448,192,168345,1,0,0:0:0:0:
448,192,168576,128,8,169038:0:0:0:0:
64,192,168576,1,0,0:0:0:0:
192,192,168576,1,0,0:0:0:0:
192,192,168807,1,0,0:0:0:0:
64,192,169038,1,2,0:0:0:0:
192,192,169038,128,0,169499:0:0:0:0:
448,192,169268,1,0,0:0:0:0:
448,192,169499,1,8,0:0:0:0:
64,192,169499,1,0,0:0:0:0:
320,192,169730,1,0,0:0:0:0:
448,192,169961,1,2,0:0:0:0:
64,192,169961,1,0,0:0:0:0:
192,192,170191,1,0,0:0:0:0:
320,192,170191,1,0,0:0:0:0:
64,192,170422,1,8,0:0:0:0:
320,192,170422,1,0,0:0:0:0:
448,192,170422,1,0,0:0:0:0:
192,192,170653,1,0,0:0:0:0:
448,192,170653,1,0,0:0:0:0:
320,192,170884,1,2,0:0:0:0:
64,192,170884,1,0,0:0:0:0:
192,192,171114,1,0,0:0:0:0:
320,192,171114,1,0,0:0:0:0:
448,192,171345,1,8,0:0:0:0:
64,192,171345,1,0,0:0:0:0:
320,192,171345,1,0,0:0:0:0:
320,192,171576,1,0,0:0:0:0:
64,192,171576,1,0,0:0:0:0:
192,192,171807,1,2,0:0:0:0:
320,192,171807,1,0,0:0:0:0:
320,192,172038,1,0,0:0:0:0:
448,192,172038,1,0,0:0:0:0:
448,192,172268,1,8,0:0:0:0:
192,192,172268,1,0,0:0:0:0:
64,192,172268,1,0,0:0:0:0:
192,192,172499,1,0,0:0:0:0:
320,192,172499,1,0,0:0:0:0:
64,192,172730,1,2,0:0:0:0:
448,192,172730,1,0,0:0:0:0:
192,192,172961,1,0,0:0:0:0:
320,192,173076,1,0,0:0:0:0:
448,192,173191,1,8,0:0:0:0:
192,192,173191,1,0,0:0:0:0:
64,192,173191,1,0,0:0:0:0:
320,192,173307,1,0,0:0:0:0:
192,192,173422,1,0,0:0:0:0:
64,192,173538,1,0,0:0:0:0:
320,192,173653,1,2,0:0:0:0:
448,192,173653,1,0,0:0:0:0:
64,192,173768,1,0,0:0:0:0:
192,192,173884,1,0,0:0:0:0:
320,192,173999,1,0,0:0:0:0:
448,192,174114,1,8,0:0:0:0:
64,192,174114,1,0,0:0:0:0:
192,192,174114,1,0,0:0:0:0:
320,192,174230,1,0,0:0:0:0:
448,192,174345,1,0,0:0:0:0:
320,192,174461,1,0,0:0:0:0:
192,192,174576,1,2,0:0:0:0:
64,192,174576,1,4,0:0:0:0:
192,192,174807,1,0,0:0:0:0:
448,192,174922,1,0,0:0:0:0:
64,192,175038,1,2,0:0:0:0:
192,192,175038,1,0,0:0:0:0:
320,192,175153,1,0,0:0:0:0:
448,192,175268,1,0,0:0:0:0:
192,192,175499,1,2,0:0:0:0:
320,192,175499,1,0,0:0:0:0:
64,192,175614,1,0,0:0:0:0:
192,192,175730,1,0,0:0:0:0:
320,192,175845,1,0,0:0:0:0:
448,192,175961,1,8,0:0:0:0:
64,192,175961,1,0,0:0:0:0:
192,192,175961,1,0,0:0:0:0:
320,192,176076,1,0,0:0:0:0:
192,192,176191,1,0,0:0:0:0:
64,192,176307,1,0,0:0:0:0:
448,192,176422,1,2,0:0:0:0:
192,192,176422,1,0,0:0:0:0:
64,192,176653,1,0,0:0:0:0:
320,192,176653,1,0,0:0:0:0:
192,192,176768,1,0,0:0:0:0:
448,192,176768,1,0,0:0:0:0:
320,192,176884,1,2,0:0:0:0:
192,192,176999,1,0,0:0:0:0:
64,192,176999,1,0,0:0:0:0:
320,192,177114,1,0,0:0:0:0:
448,192,177114,1,0,0:0:0:0:
448,192,177345,1,2,0:0:0:0:
192,192,177345,1,0,0:0:0:0:
64,192,177461,1,0,0:0:0:0:
192,192,177576,1,0,0:0:0:0:
320,192,177691,1,0,0:0:0:0:
448,192,177807,1,8,0:0:0:0:
64,192,177807,1,0,0:0:0:0:
192,192,177807,1,0,0:0:0:0:
320,192,177922,1,0,0:0:0:0:
192,192,178038,1,0,0:0:0:0:
320,192,178153,1,0,0:0:0:0:
448,192,178153,1,0,0:0:0:0:
192,192,178268,1,2,0:0:0:0:
64,192,178268,1,0,0:0:0:0:
448,192,178499,1,0,0:0:0:0:
320,192,178730,1,8,0:0:0:0:
192,192,178730,1,0,0:0:0:0:
64,192,178730,1,0,0:0:0:0:
192,192,179076,1,0,0:0:0:0:
320,192,179191,1,2,0:0:0:0:
64,192,179191,1,0,0:0:0:0:
192,192,179422,1,0,0:0:0:0:
64,192,179653,1,8,0:0:0:0:
320,192,179653,1,0,0:0:0:0:
448,192,179653,1,0,0:0:0:0:
448,192,179999,1,0,0:0:0:0:
64,192,180114,1,2,0:0:0:0:
192,192,180114,1,0,0:0:0:0:
320,192,180230,1,0,0:0:0:0:
192,192,180345,1,0,0:0:0:0:
448,192,180461,1,0,0:0:0:0:
64,192,180576,1,8,0:0:0:0:
320,192,180576,1,4,0:0:0:0:
192,192,180576,1,0,0:0:0:0:
448,192,180691,1,0,0:0:0:0:
320,192,180807,1,0,0:0:0:0:
64,192,180807,1,0,0:0:0:0:
192,192,180922,1,0,0:0:0:0:
448,192,180922,1,0,0:0:0:0:
320,192,181038,1,2,0:0:0:0:
64,192,181038,1,4,0:0:0:0:
192,192,181268,1,0,0:0:0:0:
448,192,181268,1,0,0:0:0:0:
320,192,181384,1,0,0:0:0:0:
192,192,181499,1,4,0:0:0:0:
64,192,181499,1,8,0:0:0:0:
448,192,181499,1,0,0:0:0:0:
320,192,181730,1,0,0:0:0:0:
64,192,181961,1,4,0:0:0:0:
448,192,181961,1,2,0:0:0:0:
192,192,182191,1,0,0:0:0:0:
64,192,182422,1,8,0:0:0:0:
320,192,182422,1,0,0:0:0:0:
448,192,182422,1,0,0:0:0:0:
192,192,182653,1,0,0:0:0:0:
320,192,182768,1,0,0:0:0:0:
64,192,182884,1,2,0:0:0:0:
448,192,182884,1,0,0:0:0:0:
192,192,183114,1,0,0:0:0:0:
64,192,183345,1,8,0:0:0:0:
320,192,183345,1,0,0:0:0:0:
448,192,183345,1,0,0:0:0:0:
192,192,183576,1,0,0:0:0:0:
448,192,183691,1,0,0:0:0:0:
320,192,183807,1,2,0:0:0:0:
64,192,183807,1,0,0:0:0:0:
192,192,184038,1,0,0:0:0:0:
320,192,184268,1,8,0:0:0:0:
448,192,184268,1,0,0:0:0:0:
64,192,184268,1,0,0:0:0:0:
320,192,184499,1,0,0:0:0:0:
64,192,184730,1,2,0:0:0:0:
448,192,184730,1,0,0:0:0:0:
64,192,184961,1,0,0:0:0:0:
192,192,185076,1,0,0:0:0:0:
64,192,185191,1,8,0:0:0:0:
448,192,185191,1,0,0:0:0:0:
320,192,185191,1,0,0:0:0:0:
192,192,185422,1,0,0:0:0:0:
320,192,185538,1,0,0:0:0:0:
64,192,185653,1,2,0:0:0:0:
448,192,185653,128,0,186114:0:0:0:0:
192,192,185653,1,4,0:0:0:0:
320,192,185884,1,0,0:0:0:0:
64,192,186114,1,8,0:0:0:0:
192,192,186114,1,0,0:0:0:0:
192,192,186345,1,0,0:0:0:0:
320,192,186461,1,0,0:0:0:0:
448,192,186576,1,2,0:0:0:0:
64,192,186576,1,0,0:0:0:0:
192,192,186807,1,0,0:0:0:0:
192,192,187038,1,8,0:0:0:0:
64,192,187038,1,0,0:0:0:0:
448,192,187038,1,0,0:0:0:0:
320,192,187268,1,0,0:0:0:0:
192,192,187499,1,2,0:0:0:0:
64,192,187499,1,4,0:0:0:0:
448,192,187499,128,0,188191:0:0:0:0:
64,192,187961,1,8,0:0:0:0:
320,192,187961,1,0,0:0:0:0:
64,192,188191,128,0,188653:0:0:0:0:
192,192,188422,1,2,0:0:0:0:
320,192,188653,128,0,188884:0:0:0:0:
192,192,188884,128,8,189114:0:0:0:0:
64,192,188884,1,0,0:0:0:0:
448,192,188884,1,0,0:0:0:0:
448,192,189114,128,0,189345:0:0:0:0:
64,192,191191,1,0,0:0:0:0:
320,192,191191,1,0,0:0:0:0:
192,192,191538,1,0,0:0:0:0:
320,192,191884,1,0,0:0:0:0:
64,192,192114,1,0,0:0:0:0:
192,192,192114,1,0,0:0:0:0:
448,192,192345,1,0,0:0:0:0:
192,192,192576,1,0,0:0:0:0:
448,192,192807,1,0,0:0:0:0:
64,192,193038,1,0,0:0:0:0:
192,192,193038,1,0,0:0:0:0:
320,192,193268,1,0,0:0:0:0:
192,192,193499,1,0,0:0:0:0:
448,192,193614,1,0,0:0:0:0:
320,192,193961,1,0,0:0:0:0:
64,192,193961,1,0,0:0:0:0:
192,192,194191,1,0,0:0:0:0:
64,192,194422,1,0,0:0:0:0:
320,192,194653,1,0,0:0:0:0:
64,192,194884,1,0,0:0:0:0:
448,192,194884,1,0,0:0:0:0:
192,192,195230,1,0,0:0:0:0:
448,192,195345,1,0,0:0:0:0:
320,192,195576,1,0,0:0:0:0:
192,192,195807,1,0,0:0:0:0:
64,192,195807,1,0,0:0:0:0:
320,192,196038,1,0,0:0:0:0:
448,192,196268,1,0,0:0:0:0:
192,192,196499,1,0,0:0:0:0:
64,192,196730,1,0,0:0:0:0:
320,192,196730,1,0,0:0:0:0:
448,192,197076,1,0,0:0:0:0:
320,192,197422,1,0,0:0:0:0:
192,192,197653,1,0,0:0:0:0:
64,192,197653,1,0,0:0:0:0:
192,192,198114,1,0,0:0:0:0:
320,192,198345,1,0,0:0:0:0:
448,192,198576,1,2,0:0:0:0:
64,192,198576,1,0,0:0:0:0:
192,192,198807,1,0,0:0:0:0:
320,192,198922,1,0,0:0:0:0:
64,192,199038,1,2,0:0:0:0:
448,192,199038,1,0,0:0:0:0:
320,192,199268,1,0,0:0:0:0:
64,192,199499,1,2,0:0:0:0:
192,192,199499,1,0,0:0:0:0:
320,192,199730,1,0,0:0:0:0:
64,192,199845,1,0,0:0:0:0:
192,192,199961,1,2,0:0:0:0:
448,192,199961,1,0,0:0:0:0:
192,192,200191,1,0,0:0:0:0:
320,192,200191,1,0,0:0:0:0:
64,192,200422,1,2,0:0:0:0:
448,192,200422,1,0,0:0:0:0:
192,192,200653,1,0,0:0:0:0:
320,192,200768,1,0,0:0:0:0:
64,192,200884,1,2,0:0:0:0:
192,192,200884,1,0,0:0:0:0:
320,192,201114,1,0,0:0:0:0:
192,192,201345,1,2,0:0:0:0:
448,192,201345,1,0,0:0:0:0:
64,192,201576,1,0,0:0:0:0:
192,192,201691,1,0,0:0:0:0:
448,192,201807,1,2,0:0:0:0:
320,192,201807,1,0,0:0:0:0:
192,192,202038,1,0,0:0:0:0:
64,192,202268,1,2,0:0:0:0:
320,192,202268,1,0,0:0:0:0:
64,192,202499,1,0,0:0:0:0:
320,192,202614,1,0,0:0:0:0:
448,192,202730,1,2,0:0:0:0:
192,192,202730,1,0,0:0:0:0:
320,192,202961,1,0,0:0:0:0:
192,192,203076,1,0,0:0:0:0:
64,192,203191,1,2,0:0:0:0:
448,192,203191,1,0,0:0:0:0:
192,192,203422,1,0,0:0:0:0:
64,192,203538,1,0,0:0:0:0:
192,192,203653,1,2,0:0:0:0:
320,192,203653,1,0,0:0:0:0:
320,192,203884,1,0,0:0:0:0:
448,192,203884,1,0,0:0:0:0:
64,192,204114,1,0,0:0:0:0:
448,192,204114,128,0,204807:0:0:0:0:
64,192,204807,128,0,205499:0:0:0:0:
320,192,205499,128,0,206422:0:0:0:0:
64,192,205961,1,2,0:0:0:0:
448,192,205961,1,4,0:0:0:0:
192,192,206076,1,0,0:0:0:0:
64,192,206191,1,0,0:0:0:0:
448,192,206307,1,2,0:0:0:0:
192,192,206307,1,4,0:0:0:0:
64,192,206422,1,0,0:0:0:0:
448,192,206538,1,0,0:0:0:0:
320,192,206653,1,2,0:0:0:0:
64,192,206653,1,4,0:0:0:0:
192,192,206768,1,0,0:0:0:0:
64,192,206884,1,2,0:0:0:0:
448,192,206884,1,4,0:0:0:0:
192,192,206999,1,0,0:0:0:0:
320,192,207114,1,0,0:0:0:0:
448,192,207230,1,0,0:0:0:0:
320,192,207345,1,2,0:0:0:0:
64,192,207345,1,4,0:0:0:0:
192,192,207461,1,0,0:0:0:0:
320,192,207576,1,0,0:0:0:0:
448,192,207691,1,0,0:0:0:0:
320,192,207807,1,2,0:0:0:0:
64,192,207807,1,4,0:0:0:0:
192,192,207807,1,0,0:0:0:0:
192,192,208038,1,0,0:0:0:0:
64,192,208268,1,8,0:0:0:0:
448,192,208268,1,0,0:0:0:0:
320,192,208268,1,0,0:0:0:0:
192,192,208499,1,0,0:0:0:0:
320,192,208499,1,0,0:0:0:0:
64,192,208730,1,2,0:0:0:0:
448,192,208730,1,0,0:0:0:0:
64,192,208961,1,0,0:0:0:0:
320,192,208961,1,0,0:0:0:0:
192,192,209076,1,0,0:0:0:0:
320,192,209191,1,8,0:0:0:0:
448,192,209191,1,0,0:0:0:0:
64,192,209191,1,0,0:0:0:0:
192,192,209422,1,0,0:0:0:0:
320,192,209422,1,0,0:0:0:0:
192,192,209653,1,2,0:0:0:0:
448,192,209653,1,0,0:0:0:0:
64,192,209884,1,0,0:0:0:0:
320,192,209884,1,0,0:0:0:0:
192,192,209999,1,0,0:0:0:0:
320,192,210114,1,8,0:0:0:0:
448,192,210114,1,0,0:0:0:0:
64,192,210114,1,0,0:0:0:0:
192,192,210230,1,0,0:0:0:0:
448,192,210345,1,0,0:0:0:0:
64,192,210576,1,2,0:0:0:0:
320,192,210576,1,0,0:0:0:0:
192,192,210807,1,0,0:0:0:0:
320,192,210807,1,0,0:0:0:0:
192,192,211038,1,8,0:0:0:0:
448,192,211038,1,0,0:0:0:0:
64,192,211038,1,0,0:0:0:0:
192,192,211268,1,0,0:0:0:0:
64,192,211499,1,2,0:0:0:0:
320,192,211499,1,0,0:0:0:0:
192,192,211730,1,0,0:0:0:0:
320,192,211845,1,0,0:0:0:0:
64,192,211961,1,8,0:0:0:0:
448,192,211961,1,0,0:0:0:0:
320,192,212191,1,0,0:0:0:0:
192,192,212191,1,0,0:0:0:0:
64,192,212422,1,2,0:0:0:0:
192,192,212422,1,0,0:0:0:0:
192,192,212653,1,0,0:0:0:0:
448,192,212653,1,0,0:0:0:0:
448,192,212884,1,8,0:0:0:0:
320,192,212884,1,0,0:0:0:0:
64,192,212884,1,0,0:0:0:0:
192,192,213114,1,0,0:0:0:0:
448,192,213114,1,0,0:0:0:0:
320,192,213345,1,2,0:0:0:0:
64,192,213345,1,0,0:0:0:0:
192,192,213461,1,0,0:0:0:0:
448,192,213576,1,0,0:0:0:0:
64,192,213691,1,0,0:0:0:0:
192,192,213807,1,8,0:0:0:0:
320,192,213807,1,0,0:0:0:0:
320,192,214038,1,0,0:0:0:0:
64,192,214038,1,0,0:0:0:0:
64,192,214268,1,2,0:0:0:0:
192,192,214268,1,0,0:0:0:0:
448,192,214384,1,0,0:0:0:0:
192,192,214499,1,0,0:0:0:0:
64,192,214730,1,8,0:0:0:0:
320,192,214730,1,0,0:0:0:0:
448,192,214730,1,0,0:0:0:0:
192,192,214961,1,0,0:0:0:0:
320,192,214961,1,0,0:0:0:0:
64,192,215191,1,2,0:0:0:0:
320,192,215191,1,4,0:0:0:0:
192,192,215422,1,0,0:0:0:0:
64,192,215653,1,8,0:0:0:0:
320,192,215653,1,0,0:0:0:0:
448,192,215653,1,0,0:0:0:0:
192,192,215884,1,0,0:0:0:0:
320,192,216114,1,2,0:0:0:0:
64,192,216114,1,0,0:0:0:0:
192,192,216345,1,0,0:0:0:0:
448,192,216345,1,0,0:0:0:0:
320,192,216461,1,0,0:0:0:0:
192,192,216576,1,8,0:0:0:0:
64,192,216576,1,0,0:0:0:0:
448,192,216576,1,0,0:0:0:0:
320,192,216807,1,0,0:0:0:0:
192,192,216807,1,0,0:0:0:0:
64,192,217038,1,2,0:0:0:0:
192,192,217038,1,0,0:0:0:0:
192,192,217268,1,0,0:0:0:0:
448,192,217268,1,0,0:0:0:0:
320,192,217384,1,0,0:0:0:0:
64,192,217499,1,8,0:0:0:0:
448,192,217499,1,0,0:0:0:0:
320,192,217730,1,0,0:0:0:0:
192,192,217730,1,0,0:0:0:0:
64,192,217961,1,2,0:0:0:0:
192,192,217961,1,0,0:0:0:0:
320,192,218191,1,0,0:0:0:0:
64,192,218422,1,8,0:0:0:0:
192,192,218422,1,0,0:0:0:0:
448,192,218422,1,0,0:0:0:0:
320,192,218653,1,0,0:0:0:0:
192,192,218653,1,0,0:0:0:0:
64,192,218884,1,2,0:0:0:0:
320,192,218884,1,0,0:0:0:0:
192,192,219114,1,0,0:0:0:0:
448,192,219230,1,0,0:0:0:0:
320,192,219345,1,8,0:0:0:0:
64,192,219345,1,0,0:0:0:0:
192,192,219576,1,0,0:0:0:0:
448,192,219576,1,0,0:0:0:0:
64,192,219807,1,2,0:0:0:0:
320,192,219807,128,0,220268:0:0:0:0:
192,192,220038,1,0,0:0:0:0:
64,192,220268,1,8,0:0:0:0:
448,192,220268,128,0,220730:0:0:0:0:
192,192,220268,1,0,0:0:0:0:
192,192,220499,1,0,0:0:0:0:
64,192,220730,1,2,0:0:0:0:
320,192,220730,1,0,0:0:0:0:
192,192,220961,1,0,0:0:0:0:
320,192,220961,1,0,0:0:0:0:
320,192,221191,1,8,0:0:0:0:
448,192,221191,1,4,0:0:0:0:
64,192,221191,1,0,0:0:0:0:
192,192,221422,1,0,0:0:0:0:
64,192,221422,1,0,0:0:0:0:
64,192,221653,1,2,0:0:0:0:
320,192,221653,1,0,0:0:0:0:
192,192,221884,1,0,0:0:0:0:
320,192,221884,1,0,0:0:0:0:
320,192,222114,1,8,0:0:0:0:
448,192,222114,1,0,0:0:0:0:
64,192,222114,1,0,0:0:0:0:
192,192,222230,1,0,0:0:0:0:
448,192,222345,1,0,0:0:0:0:
64,192,222345,1,0,0:0:0:0:
192,192,222461,1,0,0:0:0:0:
448,192,222576,1,2,0:0:0:0:
64,192,222576,1,4,0:0:0:0:
320,192,222576,1,0,0:0:0:0:
320,192,222807,1,0,0:0:0:0:
192,192,222922,1,0,0:0:0:0:
64,192,223038,1,8,0:0:0:0:
448,192,223038,1,0,0:0:0:0:
192,192,223268,1,0,0:0:0:0:
320,192,223268,1,0,0:0:0:0:
64,192,223499,1,2,0:0:0:0:
320,192,223499,1,0,0:0:0:0:
192,192,223730,1,0,0:0:0:0:
320,192,223730,1,0,0:0:0:0:
448,192,223961,1,8,0:0:0:0:
320,192,223961,1,0,0:0:0:0:
64,192,223961,1,0,0:0:0:0:
192,192,224191,1,0,0:0:0:0:
448,192,224191,1,0,0:0:0:0:
64,192,224422,1,2,0:0:0:0:
320,192,224422,1,0,0:0:0:0:
192,192,224653,1,0,0:0:0:0:
448,192,224653,1,0,0:0:0:0:
64,192,224884,1,8,0:0:0:0:
320,192,224884,1,0,0:0:0:0:
448,192,224884,1,0,0:0:0:0:
192,192,224999,1,0,0:0:0:0:
448,192,225114,1,0,0:0:0:0:
320,192,225230,1,0,0:0:0:0:
192,192,225345,1,2,0:0:0:0:
64,192,225345,1,0,0:0:0:0:
192,192,225576,1,0,0:0:0:0:
320,192,225576,1,0,0:0:0:0:
320,192,225807,1,8,0:0:0:0:
448,192,225807,1,0,0:0:0:0:
64,192,225807,1,0,0:0:0:0:
192,192,226038,1,0,0:0:0:0:
64,192,226268,1,2,0:0:0:0:
448,192,226268,1,0,0:0:0:0:
320,192,226499,1,0,0:0:0:0:
192,192,226614,1,0,0:0:0:0:
64,192,226730,1,8,0:0:0:0:
320,192,226730,1,0,0:0:0:0:
320,192,226961,1,0,0:0:0:0:
192,192,226961,1,0,0:0:0:0:
448,192,227191,1,2,0:0:0:0:
64,192,227191,1,0,0:0:0:0:
320,192,227422,1,0,0:0:0:0:
192,192,227422,1,0,0:0:0:0:
64,192,227653,1,8,0:0:0:0:
192,192,227653,1,0,0:0:0:0:
448,192,227653,1,0,0:0:0:0:
448,192,227884,1,0,0:0:0:0:
192,192,227884,1,0,0:0:0:0:
64,192,228114,1,2,0:0:0:0:
192,192,228114,1,0,0:0:0:0:
448,192,228230,1,0,0:0:0:0:
320,192,228345,1,0,0:0:0:0:
192,192,228345,1,0,0:0:0:0:
320,192,228576,1,8,0:0:0:0:
64,192,228576,1,0,0:0:0:0:
448,192,228576,1,0,0:0:0:0:
192,192,228691,1,0,0:0:0:0:
448,192,228807,1,0,0:0:0:0:
320,192,228922,1,0,0:0:0:0:
64,192,229038,1,2,0:0:0:0:
192,192,229038,1,0,0:0:0:0:
192,192,229268,1,0,0:0:0:0:
320,192,229268,1,0,0:0:0:0:
448,192,229499,1,8,0:0:0:0:
320,192,229499,1,0,0:0:0:0:
64,192,229499,1,0,0:0:0:0:
192,192,229730,1,0,0:0:0:0:
448,192,229730,1,0,0:0:0:0:
320,192,229961,1,2,0:0:0:0:
64,192,229961,1,4,0:0:0:0:
192,192,230191,1,0,0:0:0:0:
448,192,230307,1,0,0:0:0:0:
320,192,230422,1,8,0:0:0:0:
192,192,230422,1,0,0:0:0:0:
320,192,230653,1,0,0:0:0:0:
64,192,230653,1,0,0:0:0:0:
192,192,230884,1,2,0:0:0:0:
320,192,230884,1,0,0:0:0:0:
64,192,231114,1,0,0:0:0:0:
448,192,231114,1,0,0:0:0:0:
320,192,231345,1,8,0:0:0:0:
192,192,231345,1,0,0:0:0:0:
64,192,231345,1,0,0:0:0:0:
320,192,231576,1,0,0:0:0:0:
448,192,231576,128,0,232038:0:0:0:0:
64,192,231807,1,2,0:0:0:0:
192,192,232038,1,0,0:0:0:0:
320,192,232153,1,0,0:0:0:0:
448,192,232268,1,8,0:0:0:0:
64,192,232268,1,0,0:0:0:0:
192,192,232499,1,0,0:0:0:0:
320,192,232499,1,0,0:0:0:0:
64,192,232730,1,2,0:0:0:0:
320,192,232730,1,0,0:0:0:0:
192,192,232961,1,0,0:0:0:0:
64,192,233191,1,8,0:0:0:0:
320,192,233191,1,0,0:0:0:0:
448,192,233191,1,0,0:0:0:0:
192,192,233422,1,0,0:0:0:0:
320,192,233422,1,0,0:0:0:0:
320,192,233653,1,2,0:0:0:0:
64,192,233653,1,0,0:0:0:0:
192,192,233884,1,0,0:0:0:0:
448,192,233999,1,0,0:0:0:0:
64,192,234114,1,8,0:0:0:0:
320,192,234114,1,0,0:0:0:0:
192,192,234230,1,0,0:0:0:0:
448,192,234345,1,0,0:0:0:0:
320,192,234461,1,0,0:0:0:0:
64,192,234576,1,2,0:0:0:0:
448,192,234576,1,0,0:0:0:0:
192,192,234807,1,0,0:0:0:0:
64,192,234807,1,0,0:0:0:0:
192,192,235038,1,8,0:0:0:0:
320,192,235038,1,0,0:0:0:0:
448,192,235038,1,0,0:0:0:0:
320,192,235268,1,0,0:0:0:0:
64,192,235268,1,0,0:0:0:0:
192,192,235499,1,2,0:0:0:0:
448,192,235499,1,0,0:0:0:0:
320,192,235614,1,0,0:0:0:0:
192,192,235730,1,0,0:0:0:0:
64,192,235845,1,0,0:0:0:0:
192,192,235961,1,8,0:0:0:0:
320,192,235961,1,0,0:0:0:0:
448,192,235961,1,0,0:0:0:0:
64,192,236076,1,0,0:0:0:0:
448,192,236191,1,0,0:0:0:0:
192,192,236307,1,0,0:0:0:0:
320,192,236422,1,2,0:0:0:0:
448,192,236422,1,0,0:0:0:0:
192,192,236538,1,0,0:0:0:0:
64,192,236653,1,0,0:0:0:0:
192,192,236768,1,0,0:0:0:0:
448,192,236884,1,8,0:0:0:0:
320,192,236884,1,0,0:0:0:0:
64,192,236884,128,0,237345:0:0:0:0:
192,192,237114,1,0,0:0:0:0:
320,192,237345,1,2,0:0:0:0:
448,192,237345,1,4,0:0:0:0:
192,192,237345,1,0,0:0:0:0:
192,192,237576,1,0,0:0:0:0:
320,192,237691,1,0,0:0:0:0:
64,192,237807,1,8,0:0:0:0:
448,192,237807,1,0,0:0:0:0:
192,192,237922,1,0,0:0:0:0:
320,192,238038,1,0,0:0:0:0:
64,192,238153,1,0,0:0:0:0:
320,192,238268,1,2,0:0:0:0:
448,192,238268,1,0,0:0:0:0:
192,192,238499,1,0,0:0:0:0:
320,192,238499,1,0,0:0:0:0:
448,192,238730,1,8,0:0:0:0:
64,192,238730,1,0,0:0:0:0:
192,192,238730,1,0,0:0:0:0:
192,192,238961,1,0,0:0:0:0:
320,192,238961,1,0,0:0:0:0:
448,192,239191,1,2,0:0:0:0:
64,192,239191,1,0,0:0:0:0:
192,192,239422,1,0,0:0:0:0:
448,192,239422,1,0,0:0:0:0:
320,192,239538,1,0,0:0:0:0:
192,192,239653,1,8,0:0:0:0:
64,192,239653,1,0,0:0:0:0:
448,192,239653,1,0,0:0:0:0:
320,192,239768,1,0,0:0:0:0:
64,192,239884,1,0,0:0:0:0:
192,192,239999,1,0,0:0:0:0:
64,192,240114,1,2,0:0:0:0:
448,192,240114,1,0,0:0:0:0:
320,192,240230,1,0,0:0:0:0:
192,192,240345,1,0,0:0:0:0:
64,192,240461,1,0,0:0:0:0:
192,192,240576,1,8,0:0:0:0:
320,192,240576,1,0,0:0:0:0:
448,192,240576,1,0,0:0:0:0:
64,192,240691,1,0,0:0:0:0:
192,192,240807,1,0,0:0:0:0:
320,192,240922,1,0,0:0:0:0:
448,192,241038,1,2,0:0:0:0:
64,192,241038,1,4,0:0:0:0:
192,192,241268,1,0,0:0:0:0:
320,192,241384,1,0,0:0:0:0:
64,192,241499,1,8,0:0:0:0:
192,192,241499,1,0,0:0:0:0:
448,192,241614,1,0,0:0:0:0:
192,192,241730,1,0,0:0:0:0:
448,192,241845,1,2,0:0:0:0:
64,192,241845,1,0,0:0:0:0:
320,192,241845,1,0,0:0:0:0:
64,192,242191,1,2,0:0:0:0:
320,192,242191,1,0,0:0:0:0:
448,192,242191,1,0,0:0:0:0:
64,192,242884,1,2,0:0:0:0:
320,192,242884,1,4,0:0:0:0:
448,192,242884,1,0,0:0:0:0:
192,192,242999,1,0,0:0:0:0:
320,192,243230,1,0,0:0:0:0:
64,192,243345,1,8,0:0:0:0:
448,192,243345,1,0,0:0:0:0:
320,192,243576,1,0,0:0:0:0:
192,192,243807,1,2,0:0:0:0:
64,192,243807,1,0,0:0:0:0:
320,192,244038,1,0,0:0:0:0:
64,192,244268,1,8,0:0:0:0:
448,192,244268,1,0,0:0:0:0:
192,192,244268,1,0,0:0:0:0:
320,192,244384,1,0,0:0:0:0:
192,192,244499,1,0,0:0:0:0:
320,192,244614,1,0,0:0:0:0:
448,192,244730,1,2,0:0:0:0:
64,192,244730,1,0,0:0:0:0:
192,192,244845,1,0,0:0:0:0:
320,192,245076,1,0,0:0:0:0:
448,192,245191,1,8,0:0:0:0:
192,192,245191,1,0,0:0:0:0:
320,192,245422,1,0,0:0:0:0:
192,192,245653,1,2,0:0:0:0:
64,192,245653,1,0,0:0:0:0:
320,192,245884,1,0,0:0:0:0:
448,192,246114,1,8,0:0:0:0:
192,192,246114,1,0,0:0:0:0:
64,192,246114,1,0,0:0:0:0:
192,192,246345,1,0,0:0:0:0:
64,192,246576,1,2,0:0:0:0:
320,192,246576,1,0,0:0:0:0:
192,192,246691,1,0,0:0:0:0:
320,192,246922,1,0,0:0:0:0:
448,192,247038,1,8,0:0:0:0:
192,192,247038,1,0,0:0:0:0:
320,192,247268,1,0,0:0:0:0:
192,192,247499,1,2,0:0:0:0:
64,192,247499,1,0,0:0:0:0:
320,192,247730,1,0,0:0:0:0:
448,192,247961,1,8,0:0:0:0:
192,192,247961,1,0,0:0:0:0:
64,192,247961,1,0,0:0:0:0:
320,192,248191,1,0,0:0:0:0:
64,192,248422,1,2,0:0:0:0:
192,192,248422,1,0,0:0:0:0:
192,192,248653,1,0,0:0:0:0:
448,192,248768,1,0,0:0:0:0:
320,192,248884,1,8,0:0:0:0:
64,192,248884,1,0,0:0:0:0:
192,192,249114,1,0,0:0:0:0:
64,192,249345,1,2,0:0:0:0:
320,192,249345,1,0,0:0:0:0:
192,192,249576,1,0,0:0:0:0:
320,192,249807,1,8,0:0:0:0:
448,192,249807,1,0,0:0:0:0:
64,192,249807,1,0,0:0:0:0:
192,192,249922,1,0,0:0:0:0:
320,192,250038,1,0,0:0:0:0:
448,192,250153,1,0,0:0:0:0:
64,192,250268,1,2,0:0:0:0:
320,192,250268,1,4,0:0:0:0:
448,192,250384,1,0,0:0:0:0:
320,192,250614,1,0,0:0:0:0:
192,192,250730,1,8,0:0:0:0:
64,192,250730,1,0,0:0:0:0:
320,192,250961,1,0,0:0:0:0:
64,192,251191,1,2,0:0:0:0:
192,192,251191,1,0,0:0:0:0:
320,192,251422,1,0,0:0:0:0:
64,192,251653,1,8,0:0:0:0:
320,192,251653,1,0,0:0:0:0:
448,192,251653,1,0,0:0:0:0:
192,192,251768,1,0,0:0:0:0:
64,192,251884,1,0,0:0:0:0:
192,192,251999,1,0,0:0:0:0:
64,192,252114,1,2,0:0:0:0:
320,192,252114,1,0,0:0:0:0:
448,192,252230,1,0,0:0:0:0:
192,192,252461,1,0,0:0:0:0:
64,192,252576,1,8,0:0:0:0:
320,192,252576,1,0,0:0:0:0:
192,192,252807,1,0,0:0:0:0:
320,192,253038,1,2,0:0:0:0:
448,192,253038,1,0,0:0:0:0:
192,192,253268,1,0,0:0:0:0:
64,192,253499,1,8,0:0:0:0:
320,192,253499,1,0,0:0:0:0:
448,192,253499,1,0,0:0:0:0:
192,192,253614,1,0,0:0:0:0:
448,192,253730,1,0,0:0:0:0:
320,192,253845,1,0,0:0:0:0:
192,192,253961,1,2,0:0:0:0:
64,192,253961,1,0,0:0:0:0:
448,192,254076,1,0,0:0:0:0:
192,192,254307,1,0,0:0:0:0:
320,192,254422,1,8,0:0:0:0:
64,192,254422,1,0,0:0:0:0:
192,192,254653,1,0,0:0:0:0:
448,192,254884,1,2,0:0:0:0:
64,192,254884,1,0,0:0:0:0:
192,192,255114,1,0,0:0:0:0:
320,192,255345,1,8,0:0:0:0:
448,192,255345,1,0,0:0:0:0:
64,192,255345,1,0,0:0:0:0:
192,192,255576,1,0,0:0:0:0:
64,192,255807,1,2,0:0:0:0:
320,192,255807,1,0,0:0:0:0:
64,192,256038,1,0,0:0:0:0:
448,192,256038,1,0,0:0:0:0:
192,192,256153,1,0,0:0:0:0:
320,192,256153,1,0,0:0:0:0:
64,192,256268,1,8,0:0:0:0:
448,192,256268,1,0,0:0:0:0:
192,192,256384,1,0,0:0:0:0:
320,192,256384,1,0,0:0:0:0:
64,192,256499,1,0,0:0:0:0:
448,192,256499,1,0,0:0:0:0:
320,192,256614,1,0,0:0:0:0:
192,192,256614,1,0,0:0:0:0:
64,192,256730,1,2,0:0:0:0:
448,192,256730,1,0,0:0:0:0:
192,192,256730,1,0,0:0:0:0:
448,192,256961,1,0,0:0:0:0:
320,192,257076,1,2,0:0:0:0:
64,192,257076,1,0,0:0:0:0:
192,192,257076,1,0,0:0:0:0:
64,192,257307,1,0,0:0:0:0:
192,192,257422,1,2,0:0:0:0:
448,192,257422,1,0,0:0:0:0:
320,192,257422,1,0,0:0:0:0:
