osu file format v14

[General]
AudioFilename: audio.mp3
AudioLeadIn: 0
PreviewTime: 64654
Countdown: 0
SampleSet: Soft
StackLeniency: 0.5
Mode: 0
LetterboxInBreaks: 0
WidescreenStoryboard: 0

[Editor]
Bookmarks: 1988,7321,12654,17988,23321,28654,33988,39321,44654,64654,65988,84654,85988
DistanceSpacing: 0.5
BeatDivisor: 4
GridSize: 32
TimelineZoom: 1

[Metadata]
Title:Yasashii Suisei (TV Size)
TitleUnicode:優しい彗星 (TV Size)
Artist:YOASOBI
ArtistUnicode:YOASOBI
Creator:eiri-
Version:Love
Source:BEASTARS
Tags:Ayyri Battle ビースターズ Japanese Anime Furry Ending Pop J-Pop JPop Gentle Comet 幾田りら Ikuta Rira Lilas Ayase
BeatmapID:2837168
BeatmapSetID:1372336

[Difficulty]
HPDrainRate:5
CircleSize:5
OverallDifficulty:8
ApproachRate:8
SliderMultiplier:1.4
SliderTickRate:1

[Events]
//Background and Video events
0,0,"Louis 467.jpg",0,0
Video,-425,"ED.mp4"
//Break Periods
//Storyboard Layer 0 (Background)
//Storyboard Layer 1 (Fail)
//Storyboard Layer 2 (Pass)
//Storyboard Layer 3 (Foreground)
//Storyboard Layer 4 (Overlay)
//Storyboard Sound Samples

[TimingPoints]
1988,666.666666666667,4,2,1,50,1,0
1988,-133.333333333333,4,2,1,40,0,0
12654,-100,4,2,1,50,0,0
23321,-80,4,2,1,60,0,0
43321,-200,4,2,1,50,0,0
44654,-66.6666666666667,4,2,1,80,0,1
54988,-200,4,2,1,80,0,1
55321,-66.6666666666667,4,2,1,80,0,1
64654,-100,4,2,1,80,0,0
65321,-80,4,2,1,80,0,0
65988,-66.6666666666667,4,2,1,80,0,1
76321,-200,4,2,1,80,0,1
76654,-66.6666666666667,4,2,1,80,0,1
84654,-133.333333333333,4,2,1,60,0,0
84821,-133.333333333333,4,2,1,5,0,0

[Colours]
Combo1 : 183,157,200
Combo2 : 176,208,225
Combo3 : 125,177,206
Combo4 : 210,196,221

[HitObjects]
448,320,1321,6,0,L|362:303,1,70,2|2,0:1|0:1,0:0:0:0:
409,335,1988,5,2,0:0:0:0:
384,224,2321,2,0,L|399:173,1,52.5000020027161,2|0,0:0|0:0,0:0:0:0:
506,189,2988,1,2,0:0:0:0:
462,70,3321,6,0,L|444:11,2,52.5000020027161,2|0|2,0:0|0:0|0:0,0:0:0:0:
443,155,4321,1,2,0:0:0:0:
443,155,4488,2,0,L|425:214,1,52.5000020027161,2|2,0:0|0:0,0:0:0:0:
430,216,4988,1,2,0:0:0:0:
430,216,5821,5,2,0:0:0:0:
428,205,5988,2,0,L|365:215,1,52.5000020027161,2|0,0:0|0:0,0:0:0:0:
315,251,6488,2,0,L|252:241,1,52.5000020027161,2|0,0:0|0:0,0:0:0:0:
219,187,6988,1,2,0:0:0:0:
210,189,7154,2,0,L|163:196,1,26.2500010013581,2|2,0:0|0:0,0:0:0:0:
64,96,8321,5,2,0:0:0:0:
64,96,8654,2,0,L|74:44,1,52.5000020027161,2|0,0:0|0:0,0:0:0:0:
160,128,9321,2,0,L|149:179,1,52.5000020027161,2|0,0:0|0:0,0:0:0:0:
32,256,9988,6,0,L|52:349,1,78.7500030040742,2|0,0:0|0:0,0:0:0:0:
119,354,10654,2,0,L|139:261,1,78.7500030040742,2|0,0:0|0:0,0:0:0:0:
96,160,11321,2,0,B|119:196|119:196|194:175,1,105.000004005432,2|2,0:0|0:0,0:0:0:0:
480,288,12654,5,10,0:0:0:0:
446,221,12821,1,2,0:0:0:0:
452,293,12988,2,0,L|476:207,2,70,2|2|2,0:0|0:0|0:0,0:0:0:0:
352,320,13988,6,0,L|368:374,1,35,2|0,0:0|0:0,0:0:0:0:
288,288,14321,2,0,L|304:234,1,35,10|0,0:0|0:0,0:0:0:0:
224,320,14654,1,2,0:0:0:0:
416,288,14988,1,2,0:0:0:0:
416,288,15154,6,0,L|399:196,1,70,2|2,0:0|0:0,0:0:0:0:
417,174,15654,1,2,0:0:0:0:
300,208,15988,1,2,0:0:0:0:
384,64,16321,2,0,L|394:112,1,35,2|0,0:0|0:0,0:0:0:0:
338,147,16654,6,0,P|292:120|250:122,1,70,2|10,0:0|0:0,0:0:0:0:
187,51,17154,1,2,0:0:0:0:
185,61,17321,2,0,L|196:125,1,35,2|8,0:0|0:0,0:0:0:0:
159,159,17654,2,0,L|148:95,1,35,2|0,0:0|0:0,0:0:0:0:
223,191,17988,5,10,0:0:0:0:
64,256,18321,2,0,L|14:245,1,35,2|8,0:0|0:0,0:0:0:0:
138,239,18654,2,0,L|152:320,1,70,2|2,0:0|0:0,0:0:0:0:
288,352,19321,6,0,L|299:283,2,70,2|10|2,0:0|0:0|0:0,0:0:0:0:
192,384,20321,1,2,0:0:0:0:
392,369,20654,6,0,L|508:357,1,105,10|10,0:0|0:0,0:0:0:0:
448,300,21321,2,0,L|465:203,2,70,2|10|2,0:0|0:0|0:0,0:0:0:0:
317,273,22321,1,10,0:0:0:0:
415,180,22654,6,0,L|432:277,1,70,2|2,0:1|0:1,0:0:0:0:
426,259,23321,6,0,P|469:263|456:222,1,87.5,10|2,0:0|0:0,0:0:0:0:
340,324,23821,1,10,0:0:0:0:
289,271,23988,2,0,P|311:215|317:174,1,87.5,2|2,1:2|0:0,0:0:0:0:
303,63,24654,6,0,L|254:74,1,43.75,2|0,0:0|0:0,0:0:0:0:
160,128,24988,2,0,L|61:106,1,87.5,10|2,0:0|1:2,0:0:0:0:
13,154,25488,1,10,0:0:0:0:
64,32,25654,1,2,0:0:0:0:
66,41,25821,2,0,L|79:102,1,43.75,2|8,0:0|0:0,0:0:0:0:
187,172,26154,1,2,0:0:0:0:
117,227,26321,1,2,0:0:0:0:
256,256,26488,6,0,L|244:360,1,87.5,10|2,0:0|0:0,0:0:0:0:
192,384,26988,1,2,0:0:0:0:
384,352,27154,1,2,0:0:0:0:
352,288,27321,6,0,P|355:256|382:197,1,87.5,10|10,0:0|0:0,0:0:0:0:
269,120,27821,2,0,P|284:170|324:166,1,87.5,2|10,0:0|0:0,0:0:0:0:
416,128,28321,1,2,0:0:0:0:
480,224,28488,1,2,0:0:0:0:
512,32,28654,6,0,L|416:48,1,87.5,10|0,0:0|0:0,0:0:0:0:
304,90,29154,2,0,L|329:-23,1,87.5,10|0,0:0|0:0,0:0:0:0:
369,186,29654,1,2,0:0:0:0:
369,186,29988,6,0,L|249:177,2,87.5,10|10|2,0:0|0:0|1:2,0:0:0:0:
448,128,30821,1,2,0:0:0:0:
480,256,30988,1,2,0:0:0:0:
512,192,31154,1,2,0:0:0:0:
357,213,31321,6,0,L|205:202,1,131.25,10|10,0:0|0:0,0:0:0:0:
288,240,31988,1,2,1:2:0:0:
320,128,32154,2,0,L|302:55,2,43.75,2|2|2,0:0|0:0|0:0,0:0:0:0:
374,298,32654,5,10,0:0:0:0:
448,256,32821,1,2,0:0:0:0:
480,352,32988,1,10,0:0:0:0:
488,342,33321,5,2,1:2:0:0:
456,246,33488,1,10,0:0:0:0:
382,288,33654,1,2,0:0:0:0:
406,185,33821,1,2,0:0:0:0:
280,145,33988,6,0,P|314:192|352:168,1,87.5,10|2,0:0|0:0,0:0:0:0:
448,128,34488,1,10,0:0:0:0:
454,136,34821,6,0,L|514:145,2,43.75,2|2|2,0:0|0:0|0:0,0:0:0:0:
405,206,35321,2,0,L|418:114,1,87.5,2|10,0:0|0:0,0:0:0:0:
326,98,35821,1,2,0:0:0:0:
330,89,35988,2,0,L|321:12,1,43.75,2|8,1:2|0:0,0:0:0:0:
217,44,36321,2,0,L|226:-33,1,43.75,2|0,0:0|0:0,0:0:0:0:
249,150,36654,6,0,L|262:242,1,87.5,10|2,0:0|0:0,0:0:0:0:
165,254,37154,1,10,0:0:0:0:
224,296,37321,2,0,L|211:388,1,87.5,2|2,1:2|0:0,0:0:0:0:
201,359,37821,1,2,0:0:0:0:
296,381,37988,6,0,L|368:368,1,43.75,10|0,0:0|0:0,0:0:0:0:
197,329,38321,2,0,L|125:316,1,43.75,2|0,0:0|0:0,0:0:0:0:
311,348,38654,2,0,L|383:335,1,43.75,2|0,1:2|0:0,0:0:0:0:
182,296,38988,2,0,L|110:283,1,43.75,2|0,0:0|0:0,0:0:0:0:
384,256,39321,6,0,B|411:219|411:219|409:175|373:124,1,131.25,10|10,0:0|0:0,0:0:0:0:
337,87,39988,1,2,1:2:0:0:
192,128,40321,2,0,P|144:120|91:119,2,87.5,2|2|10,0:0|0:0|0:0,0:0:0:0:
253,89,41154,2,0,P|271:117|287:162,1,43.75,2|0,0:0|1:0,0:0:0:0:
215,208,41488,1,2,0:0:0:0:
320,256,41654,2,0,L|314:318,1,43.75,2|2,0:0|0:0,0:0:0:0:
160,352,41988,5,10,0:0:0:0:
207,199,42154,1,10,0:0:0:0:
136,249,42321,1,2,1:2:0:0:
200,273,42488,5,10,0:0:0:0:
153,120,42654,1,2,1:2:0:0:
119,185,42822,1,2,0:0:0:0:
289,210,42988,1,10,0:0:0:0:
200,273,43154,1,10,0:0:0:0:
267,300,43321,6,0,L|275:345,3,35,2|2|2|2,0:1|0:1|0:1|0:1,0:0:0:0:
422,364,44654,6,0,P|482:332|451:271,1,105.000004005432,14|2,0:0|0:0,0:0:0:0:
384,256,45154,2,0,P|368:232|372:206,1,52.5000020027161,2|0,0:0|1:0,0:0:0:0:
464,122,45488,2,0,P|504:76|492:24,1,105.000004005432,2|0,0:0|0:0,0:0:0:0:
304,10,45988,2,0,P|289:81|271:115,1,105.000004005432,10|2,0:0|0:0,0:0:0:0:
192,160,46488,2,0,P|207:231|218:252,1,52.5000020027161,2|0,0:0|1:0,0:0:0:0:
336,276,46821,2,0,P|315:211|271:248,1,105.000004005432,2|0,0:0|0:0,0:0:0:0:
306,381,47321,6,0,P|385:359|430:353,1,105.000004005432,10|2,0:0|0:0,0:0:0:0:
251,319,47821,2,0,L|238:233,1,52.5000020027161,2|0,0:0|1:0,0:0:0:0:
116,377,48154,2,0,P|173:335|146:280,1,105.000004005432,2|0,0:0|0:0,0:0:0:0:
13,210,48654,2,0,P|48:274|77:237,1,105.000004005432,10|2,0:0|0:0,0:0:0:0:
170,211,49154,1,2,0:0:0:0:
46,144,49321,2,0,L|55:92,1,52.5000020027161,2|0,1:2|0:0,0:0:0:0:
79,239,49654,2,0,L|88:290,1,52.5000020027161,2|0,0:0|0:0,0:0:0:0:
268,189,49988,6,0,P|320:213|301:272,1,105.000004005432,14|2,0:0|0:0,0:0:0:0:
185,330,50488,2,0,P|208:254|196:208,1,105.000004005432,2|0,0:0|0:0,0:0:0:0:
271,144,50988,2,0,P|233:73|217:61,1,52.5000020027161,2|0,0:0|0:0,0:0:0:0:
91,65,51321,2,0,P|123:118|160:83,1,105.000004005432,10|2,0:0|0:0,0:0:0:0:
261,10,51821,2,0,P|213:4|201:50,1,105.000004005432,2|0,0:0|0:0,0:0:0:0:
320,96,52321,2,0,L|419:76,1,52.5000020027161,2|0,0:0|0:0,0:0:0:0:
480,32,52654,6,0,L|459:171,1,105.000004005432,10|0,0:0|0:0,0:0:0:0:
384,160,53154,2,0,L|405:299,1,105.000004005432,2|0,0:0|0:0,0:0:0:0:
512,281,53654,2,0,L|491:420,1,105.000004005432,2|10,0:0|0:0,0:0:0:0:
468,225,54154,1,2,0:0:0:0:
468,225,54321,1,2,0:0:0:0:
256,288,54654,1,2,1:2:0:0:
288,160,54821,1,10,0:0:0:0:
321,382,54988,2,0,L|317:353,1,17.5,2|0,0:0|0:0,0:0:0:0:
256,245,55321,6,0,L|273:125,1,105.000004005432,14|2,0:0|0:0,0:0:0:0:
341,81,55821,2,0,L|323:24,1,52.5000020027161,2|0,0:0|1:0,0:0:0:0:
156,28,56154,2,0,L|189:128,1,105.000004005432,2|0,0:0|0:0,0:0:0:0:
128,256,56654,2,0,P|67:217|95:180,1,105.000004005432,10|0,0:0|0:0,0:0:0:0:
224,160,57154,1,2,0:0:0:0:
224,160,57321,1,2,1:2:0:0:
192,288,57488,1,10,0:0:0:0:
160,96,57654,1,2,0:0:0:0:
135,190,57821,1,2,0:0:0:0:
311,242,57988,6,0,P|362:233|450:225,1,105.000004005432,10|2,0:0|0:0,0:0:0:0:
500,166,58488,2,0,L|510:82,1,52.5000020027161,2|0,0:0|1:0,0:0:0:0:
352,32,58821,2,0,P|401:35|405:86,1,105.000004005432,2|0,0:0|0:0,0:0:0:0:
268,152,59321,2,0,P|230:103|250:47,1,105.000004005432,10|2,0:0|0:0,0:0:0:0:
369,273,59988,2,0,P|372:323|337:361,1,105.000004005432,2|2,1:2|0:0,0:0:0:0:
160,320,60654,6,0,P|171:245|182:129,1,157.500006008148,14|0,0:0|0:0,0:0:0:0:
64,96,61321,2,0,L|77:171,1,52.5000020027161,2|0,1:2|0:0,0:0:0:0:
267,111,61654,2,0,L|285:-15,1,105.000004005432,2|8,0:0|0:0,0:0:0:0:
281,7,62321,1,2,0:0:0:0:
192,64,62654,2,0,L|102:52,1,52.5000020027161,2|0,1:2|0:0,0:0:0:0:
352,128,62988,2,0,L|442:116,1,52.5000020027161,2|0,0:0|0:0,0:0:0:0:
266,287,63321,6,0,B|226:246|226:246|264:136,1,157.500006008148,14|0,0:0|0:0,0:0:0:0:
302,65,63988,1,2,1:2:0:0:
206,104,64154,1,10,0:0:0:0:
344,149,64321,1,2,1:2:0:0:
344,149,64488,1,2,1:2:0:0:
128,224,64654,6,0,L|66:211,1,35,10|0,0:0|0:0,0:0:0:0:
335,181,64988,2,0,L|397:168,1,35,10|0,0:0|0:0,0:0:0:0:
96,110,65321,2,0,L|13:92,1,43.75,2|0,1:2|0:0,0:0:0:0:
374,45,65654,2,0,L|457:27,1,43.75,2|0,1:2|0:0,0:0:0:0:
145,0,65988,6,0,L|160:93,1,52.5000020027161,14|0,0:0|0:0,0:0:0:0:
278,141,66321,2,0,L|296:21,1,105.000004005432,2|0,0:0|1:0,0:0:0:0:
416,155,66821,2,0,P|362:207|352:185,1,105.000004005432,2|0,0:0|0:0,0:0:0:0:
303,278,67321,2,0,P|314:318|349:312,1,52.5000020027161,10|0,0:0|0:0,0:0:0:0:
420,340,67654,1,2,0:0:0:0:
442,297,67821,2,0,L|427:204,1,52.5000020027161,2|0,0:0|1:0,0:0:0:0:
335,181,68154,2,0,L|353:61,1,105.000004005432,10|0,0:0|0:0,0:0:0:0:
473,9,68654,6,0,P|462:70|419:53,1,105.000004005432,10|2,0:0|0:0,0:0:0:0:
299,17,69154,2,0,L|233:26,1,52.5000020027161,2|0,0:0|1:0,0:0:0:0:
140,89,69488,2,0,P|151:150|194:133,1,105.000004005432,2|0,0:0|0:0,0:0:0:0:
325,208,69988,2,0,P|359:157|326:90,1,105.000004005432,10|2,0:0|0:0,0:0:0:0:
224,96,70487,1,2,0:0:0:0:
202,53,70654,2,0,L|217:-40,1,52.5000020027161,2|0,1:2|0:0,0:0:0:0:
292,87,70988,2,0,L|277:180,1,52.5000020027161,2|2,0:0|0:0,0:0:0:0:
160,224,71321,6,0,P|109:201|127:153,1,105.000004005432,14|0,0:0|0:0,0:0:0:0:
280,166,71821,2,0,B|247:143|247:143|167:165,1,105.000004005432,2|0,0:0|0:0,0:0:0:0:
241,293,72321,2,0,L|258:208,1,52.5000020027161,2|0,0:0|0:0,0:0:0:0:
88,338,72654,2,0,B|121:361|121:361|201:339,1,105.000004005432,10|2,0:0|0:0,0:0:0:0:
30,296,73154,2,0,P|47:249|88:279,1,105.000004005432,2|0,0:0|0:0,0:0:0:0:
32,160,73654,2,0,P|66:133|62:97,1,52.5000020027161,2|0,0:0|0:0,0:0:0:0:
45,12,73988,6,0,P|16:66|2:25,1,105.000004005432,10|2,0:0|0:0,0:0:0:0:
135,69,74488,2,0,P|163:60|221:56,1,52.5000020027161,2|0,0:0|1:0,0:0:0:0:
158,198,74821,2,0,P|97:168|121:135,1,105.000004005432,2|0,0:0|0:0,0:0:0:0:
288,128,75321,2,0,L|303:-13,1,105.000004005432,10|2,0:0|0:0,0:0:0:0:
333,275,75988,1,2,1:2:0:0:
212,237,76154,1,2,0:0:0:0:
426,206,76321,2,0,L|456:212,1,17.5,10|0,0:0|0:0,0:0:0:0:
343,367,76654,6,0,P|294:315|301:311,1,105.000004005432,14|2,0:0|0:0,0:0:0:0:
416,320,77154,2,0,P|438:285|425:249,1,52.5000020027161,2|0,0:0|1:0,0:0:0:0:
352,160,77488,2,0,L|368:18,1,105.000004005432,2|0,0:0|0:0,0:0:0:0:
192,0,77988,2,0,B|147:22|147:22|180:176,1,157.500006008148,10|2,0:0|0:0,0:0:0:0:
229,177,78654,1,2,1:2:0:0:
204,248,78821,1,2,0:0:0:0:
115,241,78988,2,0,L|130:333,1,52.5000020027161,2|0,0:0|0:0,0:0:0:0:
295,328,79321,6,0,P|347:317|419:309,1,105.000004005432,10|2,0:0|0:0,0:0:0:0:
480,256,79821,2,0,P|448:230|472:209,1,52.5000020027161,2|0,0:0|1:0,0:0:0:0:
496,97,80154,2,0,P|464:161|438:130,1,105.000004005432,2|0,0:0|0:0,0:0:0:0:
334,128,80654,2,0,L|354:38,1,52.5000020027161,10|0,0:0|0:0,0:0:0:0:
198,51,80988,2,0,L|178:-39,1,52.5000020027161,2|0,0:0|0:0,0:0:0:0:
16,97,81321,2,0,P|48:161|74:130,1,105.000004005432,2|2,1:2|0:0,0:0:0:0:
143,129,81821,1,2,0:0:0:0:
224,224,81988,6,0,L|211:315,1,52.5000020027161,14|0,0:0|0:0,0:0:0:0:
352,224,82321,1,2,0:0:0:0:
272,118,82488,2,0,L|285:209,1,52.5000020027161,2|0,0:0|1:0,0:0:0:0:
302,37,82821,1,2,0:0:0:0:
143,98,82988,1,2,0:0:0:0:
242,120,83154,1,2,0:0:0:0:
181,19,83321,6,0,L|168:110,1,52.5000020027161,10|0,0:0|0:0,0:0:0:0:
272,118,83654,1,2,0:0:0:0:
157,191,83821,2,0,L|26:174,1,105.000004005432,2|0,0:0|0:0,0:0:0:0:
272,118,84321,2,0,L|285:209,1,52.5000020027161,2|0,0:0|0:0,0:0:0:0:
235,247,84654,6,0,L|270:18,1,210.000008010865,2|0,0:0|0:0,0:0:0:0:
