osu file format v14

[General]
AudioFilename: beatmap-637510067109912196-audio.mp3
AudioLeadIn: 0
PreviewTime: 45151
Countdown: 0
SampleSet: Soft
StackLeniency: 0.7
Mode: 0
LetterboxInBreaks: 0
WidescreenStoryboard: 1

[Editor]
Bookmarks: 2485,13151,23818,45151
DistanceSpacing: 1.1
BeatDivisor: 4
GridSize: 32
TimelineZoom: 2.200003

[Metadata]
Title:Yasashii Suisei (TV Size)
TitleUnicode:優しい彗星 (TV Size)
Artist:YOASOBI
ArtistUnicode:YOASOBI
Creator:Zekk
Version:Normal
Source:BEASTARS
Tags:second season 2nd ending ed ビースターズ japanese anime pop jpop j-pop 幾田りら ikuta rira lilas ayase ikura MrSergio Seijiro gentle comet
BeatmapID:3083184
BeatmapSetID:1407774

[Difficulty]
HPDrainRate:4
CircleSize:3.5
OverallDifficulty:4
ApproachRate:5
SliderMultiplier:1.79999990463257
SliderTickRate:1

[Events]
//Background and Video events
Video,0,"ED.mp4"
0,0,"bg.png",0,0
//Break Periods
//Storyboard Layer 0 (Background)
//Storyboard Layer 1 (Fail)
//Storyboard Layer 2 (Pass)
//Storyboard Layer 3 (Foreground)
//Storyboard Layer 4 (Overlay)
//Storyboard Sound Samples

[TimingPoints]
2485,666.666666666667,4,2,1,50,1,0
2485,-133.333333333333,4,2,1,50,0,0
13151,-100,4,2,1,55,0,0
23818,-100,4,2,1,60,0,0
24485,-100,4,2,2,60,0,0
45151,-100,4,2,2,70,0,1
45818,-100,4,2,1,70,0,1
85151,-100,4,2,1,30,0,0

[Colours]
Combo1 : 240,140,140
Combo2 : 200,180,220
Combo3 : 240,200,155
Combo4 : 150,185,220

[HitObjects]
325,29,2485,5,0,2:2:0:0:
378,89,2818,2,0,P|419:96|466:106,2,67.499998998642,2|2|2,0:0|0:0|0:0,0:0:0:0:
316,142,3818,2,0,P|291:180|320:260,1,134.999997997284,2|2,2:2|0:0,0:0:0:0:
262,317,4818,2,0,P|240:320|210:326,1,33.749999499321,2|2,0:0|0:0,0:0:0:0:
194,345,5151,2,0,B|136:334|135:381|36:359,1,134.999997997284,0|0,2:2|0:0,0:0:0:0:
11,252,6318,1,2,0:0:0:0:
11,252,6485,2,0,P|20:212|26:161,1,67.499998998642,2|0,2:2|0:0,0:0:0:0:
73,123,7151,2,0,P|110:113|162:156,1,101.249998497963,0|2,2:2|0:0,0:0:0:0:
186,176,7818,6,0,P|264:166|334:165,1,134.999997997284,2|0,2:2|0:0,0:0:0:0:
367,99,8818,1,2,2:2:0:0:
437,137,9151,2,0,P|470:187|448:261,1,134.999997997284,2|2,2:2|2:2,0:0:0:0:
381,294,10151,1,2,2:2:0:0:
313,248,10485,6,0,P|253:255|178:258,1,134.999997997284,2|2,0:2|2:2,0:0:0:0:
47,163,11818,2,0,P|25:114|78:36,1,134.999997997284,2|2,2:2|2:2,0:0:0:0:
250,146,13151,6,0,P|324:135|400:127,1,134.999992847443,0|0,1:2|1:2,0:0:0:0:
427,152,13818,1,2,2:2:0:0:
492,226,14151,1,2,2:2:0:0:
423,297,14485,6,0,P|362:309|325:290,1,89.9999952316285,2|2,2:2|1:2,0:0:0:0:
255,245,15151,2,0,P|214:245|152:257,1,89.9999952316285,2|2,2:2|2:2,0:0:0:0:
120,232,15651,2,0,P|103:181|127:141,1,89.9999952316285,2|0,2:2|0:0,0:0:0:0:
161,127,16151,1,2,2:2:0:0:
329,23,16818,5,2,2:2:0:0:
403,87,17151,2,0,P|395:133|390:177,1,89.9999952316285,2|2,2:2|1:2,0:0:0:0:
303,224,17818,2,0,P|261:246|212:228,1,89.9999952316285,2|2,2:2|2:2,0:0:0:0:
135,186,18485,6,0,P|90:243|137:344,1,179.999990463257,0|2,1:2|2:2,0:0:0:0:
213,378,19485,1,2,2:2:0:0:
283,309,19818,2,0,P|328:316|384:328,1,89.9999952316285,2|2,2:2|1:2,0:0:0:0:
460,281,20485,2,0,P|485:240|480:194,1,89.9999952316285,2|2,2:2|2:2,0:0:0:0:
412,129,21151,1,0,1:2:0:0:
408,91,23818,6,0,B|345:101|345:101|312:138|312:138|236:148,1,179.999990463257,0|10,1:2|2:2,0:0:0:0:
173,79,24818,1,2,2:2:0:0:
110,155,25151,2,0,P|93:198|117:259,1,89.9999952316285,2|2,2:2|1:2,0:0:0:0:
191,281,25818,2,0,P|238:270|288:261,1,89.9999952316285,10|0,2:2|0:0,0:0:0:0:
324,286,26318,1,2,2:2:0:0:
419,253,26651,1,2,0:0:0:0:
419,253,26818,2,0,P|442:195|343:111,1,179.999990463257,2|0,2:2|2:2,0:0:0:0:
289,163,27818,6,0,P|247:167|187:175,1,89.9999952316285,2|2,2:2|1:2,0:0:0:0:
168,79,28485,2,0,P|130:87|61:93,1,89.9999952316285,10|0,2:2|2:2,0:0:0:0:
50,134,28985,1,2,2:2:0:0:
50,134,29151,2,0,P|11:179|59:295,1,179.999990463257,2|8,1:2|2:2,0:0:0:0:
129,333,30151,1,2,2:2:0:0:
216,285,30485,2,0,P|269:294|332:309,1,89.9999952316285,2|2,2:2|1:2,0:0:0:0:
393,258,31151,2,0,P|414:211|391:152,1,89.9999952316285,10|2,2:2|2:2,0:0:0:0:
327,115,31818,6,0,B|265:122|265:122|234:155|234:155|154:166,1,179.999990463257,2|10,1:2|2:2,0:0:0:0:
102,84,32818,1,0,2:2:0:0:
37,159,33151,2,0,P|43:220|48:345,1,179.999990463257,2|10,2:2|2:2,0:0:0:0:
137,380,34151,1,0,2:2:0:0:
197,308,34485,6,0,P|251:315|297:327,1,89.9999952316285,2|0,1:2|2:2,0:0:0:0:
327,296,34985,2,0,P|347:253|298:170,1,134.999992847443,2|2,1:2|2:2,0:0:0:0:
268,199,35651,1,2,2:2:0:0:
268,199,35818,1,2,2:2:0:0:
179,154,36151,2,0,P|161:111|195:58,1,89.9999952316285,2|8,1:2|2:2,0:0:0:0:
208,34,36651,2,0,P|258:46|310:50,1,89.9999952316285,0|0,1:2|2:2,0:0:0:0:
336,21,37151,1,2,1:2:0:0:
454,179,37818,1,10,2:2:0:0:
307,311,38485,6,0,P|260:313|209:321,1,89.9999952316285,2|2,1:2|1:2,0:0:0:0:
149,247,39151,2,0,P|131:202|154:148,1,89.9999952316285,10|2,2:2|2:2,0:0:0:0:
221,105,39818,2,0,B|283:114|283:114|319:155|319:155|402:166,1,179.999990463257,2|8,1:2|2:2,0:0:0:0:
450,91,40818,1,2,2:2:0:0:
369,33,41151,2,0,P|329:19|265:58,1,89.9999952316285,2|0,2:2|1:2,0:0:0:0:
242,58,41651,1,2,2:2:0:0:
150,35,41985,1,2,1:2:0:0:
150,35,42151,2,0,P|143:74|133:101,1,44.9999976158143,2|0,2:2|2:2,0:0:0:0:
161,124,42485,1,0,1:2:0:0:
190,352,43818,6,0,P|238:343|286:336,2,89.9999952316285,2|2|2,2:2|0:0|0:0,0:0:0:0:
123,278,44818,1,2,0:0:0:0:
205,222,45151,6,0,P|214:168|216:121,1,89.9999952316285,6|2,1:2|2:2,0:0:0:0:
259,109,45651,1,2,2:2:0:0:
337,170,45985,2,0,P|383:182|441:154,1,89.9999952316285,2|0,0:0|2:2,0:0:0:0:
458,135,46485,2,0,P|448:82|444:30,1,89.9999952316285,2|2,1:2|2:2,0:0:0:0:
405,16,46985,1,2,2:2:0:0:
325,74,47318,2,0,P|274:62|212:52,1,89.9999952316285,2|0,2:2|2:2,0:0:0:0:
201,23,47818,6,0,P|151:15|109:49,1,89.9999952316285,2|2,1:2|2:2,0:0:0:0:
105,82,48318,1,2,2:2:0:0:
156,166,48651,2,0,P|150:222|139:269,1,89.9999952316285,2|0,2:2|2:2,0:0:0:0:
175,292,49151,2,0,P|219:312|279:288,1,89.9999952316285,2|2,1:2|2:2,0:0:0:0:
297,272,49651,1,2,2:2:0:0:
297,272,49818,1,8,2:2:0:0:
374,333,50151,1,0,2:2:0:0:
457,279,50485,6,0,P|448:226|445:181,1,89.9999952316285,2|0,1:2|2:2,0:0:0:0:
414,150,50985,2,0,P|366:135|315:170,1,89.9999952316285,2|2,2:2|2:2,0:0:0:0:
306,192,51485,1,2,2:2:0:0:
242,117,51818,2,0,P|246:70|253:18,1,89.9999952316285,2|0,1:2|2:2,0:0:0:0:
209,0,52318,2,0,P|165:15|111:-11,1,89.9999952316285,2|0,2:2|2:2,0:0:0:0:
84,31,52818,1,2,2:2:0:0:
14,106,53151,6,0,P|25:167|33:219,1,89.9999952316285,2|0,1:2|2:2,0:0:0:0:
69,224,53651,1,2,2:2:0:0:
206,166,54151,2,0,P|256:178|317:179,1,89.9999952316285,2|0,2:2|1:2,0:0:0:0:
329,214,54651,1,2,0:0:0:0:
329,214,54818,1,2,2:2:0:0:
273,295,55151,2,0,P|270:326|265:357,1,44.9999976158143,10|2,2:2|2:2,0:0:0:0:
302,377,55485,1,2,2:2:0:0:
373,308,55818,6,0,P|426:316|474:328,1,89.9999952316285,2|2,1:2|2:2,0:0:0:0:
498,291,56318,1,2,2:2:0:0:
444,207,56651,2,0,P|453:160|465:108,1,89.9999952316285,2|0,2:2|2:2,0:0:0:0:
430,81,57151,1,2,1:2:0:0:
301,154,57651,1,2,2:2:0:0:
301,154,57818,2,0,P|256:148|236:144,1,44.9999976158143,10|2,2:2|2:2,0:0:0:0:
215,176,58151,1,2,2:2:0:0:
130,123,58485,6,0,P|120:75|151:31,1,89.9999952316285,2|2,1:2|2:2,0:0:0:0:
182,16,58985,1,2,2:2:0:0:
254,82,59318,2,0,P|312:91|362:102,1,89.9999952316285,2|0,2:2|2:2,0:0:0:0:
388,78,59818,1,2,1:2:0:0:
497,242,60485,1,10,2:2:0:0:
336,365,61151,6,0,P|276:354|227:350,1,89.9999952316285,2|0,1:2|2:2,0:0:0:0:
181,276,61818,1,10,2:2:0:0:
254,209,62151,2,0,P|251:173|251:152,1,44.9999976158143,2|0,2:2|0:0,0:0:0:0:
216,128,62485,2,0,P|173:146|125:125,1,89.9999952316285,0|2,1:2|2:2,0:0:0:0:
67,59,63151,1,10,2:2:0:0:
6,137,63485,1,2,2:2:0:0:
65,216,63818,2,0,P|64:272|56:327,1,89.9999952316285,2|0,1:2|2:2,0:0:0:0:
135,369,64485,1,8,2:2:0:0:
329,320,65151,5,2,1:2:0:0:
407,380,65485,1,2,2:2:0:0:
480,314,65818,2,0,P|468:255|464:210,1,89.9999952316285,10|2,2:2|2:2,0:0:0:0:
394,155,66485,6,0,P|351:162|333:163,1,44.9999976158143,6|0,1:2|0:0,0:0:0:0:
312,129,66818,2,0,P|300:89|321:37,1,89.9999952316285,2|8,2:2|2:2,0:0:0:0:
360,26,67318,1,2,0:0:0:0:
211,6,67818,2,0,P|160:14|121:15,1,89.9999952316285,2|2,1:2|2:2,0:0:0:0:
81,43,68318,1,2,2:2:0:0:
144,118,68651,2,0,P|141:167|131:219,1,89.9999952316285,2|0,2:2|2:2,0:0:0:0:
158,248,69151,5,2,1:2:0:0:
238,189,69485,1,2,2:2:0:0:
238,189,69651,2,0,P|279:198|299:198,1,44.9999976158143,2|8,2:2|2:2,0:0:0:0:
311,238,69985,1,2,2:2:0:0:
440,165,70485,2,0,P|455:121|430:62,1,89.9999952316285,2|2,1:2|2:2,0:0:0:0:
401,54,70985,2,0,P|355:64|296:70,1,89.9999952316285,2|0,2:2|2:2,0:0:0:0:
221,43,71651,5,2,0:0:0:0:
221,43,71818,2,0,P|178:31|120:63,1,89.9999952316285,2|0,1:2|2:2,0:0:0:0:
103,82,72318,2,0,P|113:143|113:192,1,89.9999952316285,2|0,2:2|2:2,0:0:0:0:
147,207,72818,1,2,2:2:0:0:
226,265,73151,2,0,P|267:280|314:254,1,89.9999952316285,2|0,1:2|2:2,0:0:0:0:
355,275,73651,2,0,P|350:331|351:381,1,89.9999952316285,2|0,2:2|2:2,0:0:0:0:
303,380,74151,1,2,2:2:0:0:
211,340,74485,6,0,P|163:341|114:349,1,89.9999952316285,2|2,1:2|2:2,0:0:0:0:
84,313,74985,1,2,2:2:0:0:
134,229,75318,2,0,P|134:188|126:130,1,89.9999952316285,2|0,0:0|2:2,0:0:0:0:
162,103,75818,1,2,1:2:0:0:
322,218,76485,2,0,P|363:225|386:230,1,44.9999976158143,10|2,2:2|2:2,0:0:0:0:
406,196,76818,1,2,2:2:0:0:
461,277,77151,6,0,P|475:320|458:370,1,89.9999952316285,2|2,1:2|2:2,0:0:0:0:
418,379,77651,1,2,2:2:0:0:
339,318,77985,2,0,P|293:312|228:309,1,89.9999952316285,2|0,2:2|2:2,0:0:0:0:
207,286,78485,2,0,P|196:242|232:185,1,89.9999952316285,2|0,1:2|2:2,0:0:0:0:
294,147,79151,2,0,L|286:98,1,44.9999976158143,10|2,2:2|2:2,0:0:0:0:
247,71,79485,1,2,2:2:0:0:
162,20,79818,6,0,P|106:28|56:31,1,89.9999952316285,2|2,1:2|2:2,0:0:0:0:
38,65,80318,1,2,2:2:0:0:
111,131,80651,2,0,P|113:178|119:232,1,89.9999952316285,2|0,2:2|2:2,0:0:0:0:
87,260,81151,1,2,1:2:0:0:
157,330,81485,1,0,2:2:0:0:
237,272,81818,2,0,L|300:287,1,44.9999976158143,10|0,2:2|2:2,0:0:0:0:
320,252,82151,1,2,2:2:0:0:
268,167,82485,6,0,P|258:123|286:70,1,89.9999952316285,2|2,1:2|2:2,0:0:0:0:
319,62,82985,1,2,2:2:0:0:
409,23,83318,1,2,2:2:0:0:
409,23,83485,2,0,P|442:31|468:36,1,44.9999976158143,2|2,2:2|2:2,0:0:0:0:
486,69,83818,5,2,1:2:0:0:
441,157,84151,1,2,2:2:0:0:
441,157,84318,2,0,P|435:192|431:261,1,89.9999952316285,2|0,2:2|2:2,0:0:0:0:
390,274,84818,1,2,2:2:0:0:
312,212,85151,1,2,2:2:0:0:
