osu file format v14

[General]
AudioFilename: audio.mp3
AudioLeadIn: 0
PreviewTime: 43735
Countdown: 0
SampleSet: Soft
StackLeniency: 0.7
Mode: 2
LetterboxInBreaks: 0
EpilepsyWarning: 1
WidescreenStoryboard: 1

[Editor]
Bookmarks: 13151,34485
DistanceSpacing: 1
BeatDivisor: 4
GridSize: 32
TimelineZoom: 2.5

[Metadata]
Title:Yasashii Suisei (TV Size)
TitleUnicode:優しい彗星 (TV Size)
Artist:YOASOBI
ArtistUnicode:YOASOBI
Creator:Souvenir
Version:Stars
Source:BEASTARS
Tags:Cyanus Madoka2574 second season 2nd ending ed ビースターズ japanese anime pop jpop j-pop 幾田りら ikuta rira lilas ayase ikura Sony Music Entertainment Japan Female Vocal BST Gentle Comet
BeatmapID:2904013
BeatmapSetID:1408427

[Difficulty]
HPDrainRate:6
CircleSize:4
OverallDifficulty:8.8
ApproachRate:8.8
SliderMultiplier:3.2
SliderTickRate:4

[Events]
//Background and Video events
Video,0,"ed.mp4"
0,0,"Yasashii suisei2.jpg",0,0
//Break Periods
//Storyboard Layer 0 (Background)
//Storyboard Layer 1 (Fail)
//Storyboard Layer 2 (Pass)
//Storyboard Layer 3 (Foreground)
//Storyboard Layer 4 (Overlay)
//Storyboard Sound Samples

[TimingPoints]
2485,666.666666666667,4,2,1,40,1,0
13151,-100,4,2,1,47,0,0
34485,-100,4,2,1,53,0,0
43818,-100,4,2,1,40,0,0
45151,-100,4,2,1,58,0,1
55818,-100,4,2,1,45,0,1
55985,-100,4,2,1,58,0,1
64485,-100,4,2,1,58,0,0
66485,-100,4,2,1,58,0,1
77151,-100,4,2,1,45,0,1
77318,-100,4,2,1,58,0,1
85151,-100,4,2,1,58,0,0
85818,-100,4,2,1,50,0,0
86151,-100,4,2,1,40,0,0
86485,-100,4,2,1,20,0,0
86818,-100,4,2,1,5,0,0

[Colours]
Combo1 : 255,157,157
Combo2 : 157,206,255
Combo3 : 212,212,212
Combo4 : 255,230,170

[HitObjects]
395,186,1818,5,0,0:0:0:0:
395,186,2151,1,0,0:0:0:0:
123,103,2485,5,2,1:2:0:0:
123,103,2818,1,0,0:0:0:0:
283,104,3151,1,0,0:0:0:0:
444,104,3485,1,0,0:0:0:0:
192,192,3818,5,2,1:2:0:0:
48,192,4151,1,0,0:0:0:0:
192,192,4485,1,0,0:0:0:0:
336,192,4818,2,0,L|336:95,1,80,0|0,0:0|0:0,0:0:0:0:
180,61,5151,6,0,L|180:160,1,80,2|0,1:2|0:0,0:0:0:0:
270,69,5485,2,0,P|318:61|258:249,1,400,0|0,0:0|0:0,0:0:0:0:
120,224,6485,6,0,P|72:196|53:78,1,160,2|0,1:2|0:0,0:0:0:0:
124,133,6985,1,0,0:0:0:0:
285,131,7151,1,2,1:2:0:0:
125,133,7485,1,0,0:0:0:0:
125,133,7651,1,0,0:0:0:0:
285,131,7818,1,2,1:2:0:0:
432,224,8818,5,0,0:0:0:0:
180,224,9151,1,2,1:2:0:0:
324,224,9485,1,0,0:0:0:0:
72,328,9818,1,2,1:2:0:0:
216,328,10151,1,0,0:0:0:0:
470,246,10485,6,0,P|453:150|302:95,1,240,2|0,1:2|0:0,0:0:0:0:
186,114,11151,2,0,P|114:209|195:257,1,240,0|0,0:0|0:0,0:0:0:0:
344,258,11818,6,0,P|308:166|154:131,1,240,2|0,1:2|0:0,0:0:0:0:
29,60,12485,2,0,L|30:219,1,160,2|0,0:0|0:0,0:0:0:0:
420,104,13151,6,0,L|500:104,1,80,10|0,1:2|0:0,0:0:0:0:
340,184,13485,2,0,L|248:184,1,80
412,280,13818,2,0,L|412:200,1,80,2|0,1:2|0:0,0:0:0:0:
258,119,14151,2,0,L|175:119,1,80,0|0,0:0|0:0,0:0:0:0:
406,125,14485,6,0,P|449:182|399:251,1,160,10|0,1:2|0:0,0:0:0:0:
240,112,15151,2,0,L|152:112,1,80,2|0,1:2|0:0,0:0:0:0:
312,112,15485,1,0,1:2:0:0:
160,208,15651,1,0,0:0:0:0:
388,208,15818,5,10,1:2:0:0:
464,208,15985,1,0,0:0:0:0:
388,128,16151,2,0,L|296:128,2,80,0|0|2,1:2|0:0|1:2,0:0:0:0:
464,128,16651,1,0,0:0:0:0:
320,56,16818,2,0,L|320:156,1,80,0|0,1:2|0:0,0:0:0:0:
96,184,17151,6,0,L|16:184,1,80,10|0,1:2|0:0,0:0:0:0:
168,288,17485,2,0,L|264:288,1,80,0|0,1:2|0:0,0:0:0:0:
24,64,17818,2,0,L|104:64,1,80,2|0,1:2|0:0,0:0:0:0:
256,64,18151,2,0,L|256:168,1,80,0|0,1:2|0:0,0:0:0:0:
28,160,18485,6,0,L|28:244,1,80,10|0,1:2|0:0,0:0:0:0:
180,144,18818,2,0,L|260:144,1,80,0|0,1:2|0:0,0:0:0:0:
112,92,19151,2,0,L|112:192,1,80,2|0,1:2|0:0,0:0:0:0:
264,92,19485,2,0,L|264:192,1,80,0|0,1:2|0:0,0:0:0:0:
488,188,19818,6,0,L|488:104,1,80,10|0,1:2|0:0,0:0:0:0:
336,52,20151,2,0,L|244:52,1,80,0|0,1:2|0:0,0:0:0:0:
408,144,20485,1,2,1:2:0:0:
408,144,20651,1,0,0:0:0:0:
176,136,20818,1,0,1:2:0:0:
176,136,20985,1,0,0:0:0:0:
408,132,21151,6,0,P|432:148|400:260,1,160,10|0,1:2|1:2,0:0:0:0:
332,260,21651,1,0,0:0:0:0:
181,257,21818,1,2,1:2:0:0:
181,257,21985,1,0,0:0:0:0:
336,168,22151,1,0,1:2:0:0:
336,168,22318,1,0,0:0:0:0:
176,168,22485,5,10,1:2:0:0:
176,168,22651,1,0,0:0:0:0:
420,172,22818,1,0,1:2:0:0:
151,73,23151,2,0,P|82:108|21:176,1,160,0|0,1:2|1:2,0:0:0:0:
420,84,23818,5,10,1:2:0:0:
260,177,24151,2,0,L|180:177,1,80,0|0,1:2|0:0,0:0:0:0:
336,172,24485,1,2,1:2:0:0:
336,88,24651,1,0,0:0:0:0:
101,85,24818,1,0,1:2:0:0:
336,88,25151,6,0,L|432:88,1,80,10|0,1:2|0:0,0:0:0:0:
188,172,25485,1,0,1:2:0:0:
188,88,25651,1,0,0:0:0:0:
416,172,25818,2,0,L|328:172,2,80,2|0|0,1:2|0:0|1:2,0:0:0:0:
268,172,26318,1,0,0:0:0:0:
40,72,26485,5,10,1:2:0:0:
40,72,26651,1,0,0:0:0:0:
192,72,26818,2,0,L|272:72,2,80,0|0|2,1:2|0:0|1:2,0:0:0:0:
109,73,27318,1,0,0:0:0:0:
109,73,27485,1,0,1:2:0:0:
192,72,27651,1,0,0:0:0:0:
462,89,27818,6,0,L|462:182,1,80,10|0,1:2|0:0,0:0:0:0:
235,168,28151,2,0,L|336:168,1,80,0|0,1:2|0:0,0:0:0:0:
168,92,28485,1,2,1:2:0:0:
92,92,28651,1,0,0:0:0:0:
168,92,28818,1,0,1:2:0:0:
244,92,28985,1,0,0:0:0:0:
468,100,29151,6,0,L|468:264,1,160,10|0,1:2|1:2,0:0:0:0:
232,264,29651,1,0,0:0:0:0:
156,264,29818,1,2,1:2:0:0:
232,188,29985,1,0,0:0:0:0:
456,196,30151,2,0,L|456:112,1,80,0|0,1:2|0:0,0:0:0:0:
217,119,30485,6,0,L|117:119,1,80,10|0,1:2|0:0,0:0:0:0:
376,120,30818,1,0,1:2:0:0:
168,288,31151,2,0,L|168:208,1,80,2|0,1:2|0:0,0:0:0:0:
396,240,31485,2,0,L|396:144,1,80,0|0,1:2|0:0,0:0:0:0:
104,52,31818,5,10,1:2:0:0:
28,64,31985,1,0,0:0:0:0:
28,140,32151,1,0,1:2:0:0:
104,160,32318,1,0,0:0:0:0:
328,172,32485,1,2,1:2:0:0:
412,96,32651,1,0,0:0:0:0:
492,96,32818,1,0,1:2:0:0:
412,96,32985,1,0,0:0:0:0:
108,100,33151,5,10,1:2:0:0:
184,120,33318,1,0,0:0:0:0:
108,100,33485,1,0,1:2:0:0:
32,120,33651,1,0,0:0:0:0:
256,180,33818,1,2,1:2:0:0:
336,180,33985,1,0,0:0:0:0:
416,180,34151,1,0,1:2:0:0:
496,180,34318,1,0,0:0:0:0:
176,96,34485,6,0,P|156:108|184:224,1,160,10|0,1:2|1:2,0:0:0:0:
416,92,34985,1,0,0:0:0:0:
416,92,35151,1,2,1:2:0:0:
268,92,35318,2,0,L|176:92,1,80,0|0,0:0|1:2,0:0:0:0:
416,176,35651,1,0,0:0:0:0:
496,176,35818,6,0,L|416:176,1,80,10|0,1:2|0:0,0:0:0:0:
336,176,36151,2,0,L|428:176,1,80,0|0,1:2|0:0,0:0:0:0:
188,100,36485,2,0,L|104:100,1,80,2|0,1:2|0:0,0:0:0:0:
28,100,36818,2,0,L|28:200,1,80,0|0,1:2|0:0,0:0:0:0:
352,104,37151,6,0,P|376:116|344:224,1,160,10|0,1:2|1:2,0:0:0:0:
276,220,37651,1,0,0:0:0:0:
52,88,37818,2,0,B|52:168|52:168|132:172|132:172|48:188,1,240,2|0,1:2|0:0,0:0:0:0:
336,88,38485,6,0,L|432:88,1,80,10|0,1:2|0:0,0:0:0:0:
268,176,38818,2,0,L|184:176,1,80,0|0,1:2|0:0,0:0:0:0:
412,208,39151,2,0,L|324:208,1,80,2|0,1:2|0:0,0:0:0:0:
184,64,39485,2,0,L|264:64,1,80,0|0,1:2|0:0,0:0:0:0:
40,64,39818,6,0,L|40:236,1,160,10|0,1:2|1:2,0:0:0:0:
120,219,40318,1,0,0:0:0:0:
200,220,40485,1,2,1:2:0:0:
459,224,40818,1,0,1:2:0:0:
188,60,41151,6,0,L|188:144,1,80,10|0,1:2|0:0,0:0:0:0:
416,64,41485,1,0,1:2:0:0:
272,232,41651,2,0,L|160:232,1,80,0|2,0:0|1:2,0:0:0:0:
272,232,41985,1,0,0:0:0:0:
428,232,42151,2,0,L|428:148,1,80,0|0,1:2|0:0,0:0:0:0:
100,144,42485,5,10,1:2:0:0:
256,192,42651,12,0,43651,0:0:0:0:
231,94,43818,5,0,1:2:0:0:
231,94,44151,1,0,1:2:0:0:
463,88,44485,1,0,1:2:0:0:
463,88,44818,1,0,1:2:0:0:
72,88,45151,6,0,P|28:150|69:221,1,160,4|0,1:0|1:2,0:0:0:0:
224,87,45651,2,0,L|136:87,1,80,0|10,1:0|1:2,0:0:0:0:
389,102,45985,2,0,P|425:122|373:210,1,160,0|0,1:0|0:0,0:0:0:0:
140,270,46485,6,0,L|140:178,1,80,8|0,1:2|0:0,0:0:0:0:
300,122,46818,1,0,1:0:0:0:
70,272,46985,2,0,L|69:186,1,80,0|10,1:0|1:2,0:0:0:0:
316,155,47318,2,0,P|375:192|386:295,1,160,0|0,1:0|0:0,0:0:0:0:
149,214,47818,6,0,P|106:147|165:87,1,160,8|0,1:2|1:0,0:0:0:0:
310,65,48318,2,0,L|310:144,1,80,0|10,1:0|1:2,0:0:0:0:
64,118,48651,2,0,P|46:161|118:253,1,160,0|0,1:0|0:0,0:0:0:0:
352,216,49151,6,0,L|352:128,1,80,8|0,1:2|0:0,0:0:0:0:
200,84,49485,2,0,L|280:84,1,80,0|0,1:0|1:0,0:0:0:0:
36,80,49818,1,10,1:2:0:0:
36,80,49985,1,0,0:0:0:0:
200,84,50151,1,0,1:0:0:0:
200,84,50318,1,0,0:0:0:0:
444,83,50485,6,0,P|490:132|432:210,1,160,8|0,1:2|1:0,0:0:0:0:
290,185,50985,2,0,L|291:105,1,80,0|10,1:0|1:2,0:0:0:0:
370,104,51318,1,0,1:0:0:0:
210,246,51485,2,0,L|116:245,1,80,0|0,1:0|0:0,0:0:0:0:
378,194,51818,6,0,L|378:278,1,80,8|0,1:2|0:0,0:0:0:0:
136,166,52151,1,0,1:0:0:0:
285,151,52318,1,0,1:0:0:0:
136,166,52485,1,10,1:2:0:0:
136,166,52651,1,0,1:0:0:0:
381,244,52818,2,0,L|384:162,1,80,0|0,1:0|0:0,0:0:0:0:
96,57,53151,6,0,B|176:57|176:57|64:57,1,160,8|0,1:2|1:0,0:0:0:0:
256,112,53651,2,0,L|92:112,1,160,0|0,1:0|1:0,0:0:0:0:
256,308,54151,2,0,B|176:308|176:308|264:308,1,160,0|8,1:0|1:2,0:0:0:0:
416,223,54651,6,0,L|500:223,2,80,0|0|0,0:0|1:0|1:0,0:0:0:0:
176,224,55151,1,10,1:2:0:0:
96,224,55318,1,0,1:0:0:0:
16,224,55485,1,0,1:0:0:0:
420,100,55818,6,0,P|463:166|418:229,1,160,12|0,1:2|1:0,0:0:0:0:
263,176,56318,2,0,L|360:177,1,80,0|10,1:0|1:2,0:0:0:0:
106,105,56651,2,0,L|106:273,1,160,0|0,1:0|0:0,0:0:0:0:
339,107,57151,6,0,P|375:127|323:219,1,160,8|0,1:2|1:0,0:0:0:0:
181,214,57651,1,0,1:0:0:0:
408,72,57818,1,10,1:2:0:0:
488,72,57985,1,0,1:0:0:0:
488,152,58151,1,0,1:0:0:0:
408,156,58318,1,0,0:0:0:0:
159,151,58485,6,0,P|121:214|170:289,1,160,8|0,1:2|1:0,0:0:0:0:
319,158,58985,2,0,L|226:158,1,80,0|10,1:0|1:2,0:0:0:0:
479,112,59318,2,0,L|479:288,1,160,0|0,1:0|0:0,0:0:0:0:
237,127,59818,6,0,P|200:178|299:305,1,240,8|0,1:2|1:0,0:0:0:0:
48,260,60485,2,0,B|48:180|48:180|128:180|128:180|128:92,1,240,10|0,1:2|0:0,0:0:0:0:
388,56,61151,6,0,B|452:56|452:56|504:96|464:144|464:144|376:144,1,240,8|0,1:2|0:0,0:0:0:0:
148,64,61818,2,0,L|149:150,1,80,10|0,1:2|0:0,0:0:0:0:
391,159,62151,2,0,P|439:212|372:289,1,160,0|8,1:0|1:2,0:0:0:0:
322,263,62651,1,0,0:0:0:0:
241,230,62818,6,0,L|329:230,1,80,0|0,1:0|0:0,0:0:0:0:
84,128,63151,2,0,L|84:212,1,80,10|0,1:2|0:0,0:0:0:0:
244,124,63485,2,0,L|244:216,1,80,0|0,1:0|0:0,0:0:0:0:
472,260,63818,6,0,B|472:180|472:180|392:180|392:180|392:92,1,240,8|0,1:2|0:0,0:0:0:0:
152,48,64485,2,0,P|104:116|168:156,1,160,10|0,1:2|1:0,0:0:0:0:
428,64,65151,6,0,L|428:160,1,80,0|0,1:2|0:0,0:0:0:0:
272,128,65485,2,0,L|192:128,1,80,0|0,1:2|0:0,0:0:0:0:
428,248,65818,2,0,L|428:344,1,80,0|0,1:2|0:0,0:0:0:0:
272,260,66152,2,0,L|180:260,1,80,0|0,1:2|0:0,0:0:0:0:
476,160,66485,6,0,P|473:239|392:281,1,160,4|0,1:0|1:2,0:0:0:0:
247,158,66985,2,0,L|332:157,1,80,0|10,1:0|1:2,0:0:0:0:
87,127,67318,2,0,P|46:179|88:266,1,160,0|0,1:0|0:0,0:0:0:0:
317,152,67818,6,0,L|318:235,1,80,8|0,1:2|0:0,0:0:0:0:
156,232,68151,1,0,1:0:0:0:
388,235,68318,2,0,L|389:152,1,80,0|10,1:0|1:2,0:0:0:0:
144,69,68651,2,0,P|116:93|164:205,1,160,0|0,1:0|0:0,0:0:0:0:
383,72,69151,6,0,P|431:127|360:188,1,160,8|0,1:2|1:0,0:0:0:0:
226,162,69651,2,0,L|227:247,1,80,0|10,1:0|1:2,0:0:0:0:
474,271,69985,2,0,L|290:271,1,160,0|0,1:0|0:0,0:0:0:0:
74,234,70485,6,0,L|74:154,1,80,8|0,1:2|0:0,0:0:0:0:
235,98,70818,2,0,L|143:98,1,80,0|0,1:0|1:0,0:0:0:0:
396,246,71151,1,10,1:2:0:0:
396,246,71318,1,0,0:0:0:0:
236,176,71485,1,0,1:0:0:0:
316,176,71651,1,0,0:0:0:0:
56,104,71818,6,0,P|17:142|59:228,1,160,8|0,1:2|1:0,0:0:0:0:
216,263,72318,2,0,L|120:263,1,80,0|10,1:0|1:2,0:0:0:0:
216,263,72651,1,0,1:0:0:0:
372,170,72818,2,0,L|372:260,1,80,0|0,1:0|0:0,0:0:0:0:
128,96,73151,6,0,L|128:184,1,80,8|0,1:2|0:0,0:0:0:0:
370,222,73485,1,0,1:0:0:0:
221,220,73651,1,0,1:0:0:0:
371,163,73818,1,10,1:2:0:0:
371,163,73985,1,0,1:0:0:0:
129,255,74151,2,0,L|127:167,1,80,0|0,1:0|0:0,0:0:0:0:
392,232,74485,6,0,P|424:216|384:124,1,160,8|0,1:2|1:0,0:0:0:0:
228,124,74985,2,0,L|148:124,1,80,0|10,1:0|1:2,0:0:0:0:
399,197,75318,2,0,P|473:153|466:64,1,160,0|0,1:0|0:0,0:0:0:0:
225,197,75818,5,8,1:2:0:0:
308,198,75985,1,0,0:0:0:0:
388,280,76151,1,0,1:0:0:0:
308,280,76318,1,0,1:0:0:0:
60,160,76485,1,10,1:2:0:0:
140,160,76651,1,0,1:0:0:0:
60,160,76818,1,0,1:0:0:0:
464,72,77151,6,0,P|464:149|371:186,1,160,12|0,1:2|1:0,0:0:0:0:
237,136,77651,2,0,L|320:136,1,80,0|10,1:0|1:2,0:0:0:0:
74,268,77985,2,0,P|78:194|166:167,1,160,0|0,1:0|0:0,0:0:0:0:
390,110,78485,6,0,P|434:170|386:230,1,160,8|0,1:2|1:0,0:0:0:0:
310,230,78985,1,0,1:0:0:0:
70,138,79151,1,10,1:2:0:0:
150,138,79318,1,0,1:0:0:0:
230,138,79485,2,0,L|143:138,1,80,0|0,1:0|0:0,0:0:0:0:
397,36,79818,6,0,P|397:107|317:163,1,160,8|0,1:2|1:0,0:0:0:0:
172,152,80318,2,0,L|69:152,1,80,0|10,1:0|1:2,0:0:0:0:
336,316,80651,2,0,P|406:273|416:187,1,160,0|0,1:0|0:0,0:0:0:0:
177,211,81151,6,0,L|89:211,1,80,8|0,1:2|0:0,0:0:0:0:
257,159,81485,2,0,L|349:159,1,80,0|0,1:0|1:0,0:0:0:0:
95,72,81818,1,10,1:2:0:0:
175,72,81985,1,0,1:0:0:0:
415,225,82151,1,0,1:0:0:0:
335,225,82318,1,0,0:0:0:0:
80,64,82485,6,0,P|32:132|92:176,1,160,8|0,1:2|1:0,0:0:0:0:
237,173,82985,2,0,L|237:81,1,80,0|10,0:0|1:2,0:0:0:0:
476,169,83318,1,0,0:0:0:0:
396,169,83485,1,0,1:0:0:0:
316,169,83651,1,0,0:0:0:0:
60,100,83818,6,0,L|60:192,1,80,8|0,1:2|0:0,0:0:0:0:
212,284,84151,2,0,L|128:284,1,80,0|0,1:0|0:0,0:0:0:0:
380,288,84485,1,10,1:2:0:0:
380,288,84651,1,0,0:0:0:0:
220,288,84818,5,0,1:0:0:0:
256,192,85151,12,0,86818,1:0:0:0:
