osu file format v14

[General]
AudioFilename: audio.mp3
AudioLeadIn: 0
PreviewTime: 43735
Countdown: 0
SampleSet: Soft
StackLeniency: 0.7
Mode: 2
LetterboxInBreaks: 0
EpilepsyWarning: 1
WidescreenStoryboard: 1

[Editor]
Bookmarks: 13151,23818
DistanceSpacing: 1
BeatDivisor: 4
GridSize: 32
TimelineZoom: 2.4

[Metadata]
Title:Yasashii Suisei (TV Size)
TitleUnicode:優しい彗星 (TV Size)
Artist:YOASOBI
ArtistUnicode:YOASOBI
Creator:Souvenir
Version:Salad
Source:BEASTARS
Tags:Cyanus Madoka2574 second season 2nd ending ed ビースターズ japanese anime pop jpop j-pop 幾田りら ikuta rira lilas ayase ikura Sony Music Entertainment Japan Female Vocal BST Gentle Comet
BeatmapID:2904012
BeatmapSetID:1408427

[Difficulty]
HPDrainRate:4
CircleSize:3.2
OverallDifficulty:6.8
ApproachRate:6.8
SliderMultiplier:2.55
SliderTickRate:2

[Events]
//Background and Video events
Video,0,"ed.mp4"
0,0,"Yasashii suisei2.jpg",0,0
//Break Periods
//Storyboard Layer 0 (Background)
//Storyboard Layer 1 (Fail)
//Storyboard Layer 2 (Pass)
//Storyboard Layer 3 (Foreground)
//Storyboard Layer 4 (Overlay)
//Storyboard Sound Samples

[TimingPoints]
2485,666.666666666667,4,2,1,40,1,0
13151,-100,4,2,1,47,0,0
34485,-100,4,2,1,53,0,0
43818,-100,4,2,1,40,0,0
45151,-100,4,2,1,58,0,1
55818,-100,4,2,1,45,0,1
55985,-100,4,2,1,58,0,1
64485,-100,4,2,1,58,0,0
66485,-100,4,2,1,58,0,1
77151,-100,4,2,1,45,0,1
77318,-100,4,2,1,58,0,1
85151,-100,4,2,1,58,0,0
85818,-100,4,2,1,50,0,0
86151,-100,4,2,1,40,0,0
86485,-100,4,2,1,20,0,0
86818,-100,4,2,1,5,0,0

[Colours]
Combo1 : 255,157,157
Combo2 : 157,206,255
Combo3 : 212,212,212
Combo4 : 255,230,170

[HitObjects]
52,172,1818,6,0,L|53:321,1,127.5,0|0,0:0|0:0,0:0:0:0:
180,172,2485,5,2,1:2:0:0:
308,172,2818,2,0,L|169:172,1,127.5,0|0,0:0|0:0,0:0:0:0:
52,172,3485,1,0,0:0:0:0:
180,172,3818,6,0,L|318:172,1,127.5,2|0,1:2|0:0,0:0:0:0:
436,172,4485,1,0,0:0:0:0:
308,172,4818,5,0,0:0:0:0:
232,176,4985,2,0,P|200:204|244:272,1,127.5
308,268,5485,1,0,0:0:0:0:
308,268,6318,5,0,0:0:0:0:
232,267,6485,2,0,L|84:267,1,127.5,2|0,1:2|0:0,0:0:0:0:
181,192,6985,2,0,P|233:180|173:100,1,191.25,0|0,0:0|0:0,0:0:0:0:
104,98,7651,1,0,0:0:0:0:
104,98,7818,1,2,1:2:0:0:
81,123,8818,5,0,0:0:0:0:
209,123,9151,1,2,1:2:0:0:
81,123,9485,1,0,0:0:0:0:
209,123,9818,1,2,1:2:0:0:
209,123,10151,1,0,0:0:0:0:
54,122,10485,6,0,P|61:268|171:303,1,255,2|0,1:2|0:0,0:0:0:0:
403,268,11818,2,0,P|405:133|276:118,1,255,2|2,1:2|0:0,0:0:0:0:
27,138,13151,5,10,1:2:0:0:
27,138,13485,2,0,L|184:139,2,127.5,0|2|0,0:0|1:2|0:0,0:0:0:0:
282,55,14485,5,10,1:2:0:0:
409,54,14818,1,0,0:0:0:0:
409,54,15151,1,2,1:2:0:0:
282,56,15485,1,0,1:2:0:0:
206,57,15651,1,0,0:0:0:0:
368,175,15985,5,0,0:0:0:0:
445,175,16151,2,0,P|435:265|284:308,1,255,0|0,1:2|1:2,0:0:0:0:
39,247,17151,5,10,1:2:0:0:
167,246,17485,1,0,1:2:0:0:
421,248,17818,1,2,1:2:0:0:
293,43,18151,2,0,P|215:103|301:209,1,255,0|0,1:2|1:2,0:0:0:0:
421,194,19151,5,2,1:2:0:0:
421,194,19485,1,0,1:2:0:0:
162,102,19818,5,10,1:2:0:0:
291,106,20151,1,0,1:2:0:0:
291,106,20485,1,2,1:2:0:0:
162,102,20818,1,0,1:2:0:0:
418,62,21151,6,0,L|418:207,1,127.5,10|0,1:2|1:2,0:0:0:0:
289,216,21818,2,0,L|173:313,1,127.5,2|0,1:2|1:2,0:0:0:0:
61,191,22485,6,0,L|203:191,1,127.5,10|0,1:2|1:2,0:0:0:0:
445,194,23151,1,0,1:2:0:0:
445,194,23485,1,0,1:2:0:0:
179,124,23818,5,10,1:2:0:0:
307,123,24151,2,0,L|174:123,2,127.5,0|2|0,1:2|1:2|1:2,0:0:0:0:
436,120,25151,5,10,1:2:0:0:
170,66,25485,1,0,1:2:0:0:
170,66,25818,1,2,1:2:0:0:
296,65,26151,1,0,1:2:0:0:
374,65,26318,1,0,0:0:0:0:
219,138,26651,5,0,0:0:0:0:
141,142,26818,2,0,P|100:199|216:316,1,255,0|0,1:2|1:2,0:0:0:0:
279,301,27651,1,0,0:0:0:0:
441,250,27818,6,0,L|441:102,1,127.5,10|0,1:2|1:2,0:0:0:0:
365,77,28318,2,0,L|153:77,1,191.25,0|0,0:0|1:2,0:0:0:0:
251,171,28985,1,0,0:0:0:0:
412,173,29151,6,0,P|467:203|401:350,1,255,10|2,1:2|1:2,0:0:0:0:
282,349,30151,1,0,1:2:0:0:
20,78,30485,5,10,1:2:0:0:
147,79,30818,1,0,1:2:0:0:
147,79,31151,1,2,1:2:0:0:
275,78,31485,1,0,1:2:0:0:
21,77,31818,6,0,B|60:205|60:205|196:205,1,255,10|2,1:2|1:2,0:0:0:0:
477,72,33151,2,0,B|466:202|466:202|320:202,1,255,10|2,1:2|1:2,0:0:0:0:
483,200,34151,1,0,1:2:0:0:
229,67,34485,6,0,L|229:224,1,127.5,10|0,1:2|1:2,0:0:0:0:
152,190,34985,2,0,L|300:190,1,127.5,0|0,0:0|0:0,0:0:0:0:
356,191,35485,1,0,1:2:0:0:
432,192,35651,1,0,0:0:0:0:
356,191,35818,6,0,L|204:191,1,127.5,10|0,1:2|1:2,0:0:0:0:
99,237,36485,2,0,L|238:237,1,127.5,2|0,1:2|1:2,0:0:0:0:
491,82,37151,6,0,B|491:179|491:179|381:179,1,191.25,10|0,1:2|0:0,0:0:0:0:
235,80,37818,2,0,P|173:141|243:196,1,191.25,2|0,1:2|0:0,0:0:0:0:
312,234,38485,5,10,1:2:0:0:
186,232,38818,1,0,1:2:0:0:
33,290,39151,1,2,1:2:0:0:
159,290,39485,1,0,1:2:0:0:
406,50,39818,6,0,P|410:167|326:180,1,191.25,10|0,1:2|0:0,0:0:0:0:
281,182,40485,1,2,1:2:0:0:
152,177,40818,1,0,1:2:0:0:
406,50,41151,5,10,1:2:0:0:
280,47,41485,1,0,1:2:0:0:
204,47,41651,1,0,0:0:0:0:
332,47,41985,1,0,0:0:0:0:
406,50,42151,1,0,1:2:0:0:
139,51,42485,5,10,1:2:0:0:
256,192,42818,12,0,43818,1:2:0:0:
349,92,44151,5,0,1:2:0:0:
349,92,44485,1,0,1:2:0:0:
349,92,44818,1,0,1:2:0:0:
79,87,45151,6,0,L|80:237,1,127.5,4|0,1:0|1:2,0:0:0:0:
157,211,45651,1,0,1:0:0:0:
309,72,45985,2,0,P|369:108|371:163,1,127.5,0|0,1:0|0:0,0:0:0:0:
206,209,46485,6,0,L|78:209,1,127.5,8|0,1:2|1:0,0:0:0:0:
155,176,46985,1,0,1:0:0:0:
308,200,47318,2,0,L|439:200,1,127.5,0|0,1:0|0:0,0:0:0:0:
269,115,47818,6,0,L|141:115,1,127.5,8|0,1:2|1:0,0:0:0:0:
218,57,48318,1,0,1:0:0:0:
371,181,48651,2,0,P|403:231|358:313,1,127.5,0|0,1:0|0:0,0:0:0:0:
218,95,49151,5,8,1:2:0:0:
218,95,49485,1,0,1:0:0:0:
488,194,49818,1,10,1:2:0:0:
488,194,50151,1,0,1:0:0:0:
222,71,50485,6,0,L|90:71,1,127.5,8|0,1:2|1:0,0:0:0:0:
17,78,50985,2,0,L|17:214,1,127.5,0|0,1:0|1:0,0:0:0:0:
94,272,51485,1,0,1:0:0:0:
365,92,51818,6,0,L|364:225,1,127.5,8|0,1:2|1:0,0:0:0:0:
288,214,52318,2,0,L|148:214,1,127.5,0|0,1:0|1:0,0:0:0:0:
82,205,52818,1,0,1:0:0:0:
354,97,53151,6,0,L|152:97,2,191.25,8|0|0,1:2|1:0|1:0,0:0:0:0:
162,97,54651,5,0,0:0:0:0:
87,98,54818,1,0,1:0:0:0:
16,184,55151,1,10,1:2:0:0:
93,185,55318,1,0,1:0:0:0:
170,187,55485,1,0,1:0:0:0:
455,68,55818,6,0,L|448:203,1,127.5,12|0,1:2|1:0,0:0:0:0:
372,196,56318,1,0,1:0:0:0:
219,194,56651,2,0,L|87:194,1,127.5,0|0,1:0|0:0,0:0:0:0:
258,68,57151,6,0,L|418:68,1,127.5,8|0,1:2|1:0,0:0:0:0:
309,165,57651,1,0,1:0:0:0:
142,118,57818,1,10,1:2:0:0:
77,119,57985,1,0,1:0:0:0:
77,119,58151,1,0,1:0:0:0:
142,118,58318,1,0,0:0:0:0:
309,114,58485,6,0,L|454:114,1,127.5,8|0,1:2|1:0,0:0:0:0:
360,194,58985,1,0,1:0:0:0:
206,266,59318,2,0,P|174:237|217:162,1,127.5,0|0,1:0|0:0,0:0:0:0:
368,129,59818,6,0,P|401:172|351:237,1,127.5,8|0,1:2|1:0,0:0:0:0:
216,91,60485,2,0,B|216:181|216:181|351:181,1,191.25,10|0,1:2|0:0,0:0:0:0:
484,193,61151,6,0,B|484:284|484:284|346:284,1,191.25,8|0,1:2|0:0,0:0:0:0:
216,252,61818,1,10,1:2:0:0:
86,227,62151,2,0,L|362:229,1,255,0|0,1:0|1:0,0:0:0:0:
66,71,63151,5,10,1:2:0:0:
194,74,63485,1,0,1:0:0:0:
460,70,63818,6,0,B|484:117|484:117|483:227|483:227|391:268,1,255,8|10,1:2|1:2,0:0:0:0:
189,228,65151,5,0,1:2:0:0:
317,240,65485,1,0,1:2:0:0:
185,197,65818,1,0,1:2:0:0:
178,160,66151,1,0,1:2:0:0:
460,130,66485,6,0,L|461:263,1,127.5,4|0,1:0|1:2,0:0:0:0:
383,240,66985,1,0,1:0:0:0:
230,104,67318,2,0,P|242:164|302:186,1,127.5,0|0,1:0|0:0,0:0:0:0:
466,74,67818,6,0,L|466:212,1,127.5,8|0,1:2|1:0,0:0:0:0:
389,195,68318,1,0,1:0:0:0:
236,82,68651,2,0,L|90:82,1,127.5,0|0,1:0|0:0,0:0:0:0:
276,237,69151,6,0,L|415:237,1,127.5,8|0,1:2|1:0,0:0:0:0:
327,166,69651,1,0,1:0:0:0:
174,111,69985,2,0,P|137:159|136:237,1,127.5,0|0,1:0|0:0,0:0:0:0:
300,149,70485,5,8,1:2:0:0:
300,149,70818,1,0,1:0:0:0:
26,229,71151,1,10,1:2:0:0:
26,229,71485,1,0,1:0:0:0:
292,228,71818,6,0,L|433:228,1,127.5,8|0,1:2|1:0,0:0:0:0:
496,228,72318,2,0,L|496:89,1,127.5,0|0,1:0|1:0,0:0:0:0:
419,100,72818,1,0,1:0:0:0:
148,109,73151,6,0,L|148:256,1,127.5,8|0,1:2|1:0,0:0:0:0:
226,234,73651,2,0,L|369:234,1,127.5,0|0,1:0|1:0,0:0:0:0:
430,233,74151,1,0,1:0:0:0:
153,62,74485,6,0,L|284:62,1,127.5,8|0,1:2|1:0,0:0:0:0:
357,66,74985,1,0,1:0:0:0:
204,183,75318,2,0,L|59:183,1,127.5,0|0,1:0|0:0,0:0:0:0:
243,316,75818,5,8,1:2:0:0:
372,318,76151,1,0,1:0:0:0:
372,318,76485,1,10,1:2:0:0:
295,317,76651,1,0,1:0:0:0:
217,316,76818,1,0,1:0:0:0:
488,88,77151,6,0,L|489:222,1,127.5,12|0,1:2|1:0,0:0:0:0:
413,210,77651,1,0,1:0:0:0:
258,81,77985,2,0,L|258:216,1,127.5,0|0,1:0|0:0,0:0:0:0:
424,289,78485,6,0,L|273:289,1,127.5,8|0,1:2|1:0,0:0:0:0:
452,108,79151,1,10,1:2:0:0:
452,108,79318,1,0,1:0:0:0:
374,108,79485,1,0,1:0:0:0:
103,84,79818,6,0,L|103:222,1,127.5,8|0,1:2|1:0,0:0:0:0:
180,206,80318,1,0,1:0:0:0:
333,191,80651,2,0,L|333:323,1,127.5,0|0,1:0|0:0,0:0:0:0:
167,273,81151,5,8,1:2:0:0:
41,270,81485,1,0,1:0:0:0:
192,179,81818,1,10,1:2:0:0:
320,175,82151,1,0,1:0:0:0:
44,88,82485,6,0,L|44:225,1,127.5,8|0,1:2|1:0,0:0:0:0:
122,217,82985,1,0,0:0:0:0:
274,271,83318,1,0,0:0:0:0:
274,271,83485,1,0,1:0:0:0:
198,272,83651,1,0,0:0:0:0:
364,196,83818,6,0,L|516:195,1,127.5,8|0,1:2|1:0,0:0:0:0:
415,138,84318,2,0,L|263:138,1,127.5
454,67,84818,5,0,1:0:0:0:
256,192,85151,12,0,86818,1:0:0:0:
