osu file format v14

[General]
AudioFilename: audio.mp3
AudioLeadIn: 0
PreviewTime: 43735
Countdown: 0
SampleSet: Soft
StackLeniency: 0.7
Mode: 2
LetterboxInBreaks: 0
EpilepsyWarning: 1
WidescreenStoryboard: 1

[Editor]
DistanceSpacing: 1
BeatDivisor: 4
GridSize: 4
TimelineZoom: 1.3

[Metadata]
Title:Yasashii Suisei (TV Size)
TitleUnicode:優しい彗星 (TV Size)
Artist:YOASOBI
ArtistUnicode:YOASOBI
Creator:Souvenir
Version:Cyanus' Cup
Source:BEASTARS
Tags:Cyanus Madoka2574 second season 2nd ending ed ビースターズ japanese anime pop jpop j-pop 幾田りら ikuta rira lilas ayase ikura Sony Music Entertainment Japan Female Vocal BST Gentle Comet
BeatmapID:2904009
BeatmapSetID:1408427

[Difficulty]
HPDrainRate:3
CircleSize:2.8
OverallDifficulty:5.8
ApproachRate:5.8
SliderMultiplier:2.4
SliderTickRate:2

[Events]
//Background and Video events
Video,0,"ed.mp4"
0,0,"Yasashii suisei2.jpg",0,0
//Break Periods
//Storyboard Layer 0 (Background)
//Storyboard Layer 1 (Fail)
//Storyboard Layer 2 (Pass)
//Storyboard Layer 3 (Foreground)
//Storyboard Layer 4 (Overlay)
//Storyboard Sound Samples

[TimingPoints]
2485,666.666666666667,4,2,1,40,1,0
13151,-100,4,2,1,47,0,0
34485,-100,4,2,1,53,0,0
43818,-100,4,2,1,40,0,0
45151,-100,4,2,1,58,0,1
55818,-100,4,2,1,45,0,1
55985,-100,4,2,1,58,0,1
64485,-100,4,2,1,58,0,0
66485,-100,4,2,1,58,0,1
77151,-100,4,2,1,45,0,1
77318,-100,4,2,1,58,0,1
85151,-100,4,2,1,58,0,0
85818,-100,4,2,1,50,0,0
86151,-100,4,2,1,40,0,0
86485,-100,4,2,1,20,0,0
86818,-100,4,2,1,5,0,0

[Colours]
Combo1 : 255,157,157
Combo2 : 157,206,255
Combo3 : 212,212,212
Combo4 : 255,230,170

[HitObjects]
104,168,2485,5,2,1:2:0:0:
344,176,3818,1,2,1:2:0:0:
104,168,5151,1,2,1:2:0:0:
344,296,6485,6,0,L|503:117,2,240,2|2|2,1:2|1:2|1:2,0:0:0:0:
168,296,9151,6,0,L|9:117,2,240,2|2|2,1:2|1:2|1:2,0:0:0:0:
408,208,11818,5,2,1:2:0:0:
424,176,12484,1,2,0:0:0:0:
136,120,13151,6,0,P|80:200|172:276,1,240,10|2,1:2|1:2,0:0:0:0:
292,168,14150,1,0,0:0:0:0:
412,248,14485,6,0,L|480:148,2,120,10|0|2,1:2|0:0|1:2,0:0:0:0:
292,260,15485,1,0,1:2:0:0:
176,264,15818,5,10,1:2:0:0:
200,230,16151,1,0,1:2:0:0:
440,192,16818,1,0,1:2:0:0:
320,174,17151,6,0,L|256:70,2,120,10|0|2,1:2|1:2|1:2,0:0:0:0:
199,243,18151,6,0,P|98:227|153:136,1,240,0|0,1:2|1:2,0:0:0:0:
268,88,19151,2,0,L|248:212,1,120,2|0,1:2|1:2,0:0:0:0:
368,72,19818,6,0,L|460:160,2,120,10|0|2,1:2|1:2|1:2,0:0:0:0:
248,72,20818,1,0,1:2:0:0:
128,60,21151,6,0,B|76:164|76:164|280:144|432:212|432:212|364:320,1,600,10|0,1:2|1:2,0:0:0:0:
248,232,23151,5,0,1:2:0:0:
248,200,23485,1,0,1:2:0:0:
392,136,23818,5,10,1:2:0:0:
272,85,24151,1,0,1:2:0:0:
152,128,24485,1,2,1:2:0:0:
272,193,24818,1,0,1:2:0:0:
392,256,25151,6,0,L|420:140,1,120,10|0,1:2|1:2,0:0:0:0:
296,128,25818,1,2,1:2:0:0:
178,141,26151,6,0,P|157:216|285:243,1,240,0|0,1:2|1:2,0:0:0:0:
404,216,27151,1,2,1:2:0:0:
168,152,27818,6,0,L|152:280,1,120,10|0,1:2|1:2,0:0:0:0:
272,160,28485,2,0,L|256:288,1,120,2|0,1:2|1:2,0:0:0:0:
376,92,29151,6,0,P|432:172|328:216,1,240,10|2,1:2|1:2,0:0:0:0:
208,288,30151,1,0,1:2:0:0:
328,280,30485,6,0,L|344:152,1,120,10|0,1:2|1:2,0:0:0:0:
224,288,31151,2,0,L|208:160,1,120,2|0,1:2|1:2,0:0:0:0:
88,268,31818,6,0,P|16:184|80:88,1,240,10|2,1:2|1:2,0:0:0:0:
320,112,33151,2,0,B|555:106|384:204,1,240,10|2,1:2|1:2,0:0:0:0:
123,232,34485,5,10,1:2:0:0:
224,160,34818,2,0,L|100:160,1,120,0|2,1:2|1:2,0:0:0:0:
352,104,35818,6,0,L|376:224,1,120,10|0,1:2|1:2,0:0:0:0:
256,112,36485,2,0,L|232:232,1,120,2|0,1:2|1:2,0:0:0:0:
352,224,37151,5,10,1:2:0:0:
116,264,37818,2,0,B|-16:248|52:148|168:168,1,240,2|10,1:2|1:2,0:0:0:0:
292,200,38818,5,0,1:2:0:0:
412,112,39151,2,0,L|420:232,1,120,2|0,1:2|1:2,0:0:0:0:
288,104,39818,6,0,P|188:128|240:228,1,240,10|2,1:2|1:2,0:0:0:0:
352,168,40818,1,0,1:2:0:0:
472,184,41151,6,0,L|432:304,1,120,10|0,1:2|1:2,0:0:0:0:
314,295,41818,2,0,L|189:295,1,120,2|0,1:2|1:2,0:0:0:0:
338,194,42485,5,10,1:2:0:0:
256,192,42818,12,0,43818,1:2:0:0:
372,170,44485,5,0,1:2:0:0:
108,232,45151,6,0,L|58:123,1,120,4|0,1:0|1:2,0:0:0:0:
177,129,45818,1,10,1:2:0:0:
417,239,46485,6,0,L|467:128,1,120,8|0,1:2|1:0,0:0:0:0:
346,133,47151,1,10,1:2:0:0:
105,220,47818,6,0,L|225:220,1,120,8|0,1:2|1:0,0:0:0:0:
345,223,48485,1,10,1:2:0:0:
106,184,49151,6,0,L|227:183,1,120,8|0,1:2|1:0,0:0:0:0:
166,131,49818,1,10,1:2:0:0:
406,106,50484,6,0,P|483:181|399:243,1,240,8|10,1:2|1:2,0:0:0:0:
268,232,51484,1,0,1:0:0:0:
136,200,51818,6,0,L|107:321,1,120,8|0,1:2|1:0,0:0:0:0:
240,203,52485,2,0,L|211:325,1,120,10|0,1:2|1:0,0:0:0:0:
368,146,53151,6,0,P|448:202|360:264,1,240,8|10,1:2|1:2,0:0:0:0:
228,116,54151,2,0,P|121:120|125:232,1,240,0|0,1:0|1:0,0:0:0:0:
255,257,55151,5,10,1:2:0:0:
271,233,55318,1,0,1:0:0:0:
287,209,55485,1,0,1:0:0:0:
131,172,55818,6,0,B|128:291|128:291|250:291,1,240,12|10,1:2|1:2,0:0:0:0:
369,291,56818,1,0,0:0:0:0:
236,272,57151,6,0,P|151:215|238:185,1,240,8|10,1:2|1:2,0:0:0:0:
369,184,58151,1,0,1:0:0:0:
501,136,58485,6,0,B|501:257|501:257|380:257,1,240,8|10,1:2|1:2,0:0:0:0:
260,222,59485,1,0,0:0:0:0:
393,169,59818,6,0,P|478:221|391:263,1,240,8|10,1:2|1:2,0:0:0:0:
127,290,61151,6,0,P|36:259|117:200,1,240,8|10,1:2|1:2,0:0:0:0:
248,156,62151,2,0,L|128:148,1,120,0|8,1:0|1:2,0:0:0:0:
260,180,62818,6,0,L|380:172,2,120,0|10|0,1:0|1:2|1:0,0:0:0:0:
128,112,63818,6,0,P|24:152|88:216,1,240,8|10,1:2|1:2,0:0:0:0:
352,160,65151,5,0,1:2:0:0:
472,168,65484,1,0,1:2:0:0:
452,272,65818,1,0,1:2:0:0:
332,264,66151,1,0,1:2:0:0:
176,228,66485,6,0,L|64:276,2,120,4|0|10,1:0|1:2|1:2,0:0:0:0:
308,136,67484,1,0,0:0:0:0:
440,133,67818,6,0,L|456:253,1,120,8|0,1:2|1:0,0:0:0:0:
323,153,68485,2,0,L|339:273,1,120,10|0,1:2|0:0,0:0:0:0:
207,145,69151,6,0,P|129:205|200:300,1,240,8|10,1:2|1:2,0:0:0:0:
328,288,70151,1,0,0:0:0:0:
196,232,70485,6,0,L|172:112,1,120,8|0,1:2|1:0,0:0:0:0:
304,232,71151,2,0,L|328:112,1,120,10|0,1:2|1:0,0:0:0:0:
194,158,71818,6,0,P|99:153|63:279,1,240,8|10,1:2|1:2,0:0:0:0:
181,284,72818,1,0,1:0:0:0:
313,273,73151,6,0,L|337:154,1,120,8|0,1:2|1:0,0:0:0:0:
204,268,73818,2,0,L|226:148,1,120,10|0,1:2|1:0,0:0:0:0:
72,49,74485,6,0,B|-8:190|107:174|179:168,1,240,8|10,1:2|1:2,0:0:0:0:
441,161,75818,1,8,1:2:0:0:
177,193,76485,5,10,1:2:0:0:
161,169,76652,1,0,1:0:0:0:
145,145,76819,1,0,1:0:0:0:
301,101,77151,6,0,P|381:117|333:229,1,240,12|10,1:2|1:2,0:0:0:0:
201,233,78151,1,0,0:0:0:0:
333,121,78485,2,0,L|349:241,1,120,8|0,1:2|1:0,0:0:0:0:
217,193,79151,5,10,1:2:0:0:
187,194,79318,1,0,1:0:0:0:
217,193,79485,1,0,1:0:0:0:
373,224,79818,6,0,P|457:156|382:84,1,240,8|10,1:2|1:2,0:0:0:0:
249,193,80818,1,0,0:0:0:0:
117,301,81151,6,0,P|45:217|133:169,1,240,8|10,1:2|1:2,0:0:0:0:
393,185,82485,6,0,L|477:277,2,120,8|0|10,1:2|1:0|1:2,0:0:0:0:
261,137,83484,1,0,1:0:0:0:
393,185,83818,6,0,L|366:309,1,120,8|0,1:2|1:0,0:0:0:0:
237,289,84485,2,0,L|264:165,1,120,10|0,1:2|1:0,0:0:0:0:
256,192,85151,12,0,86818,1:0:0:0:
