osu file format v14

[General]
AudioFilename: audio.ogg
AudioLeadIn: 0
PreviewTime: 43819
Countdown: 0
SampleSet: Normal
StackLeniency: 0.7
Mode: 1
LetterboxInBreaks: 0
WidescreenStoryboard: 1

[Editor]
DistanceSpacing: 1
BeatDivisor: 8
GridSize: 4
TimelineZoom: 1

[Metadata]
Title:Yasashii Suisei (TV Size)
TitleUnicode:優しい彗星 (TV Size)
Artist:YOASOBI
ArtistUnicode:YOASOBI
Creator:Kibitz
Version:Muzukashii
Source:BEASTARS
Tags:asuasu_yura yura second season 2nd ending ed ビースターズ japanese anime pop jpop j-pop 幾田りら ikuta rira lilas ayase ikura Sony Music Entertainment Japan Female Vocal BST Gentle Comet
BeatmapID:3585882
BeatmapSetID:1752304

[Difficulty]
HPDrainRate:6
CircleSize:5
OverallDifficulty:4
ApproachRate:5
SliderMultiplier:1.4
SliderTickRate:1

[Events]
//Background and Video events
0,0,"comet.png",0,-50
Video,10,"comet.mp4"
//Break Periods
//Storyboard Layer 0 (Background)
//Storyboard Layer 1 (Fail)
//Storyboard Layer 2 (Pass)
//Storyboard Layer 3 (Foreground)
//Storyboard Layer 4 (Overlay)
//Storyboard Sound Samples

[TimingPoints]
2485,666.666666666667,4,1,0,60,1,0
2485,-100,4,1,0,60,0,0
43985,-105.263157894737,4,1,0,60,0,0
44318,-111.111111111111,4,1,0,60,0,0
44651,-117.647058823529,4,1,0,60,0,0
45151,-80,4,1,0,70,0,1
63818,-80,4,1,0,70,0,0
66485,-80,4,1,0,70,0,1
85151,-66.6666666666667,4,1,0,70,0,0

[HitObjects]
254,188,1818,5,0,0:0:0:0:
254,188,2151,1,2,0:0:0:0:
254,188,2485,1,0,0:0:0:0:
254,188,3818,5,0,0:0:0:0:
254,188,5151,1,2,0:0:0:0:
254,188,6485,1,0,0:0:0:0:
254,188,7151,1,2,0:0:0:0:
254,188,7818,1,0,0:0:0:0:
254,188,9151,1,2,0:0:0:0:
254,188,9818,1,0,0:0:0:0:
254,188,10485,1,2,0:0:0:0:
254,188,11818,1,0,0:0:0:0:
254,188,12485,1,2,0:0:0:0:
254,188,13151,1,4,0:0:0:0:
254,188,13651,1,0,0:0:0:0:
254,188,13818,1,2,0:0:0:0:
254,188,14151,1,0,0:0:0:0:
254,188,14818,1,0,0:0:0:0:
254,188,15151,1,2,0:0:0:0:
254,188,15485,1,0,0:0:0:0:
254,188,15651,1,2,0:0:0:0:
254,188,15985,1,2,0:0:0:0:
254,188,16151,1,0,0:0:0:0:
254,188,16818,1,0,0:0:0:0:
254,188,17151,1,2,0:0:0:0:
254,188,17485,1,0,0:0:0:0:
254,188,17818,1,2,0:0:0:0:
254,188,18151,1,2,0:0:0:0:
254,188,18485,1,0,0:0:0:0:
254,188,18985,1,0,0:0:0:0:
254,188,19151,1,2,0:0:0:0:
254,188,19485,1,0,0:0:0:0:
254,188,19818,1,2,0:0:0:0:
254,188,20151,1,2,0:0:0:0:
254,188,20485,1,0,0:0:0:0:
254,188,20818,1,2,0:0:0:0:
254,188,21151,1,0,0:0:0:0:
254,188,21651,1,0,0:0:0:0:
254,188,21818,1,2,0:0:0:0:
254,188,22151,1,0,0:0:0:0:
254,188,22818,1,0,0:0:0:0:
254,188,23151,1,2,0:0:0:0:
254,188,23485,1,2,0:0:0:0:
254,188,23818,1,4,0:0:0:0:
254,188,24151,1,0,0:0:0:0:
254,188,24318,1,2,0:0:0:0:
254,188,24485,1,0,0:0:0:0:
254,188,24818,1,2,0:0:0:0:
254,188,25151,1,0,0:0:0:0:
254,188,25485,1,0,0:0:0:0:
254,188,25818,1,2,0:0:0:0:
254,188,26151,1,0,0:0:0:0:
254,188,26318,1,2,0:0:0:0:
254,188,26651,1,2,0:0:0:0:
254,188,26818,1,0,0:0:0:0:
254,188,27151,1,2,0:0:0:0:
254,188,27651,1,0,0:0:0:0:
254,188,27818,1,2,0:0:0:0:
254,188,28151,1,0,0:0:0:0:
254,188,28485,1,2,0:0:0:0:
254,188,28651,1,0,0:0:0:0:
254,188,28985,1,0,0:0:0:0:
254,188,29151,1,2,0:0:0:0:
254,188,29651,1,2,0:0:0:0:
254,188,29818,1,0,0:0:0:0:
254,188,30151,1,0,0:0:0:0:
254,188,30485,1,2,0:0:0:0:
254,188,30818,1,0,0:0:0:0:
254,188,31151,1,2,0:0:0:0:
254,188,31485,1,2,0:0:0:0:
254,188,31818,1,0,0:0:0:0:
254,188,32318,1,0,0:0:0:0:
254,188,32485,1,2,0:0:0:0:
254,188,32818,1,0,0:0:0:0:
254,188,33151,1,0,0:0:0:0:
254,188,33485,1,2,0:0:0:0:
254,188,33818,1,0,0:0:0:0:
254,188,33985,1,2,0:0:0:0:
254,188,34485,1,0,0:0:0:0:
254,188,34818,1,0,0:0:0:0:
254,188,34985,1,2,0:0:0:0:
254,188,35318,1,0,0:0:0:0:
254,188,35651,1,0,0:0:0:0:
254,188,35818,1,2,0:0:0:0:
254,188,36151,1,0,0:0:0:0:
254,188,36485,1,2,0:0:0:0:
254,188,36651,1,0,0:0:0:0:
254,188,37151,1,2,0:0:0:0:
254,188,37651,1,0,0:0:0:0:
254,188,37818,1,2,0:0:0:0:
254,188,38485,1,0,0:0:0:0:
254,188,38818,1,2,0:0:0:0:
254,188,39151,1,0,0:0:0:0:
254,188,39485,1,2,0:0:0:0:
254,188,39818,1,2,0:0:0:0:
254,188,40318,1,0,0:0:0:0:
254,188,40485,1,2,0:0:0:0:
254,188,40818,1,0,0:0:0:0:
254,188,41151,1,2,0:0:0:0:
254,188,41485,1,0,0:0:0:0:
254,188,41651,1,2,0:0:0:0:
254,188,41985,1,2,0:0:0:0:
254,188,42151,1,0,0:0:0:0:
254,188,42485,1,0,0:0:0:0:
254,188,42651,1,0,0:0:0:0:
254,188,42985,1,2,0:0:0:0:
254,188,43151,1,2,0:0:0:0:
254,188,43485,1,0,0:0:0:0:
254,188,43818,1,2,0:0:0:0:
254,188,44151,1,0,0:0:0:0:
254,188,44485,1,2,0:0:0:0:
254,188,44818,1,2,0:0:0:0:
254,188,45151,1,4,0:0:0:0:
254,188,45485,1,0,0:0:0:0:
254,188,45651,1,2,0:0:0:0:
254,188,45985,1,0,0:0:0:0:
254,188,46485,1,0,0:0:0:0:
254,188,46818,1,2,0:0:0:0:
254,188,46985,1,0,0:0:0:0:
254,188,47318,1,2,0:0:0:0:
254,188,47818,1,0,0:0:0:0:
254,188,48151,1,0,0:0:0:0:
254,188,48318,1,2,0:0:0:0:
254,188,48651,1,0,0:0:0:0:
254,188,49151,1,0,0:0:0:0:
254,188,49485,1,2,0:0:0:0:
254,188,49651,1,0,0:0:0:0:
254,188,50485,1,0,0:0:0:0:
254,188,50818,1,2,0:0:0:0:
254,188,50985,1,0,0:0:0:0:
254,188,51485,1,0,0:0:0:0:
254,188,51818,1,2,0:0:0:0:
254,188,52151,1,0,0:0:0:0:
254,188,52318,1,2,0:0:0:0:
254,188,52818,1,2,0:0:0:0:
254,188,53151,1,0,0:0:0:0:
254,188,53485,1,2,0:0:0:0:
254,188,53651,1,0,0:0:0:0:
254,188,54151,1,0,0:0:0:0:
254,188,54485,1,0,0:0:0:0:
254,188,54651,1,2,0:0:0:0:
254,188,54818,1,0,0:0:0:0:
254,188,54985,1,2,0:0:0:0:
254,188,55318,1,0,0:0:0:0:
254,188,55818,1,0,0:0:0:0:
254,188,56151,1,2,0:0:0:0:
254,188,56318,1,0,0:0:0:0:
254,188,56651,1,0,0:0:0:0:
254,188,57151,1,2,0:0:0:0:
254,188,57651,1,0,0:0:0:0:
254,188,57818,1,0,0:0:0:0:
254,188,57985,1,2,0:0:0:0:
254,188,58151,1,2,0:0:0:0:
254,188,58318,1,0,0:0:0:0:
254,188,58485,1,0,0:0:0:0:
254,188,58818,1,0,0:0:0:0:
254,188,58985,1,2,0:0:0:0:
254,188,59318,1,0,0:0:0:0:
254,188,59818,1,2,0:0:0:0:
254,188,60485,1,0,0:0:0:0:
254,188,61151,1,2,0:0:0:0:
254,188,61818,1,0,0:0:0:0:
254,188,62151,1,0,0:0:0:0:
254,188,62818,1,0,0:0:0:0:
254,188,63151,1,2,0:0:0:0:
254,188,63485,1,2,0:0:0:0:
254,188,63818,1,0,0:0:0:0:
254,188,64485,1,0,0:0:0:0:
254,188,65151,1,2,0:0:0:0:
254,188,65485,1,0,0:0:0:0:
254,188,65818,1,2,0:0:0:0:
254,188,66151,1,2,0:0:0:0:
254,188,66485,1,4,0:0:0:0:
254,188,66818,1,0,0:0:0:0:
254,188,66985,1,2,0:0:0:0:
254,188,67318,1,0,0:0:0:0:
254,188,67818,1,2,0:0:0:0:
254,188,68151,1,0,0:0:0:0:
254,188,68318,1,2,0:0:0:0:
254,188,68651,1,0,0:0:0:0:
254,188,69151,1,0,0:0:0:0:
254,188,69485,1,2,0:0:0:0:
254,188,69651,1,0,0:0:0:0:
254,188,69985,1,0,0:0:0:0:
254,188,70485,1,2,0:0:0:0:
254,188,70818,1,0,0:0:0:0:
254,188,70985,1,2,0:0:0:0:
254,188,71818,1,0,0:0:0:0:
254,188,72151,1,0,0:0:0:0:
254,188,72318,1,2,0:0:0:0:
254,188,72818,1,0,0:0:0:0:
254,188,73151,1,2,0:0:0:0:
254,188,73485,1,2,0:0:0:0:
254,188,73651,1,0,0:0:0:0:
254,188,74151,1,0,0:0:0:0:
254,188,74485,1,2,0:0:0:0:
254,188,74818,1,2,0:0:0:0:
254,188,74985,1,0,0:0:0:0:
254,188,75318,1,0,0:0:0:0:
254,188,75818,1,2,0:0:0:0:
254,188,76485,1,0,0:0:0:0:
254,188,76651,1,2,0:0:0:0:
254,188,76818,1,0,0:0:0:0:
254,188,77151,1,0,0:0:0:0:
254,188,77485,1,0,0:0:0:0:
254,188,77651,1,2,0:0:0:0:
254,188,77985,1,0,0:0:0:0:
254,188,78485,1,2,0:0:0:0:
254,188,79151,1,2,0:0:0:0:
254,188,79318,1,0,0:0:0:0:
254,188,79485,1,2,0:0:0:0:
254,188,79818,1,2,0:0:0:0:
254,188,80151,1,0,0:0:0:0:
254,188,80318,1,2,0:0:0:0:
254,188,80651,1,0,0:0:0:0:
254,188,81151,1,2,0:0:0:0:
254,188,81818,1,0,0:0:0:0:
254,188,82151,1,2,0:0:0:0:
254,188,82485,1,0,0:0:0:0:
254,188,82818,1,2,0:0:0:0:
254,188,82985,1,0,0:0:0:0:
254,188,83318,1,0,0:0:0:0:
254,188,83485,1,2,0:0:0:0:
254,188,83651,1,2,0:0:0:0:
254,188,83818,1,0,0:0:0:0:
254,188,84151,1,0,0:0:0:0:
254,188,84318,1,0,0:0:0:0:
254,188,84651,1,2,0:0:0:0:
254,188,84818,1,0,0:0:0:0:
256,192,85151,12,0,86485,0:0:0:0:
