osu file format v14

[General]
AudioFilename: audio.ogg
AudioLeadIn: 0
PreviewTime: 43819
Countdown: 0
SampleSet: Normal
StackLeniency: 0.7
Mode: 1
LetterboxInBreaks: 0
WidescreenStoryboard: 0

[Editor]
DistanceSpacing: 1.5
BeatDivisor: 4
GridSize: 4
TimelineZoom: 0.6999999

[Metadata]
Title:Yasashii Suisei (TV Size)
TitleUnicode:優しい彗星 (TV Size)
Artist:YOASOBI
ArtistUnicode:YOASOBI
Creator:Kibitz
Version:Kantan
Source:BEASTARS
Tags:asuasu_yura yura second season 2nd ending ed ビースターズ japanese anime pop jpop j-pop 幾田りら ikuta rira lilas ayase ikura Sony Music Entertainment Japan Female Vocal BST Gentle Comet
BeatmapID:3585881
BeatmapSetID:1752304

[Difficulty]
HPDrainRate:8
CircleSize:5
OverallDifficulty:2
ApproachRate:5
SliderMultiplier:1.4
SliderTickRate:1

[Events]
//Background and Video events
0,0,"comet.png",0,-50
Video,10,"comet.mp4"
//Break Periods
//Storyboard Layer 0 (Background)
//Storyboard Layer 1 (Fail)
//Storyboard Layer 2 (Pass)
//Storyboard Layer 3 (Foreground)
//Storyboard Layer 4 (Overlay)
//Storyboard Sound Samples

[TimingPoints]
2485,666.666666666667,4,1,0,60,1,0
45151,-100,4,1,0,70,0,1
63818,-100,4,1,0,70,0,0
66485,-100,4,1,0,70,0,1
85151,-100,4,1,0,70,0,0

[HitObjects]
255,191,2485,5,0,0:0:0:0:
255,191,3818,1,2,0:0:0:0:
255,191,5151,1,0,0:0:0:0:
255,191,6485,1,0,0:0:0:0:
255,191,7151,1,0,0:0:0:0:
255,191,7818,1,0,0:0:0:0:
255,191,9151,1,2,0:0:0:0:
255,191,10485,1,0,0:0:0:0:
255,191,11818,1,2,0:0:0:0:
255,191,13151,1,0,0:0:0:0:
255,191,14485,1,2,0:0:0:0:
255,191,15151,1,2,0:0:0:0:
255,191,15818,1,0,0:0:0:0:
255,191,17151,1,2,0:0:0:0:
255,191,17818,1,2,0:0:0:0:
255,191,18485,1,0,0:0:0:0:
255,191,19818,1,2,0:0:0:0:
255,191,21151,1,0,0:0:0:0:
255,191,21818,1,0,0:0:0:0:
255,191,22485,1,0,0:0:0:0:
255,191,23151,1,2,0:0:0:0:
255,191,23818,1,4,0:0:0:0:
255,191,25485,1,0,0:0:0:0:
255,191,25985,1,0,0:0:0:0:
255,191,26485,1,0,0:0:0:0:
255,191,27818,1,2,0:0:0:0:
255,191,28485,1,2,0:0:0:0:
255,191,29151,1,2,0:0:0:0:
255,191,30485,1,0,0:0:0:0:
255,191,31151,1,0,0:0:0:0:
255,191,31818,1,0,0:0:0:0:
255,191,33151,1,0,0:0:0:0:
255,191,33818,1,2,0:0:0:0:
255,191,34485,1,0,0:0:0:0:
255,191,36151,1,2,0:0:0:0:
255,191,36651,1,0,0:0:0:0:
255,191,37151,1,2,0:0:0:0:
255,191,38485,1,0,0:0:0:0:
255,191,39151,1,2,0:0:0:0:
255,191,39818,1,0,0:0:0:0:
255,191,41151,1,0,0:0:0:0:
255,191,41818,1,2,0:0:0:0:
255,191,42485,1,0,0:0:0:0:
255,191,43151,1,0,0:0:0:0:
255,191,43818,1,2,0:0:0:0:
255,191,45151,1,4,0:0:0:0:
255,191,45818,1,0,0:0:0:0:
255,191,46485,1,2,0:0:0:0:
255,191,47818,1,2,0:0:0:0:
255,191,48485,1,2,0:0:0:0:
255,191,49151,1,0,0:0:0:0:
255,191,50485,1,0,0:0:0:0:
255,191,51151,1,2,0:0:0:0:
255,191,51818,1,0,0:0:0:0:
255,191,53151,1,2,0:0:0:0:
255,191,53818,1,0,0:0:0:0:
255,191,54485,1,2,0:0:0:0:
255,191,55818,1,0,0:0:0:0:
255,191,56485,1,0,0:0:0:0:
255,191,57151,1,0,0:0:0:0:
255,191,58485,1,2,0:0:0:0:
255,191,59151,1,2,0:0:0:0:
255,191,59818,1,2,0:0:0:0:
255,191,61151,1,0,0:0:0:0:
255,191,61818,1,2,0:0:0:0:
255,191,62485,1,0,0:0:0:0:
255,191,63151,1,2,0:0:0:0:
255,191,63818,1,0,0:0:0:0:
255,191,64485,1,0,0:0:0:0:
255,191,65151,1,2,0:0:0:0:
255,191,65818,1,2,0:0:0:0:
255,191,66485,1,4,0:0:0:0:
255,191,67152,1,0,0:0:0:0:
255,191,67819,1,2,0:0:0:0:
255,191,69152,1,0,0:0:0:0:
255,191,69819,1,2,0:0:0:0:
255,191,70485,1,0,0:0:0:0:
255,191,71819,1,2,0:0:0:0:
255,191,72485,1,0,0:0:0:0:
255,191,73152,1,2,0:0:0:0:
255,191,74485,1,2,0:0:0:0:
255,191,75152,1,2,0:0:0:0:
255,191,75819,1,0,0:0:0:0:
255,191,77152,1,0,0:0:0:0:
255,191,77819,1,0,0:0:0:0:
255,191,78485,1,2,0:0:0:0:
255,191,79819,1,0,0:0:0:0:
255,191,80485,1,0,0:0:0:0:
255,191,81152,1,0,0:0:0:0:
255,191,82485,1,2,0:0:0:0:
255,191,83152,1,2,0:0:0:0:
255,191,83819,1,2,0:0:0:0:
255,191,84485,5,0,0:0:0:0:
256,192,85151,12,0,86485,0:0:0:0:
