osu file format v14

[General]
AudioFilename: audio.mp3
AudioLeadIn: 0
PreviewTime: 43819
Countdown: 0
SampleSet: Soft
StackLeniency: 0.7
Mode: 0
LetterboxInBreaks: 0
WidescreenStoryboard: 1

[Editor]
Bookmarks: 23819,86819
DistanceSpacing: 0.3
BeatDivisor: 4
GridSize: 32
TimelineZoom: 1.7

[Metadata]
Title:Yasashii Suisei (TV Size)
TitleUnicode:優しい彗星 (TV Size)
Artist:YOASOBI
ArtistUnicode:YOASOBI
Creator:Flask
Version:Insane
Source:BEASTARS
Tags:second season 2nd ending ed ビースターズ japanese anime pop jpop j-pop 幾田りら ikuta rira lilas ayase ikura
BeatmapID:2811675
BeatmapSetID:1348526

[Difficulty]
HPDrainRate:5
CircleSize:4
OverallDifficulty:7.5
ApproachRate:8.3
SliderMultiplier:2
SliderTickRate:1

[Events]
//Background and Video events
0,0,"bg.jpg",0,0
Video,0,"ed.mp4"
//Break Periods
//Storyboard Layer 0 (Background)
//Storyboard Layer 1 (Fail)
//Storyboard Layer 2 (Pass)
//Storyboard Layer 3 (Foreground)
//Storyboard Layer 4 (Overlay)
//Storyboard Sound Samples

[TimingPoints]
2485,666.666666666667,4,2,1,40,1,0
2485,-133.333333333333,4,2,1,40,0,0
13151,-90.9090909090909,4,2,1,45,0,0
23818,-76.9230769230769,4,2,1,55,0,0
37818,-66.6666666666667,4,2,1,55,0,0
38484,-76.9230769230769,4,2,1,55,0,0
43818,-76.9230769230769,4,2,1,45,0,0
45151,-62.5,4,2,1,70,0,1
51818,-55.5555555555556,4,2,1,70,0,1
52484,-62.5,4,2,1,70,0,1
53151,-50,4,2,1,70,0,1
55151,-55.5555555555556,4,2,1,70,0,1
55818,-62.5,4,2,1,70,0,1
65151,-55.5555555555556,4,2,1,70,0,1
65401,-55.5555555555556,4,2,1,5,0,1
65484,-55.5555555555556,4,2,1,70,0,1
65734,-55.5555555555556,4,2,1,5,0,1
65818,-55.5555555555556,4,2,1,70,0,1
66068,-55.5555555555556,4,2,1,5,0,1
66151,-55.5555555555556,4,2,1,70,0,1
66401,-55.5555555555556,4,2,1,5,0,1
66484,-62.5,4,2,1,70,0,1
74484,-50,4,2,1,70,0,1
76818,-55.5555555555556,4,2,1,70,0,1
77151,-62.5,4,2,1,70,0,1
85151,-100,4,2,1,30,0,0
85234,-100,4,2,1,5,0,0

[Colours]
Combo1 : 137,206,125
Combo2 : 165,123,189
Combo3 : 105,174,207
Combo4 : 248,234,107

[HitObjects]
85,51,2484,5,2,0:0:0:0:
151,111,2818,2,0,P|188:100|208:66,2,75.0000028610231
84,171,3818,2,0,L|104:250,1,75.0000028610231,2|0,0:0|0:0,0:0:0:0:
178,292,4484,1,0,0:0:0:0:
328,260,4818,1,0,0:0:0:0:
328,260,4984,2,0,P|297:231|252:230,1,75.0000028610231,2|0,0:0|0:0,0:0:0:0:
244,232,5484,1,0,0:0:0:0:
471,41,6318,1,0,0:0:0:0:
471,41,6484,6,0,L|457:117,1,75.0000028610231,2|0,0:0|0:0,0:0:0:0:
453,140,6984,2,0,L|377:126,1,75.0000028610231,2|0,0:0|0:0,0:0:0:0:
359,108,7484,2,0,L|319:102,1,37.5000014305115
295,107,7818,1,2,0:0:0:0:
171,302,8818,1,0,0:0:0:0:
248,347,9151,6,0,P|259:308|252:266,1,75.0000028610231,2|0,0:0|0:0,0:0:0:0:
96,258,9818,2,0,P|85:297|92:339,1,75.0000028610231,2|0,0:0|0:0,0:0:0:0:
190,221,10484,2,0,B|219:150|161:178|209:69,2,150.000005722046,2|0|2,0:0|0:0|0:0,0:0:0:0:
403,346,12484,1,0,0:0:0:0:
403,346,13151,6,0,P|457:329|474:271,1,110.000003356934,2|0,1:2|0:0,0:0:0:0:
312,230,13651,1,0,1:2:0:0:
331,305,13818,2,0,P|322:337|320:365,1,55.0000016784668,2|0,0:0|0:0,0:0:0:0:
237,200,14151,2,0,P|246:168|248:140,1,55.0000016784668
100,245,14484,2,0,P|80:305|58:350,2,110.000003356934,2|0|2,0:0|1:2|0:0,0:0:0:0:
100,245,15484,5,0,0:0:0:0:
21,216,15651,2,0,P|51:216|78:229,1,55.0000016784668,0|2,0:0|1:2,0:0:0:0:
157,167,15984,1,0,0:0:0:0:
228,347,16151,2,0,P|171:342|117:316,1,110.000003356934,0|2,0:0|0:0,0:0:0:0:
275,104,16818,2,0,P|292:136|296:165,1,55.0000016784668,2|0,0:0|0:0,0:0:0:0:
321,226,17151,5,2,0:0:0:0:
429,63,17484,1,0,1:2:0:0:
321,226,17818,1,2,0:0:0:0:
222,42,18151,2,0,B|216:73|216:73|233:104,1,55.0000016784668
270,161,18484,6,0,B|225:168|225:168|208:184|208:184|156:195,1,110.000003356934,2|2,1:2|0:0,0:0:0:0:
109,251,18984,1,0,1:2:0:0:
109,251,19151,2,0,B|91:226|91:226|86:196,1,55.0000016784668,2|0,0:0|0:0,0:0:0:0:
8,153,19484,2,0,B|26:128|26:128|31:98,1,55.0000016784668,2|0,0:0|0:0,0:0:0:0:
75,34,19818,5,2,0:0:0:0:
228,93,20151,1,0,1:2:0:0:
101,198,20484,1,2,0:0:0:0:
75,34,20818,1,2,0:0:0:0:
179,161,21151,6,0,B|239:204|198:211|244:255,1,110.000003356934,2|2,1:2|0:0,0:0:0:0:
296,190,21651,1,0,1:2:0:0:
354,248,21818,2,0,P|372:224|375:192,1,55.0000016784668,2|0,0:0|0:0,0:0:0:0:
300,304,22151,2,0,P|328:322|356:325,1,55.0000016784668,0|0,1:2|0:0,0:0:0:0:
458,213,22484,2,0,P|459:179|448:154,1,55.0000016784668,2|0,0:0|0:0,0:0:0:0:
300,121,22818,2,0,P|270:136|253:158,1,55.0000016784668,2|0,1:2|0:0,0:0:0:0:
177,293,23151,6,0,B|138:294|138:294|121:279|121:279|101:288|101:288|57:276,1,110.000003356934
75,281,23818,6,0,B|102:246|102:246|74:156,1,129.999994049073,2|0,1:2|0:0,0:0:0:0:
180,10,24318,1,0,1:2:0:0:
104,59,24484,2,0,B|126:89|126:89|169:100,1,64.9999970245363,8|0,0:0|0:0,0:0:0:0:
211,175,24818,2,0,L|285:166,1,64.9999970245363,2|0,0:0|0:0,0:0:0:0:
461,217,25151,6,0,P|475:188|480:156,1,64.9999970245363,0|2,0:2|0:0,0:0:0:0:
384,195,25484,2,0,P|389:162|405:132,1,64.9999970245363,0|0,1:2|0:0,0:0:0:0:
477,355,25818,2,0,P|439:302|374:291,1,129.999994049073,8|2,0:0|0:0,0:0:0:0:
235,332,26318,2,0,L|299:347,1,64.9999970245363,8|2,0:0|1:2,0:0:0:0:
306,248,26651,1,0,0:0:0:0:
161,374,26818,2,0,B|145:319|145:319|154:301|154:301|137:246,1,129.999994049073,0|8,0:0|0:0,0:0:0:0:
306,248,27318,1,2,0:0:0:0:
221,189,27484,2,0,L|231:109,1,64.9999970245363,2|0,0:0|0:0,0:0:0:0:
121,24,27818,5,0,1:2:0:0:
48,51,27984,1,2,0:0:0:0:
107,102,28151,1,0,1:2:0:0:
121,24,28318,1,2,0:0:0:0:
254,87,28484,5,8,0:0:0:0:
330,103,28651,1,2,1:2:0:0:
403,75,28818,1,2,0:0:0:0:
439,6,28984,1,2,0:0:0:0:
459,133,29151,6,0,P|450:184|481:266,1,129.999994049073,2|0,1:2|0:0,0:0:0:0:
346,215,29651,2,0,L|420:200,1,64.9999970245363,2|8,1:2|0:0,0:0:0:0:
281,158,29984,1,2,0:0:0:0:
347,303,30151,2,0,P|319:259|261:250,1,97.4999955368044,2|0,0:0|0:0,0:0:0:0:
262,255,30484,6,0,L|186:243,1,64.9999970245363,2|0,0:0|0:0,0:0:0:0:
108,312,30818,2,0,L|32:300,1,64.9999970245363,2|0,1:2|0:0,0:0:0:0:
182,252,31151,6,0,L|247:263,1,64.9999970245363,10|0,0:0|0:0,0:0:0:0:
28,309,31485,2,0,L|93:320,1,64.9999970245363,2|8,0:0|0:0,0:0:0:0:
294,337,31818,6,0,P|334:285|322:222,1,129.999994049073,2|0,1:2|0:0,0:0:0:0:
235,117,32318,2,0,P|235:157|255:184,1,64.9999970245363,0|10,1:2|0:0,0:0:0:0:
457,182,32651,1,2,0:0:0:0:
402,126,32818,1,2,0:0:0:0:
326,144,32984,1,2,0:0:0:0:
228,28,33151,5,2,0:0:0:0:
157,61,33318,1,2,0:0:0:0:
220,105,33484,1,0,1:2:0:0:
228,28,33651,1,2,0:0:0:0:
98,158,33818,6,0,P|89:189|89:222,1,64.9999970245363,8|0,0:0|1:2,0:0:0:0:
233,253,34151,2,0,P|242:222|244:186,1,64.9999970245363,2|2,0:0|0:0,0:0:0:0:
92,309,34484,6,0,B|128:308|152:281|152:281|161:319|191:336,1,129.999994049073,2|0,1:2|0:0,0:0:0:0:
375,355,34984,2,0,P|380:318|366:289,1,64.9999970245363,2|8,1:2|0:0,0:0:0:0:
249,224,35318,1,2,0:0:0:0:
285,308,35484,1,0,0:0:0:0:
433,237,35651,1,2,0:0:0:0:
321,131,35818,6,0,B|238:114|265:158|188:138,1,129.999994049073,0|0,0:0|1:2,0:0:0:0:
321,131,36318,1,2,0:0:0:0:
206,3,36484,2,0,P|205:34|227:74,1,64.9999970245363,10|0,0:0|1:2,0:0:0:0:
403,146,36818,2,0,P|404:115|382:75,1,64.9999970245363,2|8,0:0|0:0,0:0:0:0:
196,260,37151,6,0,B|254:251|254:251|266:241|266:241|333:229,1,129.999994049073,2|0,1:2|0:0,0:0:0:0:
480,243,37651,1,0,1:2:0:0:
408,361,37818,2,0,B|437:318|414:284|404:290|383:263|383:197|419:172|455:163,1,225.000008583069,8|0,0:0|0:0,0:0:0:0:
321,51,38484,5,0,1:2:0:0:
373,108,38651,1,2,0:0:0:0:
332,175,38818,2,0,L|254:160,1,64.9999970245363,2|2,0:0|0:0,0:0:0:0:
203,290,39151,5,0,1:2:0:0:
152,182,39318,1,2,0:0:0:0:
74,280,39484,1,2,0:0:0:0:
203,290,39651,1,2,0:0:0:0:
70,197,39818,6,0,B|44:166|44:166|31:112|74:77,1,129.999994049073,2|0,1:2|0:0,0:0:0:0:
254,77,40318,1,2,1:2:0:0:
171,22,40484,2,0,P|168:60|161:101,1,64.9999970245363,8|0,0:0|0:0,0:0:0:0:
324,184,40818,2,0,P|332:138|350:78,1,97.4999955368044,2|0,0:0|0:0,0:0:0:0:
356,76,41151,6,0,P|405:78|458:11,1,129.999994049073,2|2,0:0|1:2,0:0:0:0:
491,218,41651,2,0,L|413:228,1,64.9999970245363,0|8,0:0|0:0,0:0:0:0:
297,306,41984,1,0,0:0:0:0:
378,326,42151,2,0,L|300:316,1,64.9999970245363,2|8,0:0|0:0,0:0:0:0:
119,374,42484,5,0,1:2:0:0:
99,264,42651,1,8,0:0:0:0:
97,251,42818,1,8,0:0:0:0:
235,289,42984,5,0,1:2:0:0:
265,159,43151,1,8,0:0:0:0:
268,139,43318,1,8,0:0:0:0:
176,201,43484,5,0,1:2:0:0:
129,34,43651,1,8,0:0:0:0:
344,69,43818,5,0,0:0:0:0:
344,69,44151,5,0,0:0:0:0:
344,69,44484,5,0,0:0:0:0:
344,69,44818,5,0,0:0:0:0:
20,180,45151,6,0,P|32:221|136:261,1,160,6|2,1:2|0:0,0:0:0:0:
239,345,45651,2,0,L|258:265,1,80,2|10,0:0|1:2,0:0:0:0:
332,128,45984,2,0,B|353:192|353:192|366:202|366:202|394:278,1,160
423,30,46484,6,0,P|470:58|464:132,1,120,2|0,1:2|0:0,0:0:0:0:
463,137,46818,1,2,0:0:0:0:
243,52,46984,2,0,P|282:51|323:35,1,80,2|8,0:0|1:2,0:0:0:0:
512,219,47318,2,0,P|473:220|361:273,1,160,2|0,0:0|0:0,0:0:0:0:
253,362,47818,6,0,B|203:304|256:304|209:246,1,120,2|0,1:2|0:0,0:0:0:0:
204,234,48151,1,2,0:0:0:0:
65,269,48318,2,0,P|99:294|145:294,1,80,2|10,0:0|1:2,0:0:0:0:
292,200,48651,2,0,B|314:117|314:117|303:81|251:70,1,160,2|0,0:0|0:0,0:0:0:0:
161,46,49151,5,2,1:2:0:0:
188,129,49318,1,0,0:0:0:0:
28,187,49484,1,2,0:0:0:0:
1,104,49651,1,0,0:0:0:0:
60,21,49818,2,0,P|79:65|88:110,1,80,10|0,1:2|0:0,0:0:0:0:
308,165,50151,2,0,P|289:121|280:76,1,80,2|0,0:0|0:0,0:0:0:0:
72,263,50484,6,0,P|132:253|218:328,1,160,2|0,1:2|0:0,0:0:0:0:
38,348,50984,1,2,0:0:0:0:
28,188,51151,2,0,L|11:108,1,80,10|0,1:2|0:0,0:0:0:0:
179,12,51484,1,2,0:0:0:0:
122,161,51651,1,0,0:0:0:0:
53,37,51818,6,0,B|134:46|94:82|185:92,1,134.999995880127,2|0,1:2|0:0,0:0:0:0:
193,91,52151,1,2,0:0:0:0:
359,56,52318,1,0,0:0:0:0:
405,199,52484,2,0,L|376:283,1,80,10|0,1:2|0:0,0:0:0:0:
166,360,52818,2,0,L|137:276,1,80,2|0,0:0|0:0,0:0:0:0:
227,72,53151,6,0,B|272:98|284:148|284:148|230:183|244:246,1,200,2|0,1:2|0:0,0:0:0:0:
93,166,53651,2,0,B|93:114|130:78|130:78|187:107|235:64,1,200,2|0,0:0|0:0,0:0:0:0:
241,234,54151,6,0,B|195:259|146:245|146:245|143:181|81:161,1,200,2|2,0:0|1:2,0:0:0:0:
21,270,54651,2,0,P|50:256|67:233,1,50,2|0,0:0|0:0,0:0:0:0:
190,133,54818,2,0,P|192:91|140:43,1,100,2|2,0:0|0:0,0:0:0:0:
28,56,55151,5,10,1:2:0:0:
101,170,55318,1,2,0:0:0:0:
273,142,55485,2,0,B|317:131|340:158|340:158|375:175|402:155,1,134.999995880127,2|0,0:0|0:0,0:0:0:0:
412,162,55818,6,0,B|430:89|430:89|426:77|426:77|436:35,1,120,2|0,1:2|0:0,0:0:0:0:
441,25,56151,1,0,0:0:0:0:
484,218,56318,2,0,P|460:244|410:251,1,80,2|10,0:0|1:2,0:0:0:0:
225,294,56651,1,2,0:0:0:0:
315,372,56818,2,0,L|326:289,1,80
277,87,57151,6,0,P|225:89|187:180,1,160,2|0,1:2|0:0,0:0:0:0:
392,150,57651,1,2,0:0:0:0:
330,11,57818,1,8,1:2:0:0:
265,186,57984,1,2,0:0:0:0:
149,72,58151,1,0,0:0:0:0:
296,93,58318,1,0,0:0:0:0:
307,273,58484,6,0,B|285:322|285:322|237:357|178:321,1,160,2|0,1:2|0:0,0:0:0:0:
131,146,58984,2,0,P|164:177|165:224,1,80,2|10,0:0|1:2,0:0:0:0:
37,368,59318,2,0,B|35:314|83:286|83:286|76:247|41:237,1,160,2|0,0:0|0:0,0:0:0:0:
140,46,59818,6,0,P|67:51|38:132,1,160,2|0,1:2|0:0,0:0:0:0:
212,197,60318,1,0,0:0:0:0:
43,150,60484,2,0,B|139:151|83:198|195:201,1,160,10|2,1:2|0:0,0:0:0:0:
374,246,60984,1,0,0:0:0:0:
314,320,61151,6,0,P|289:287|281:242,1,80,2|0,1:2|0:0,0:0:0:0:
440,172,61484,2,0,P|465:205|473:250,1,80,0|2,0:0|0:0,0:0:0:0:
342,166,61818,2,0,L|302:40,1,120,10|0,1:2|0:0,0:0:0:0:
298,31,62151,2,0,B|341:44|341:44|381:18,1,80,2|0,0:0|0:0,0:0:0:0:
189,265,62484,5,2,1:2:0:0:
189,265,62818,2,0,L|244:202,1,80
68,179,63151,2,0,L|94:258,1,80,10|0,1:2|0:0,0:0:0:0:
202,113,63484,2,0,L|120:96,1,80,2|0,0:0|0:0,0:0:0:0:
12,282,63818,6,0,P|30:318|70:337,1,80,2|0,1:2|0:0,0:0:0:0:
173,272,64151,1,0,0:0:0:0:
268,351,64318,1,2,0:0:0:0:
275,362,64401,1,2,0:0:0:0:
285,367,64484,2,0,L|270:280,1,80,10|0,1:2|0:0,0:0:0:0:
320,134,64818,1,0,0:0:0:0:
320,134,65151,6,0,B|258:86|267:138|191:74,1,134.999995880127,2|0,1:2|0:0,0:0:0:0:
332,2,65485,2,0,B|298:83|345:59|319:133,1,134.999995880127,2|0,1:2|0:0,0:0:0:0:
320,134,65818,6,0,B|398:136|360:99|449:105,1,134.999995880127,10|0,1:2|0:0,0:0:0:0:
386,248,66151,2,0,B|364:160|340:208|319:133,1,134.999995880127,2|0,1:2|0:0,0:0:0:0:
460,183,66484,6,0,P|440:239|377:244,1,120,6|0,1:2|0:0,0:0:0:0:
385,247,66818,1,0,0:0:0:0:
155,327,66984,2,0,P|194:330|226:364,1,80,0|10,0:0|1:2,0:0:0:0:
266,106,67318,2,0,B|300:193|238:165|287:271,1,160
57,224,67818,6,0,P|65:176|134:145,1,120,2|0,1:2|0:0,0:0:0:0:
146,148,68151,1,2,0:0:0:0:
34,17,68318,2,0,P|26:59|9:108,1,80,2|8,0:0|1:2,0:0:0:0:
199,295,68651,2,0,P|219:223|262:139,1,160,2|0,0:0|0:0,0:0:0:0:
55,230,69151,6,0,P|116:244|202:298,1,160,2|2,1:2|0:0,0:0:0:0:
438,290,69651,2,0,P|445:329|425:372,1,80,2|8,0:0|1:2,0:0:0:0:
307,368,69984,2,0,P|300:329|364:222,1,160,2|0,0:0|0:0,0:0:0:0:
459,89,70484,5,2,1:2:0:0:
306,144,70651,1,0,0:0:0:0:
451,218,70818,1,2,0:0:0:0:
366,52,70984,1,0,0:0:0:0:
203,106,71151,2,0,P|175:142|179:185,1,80,10|0,1:2|0:0,0:0:0:0:
312,332,71484,2,0,P|340:296|336:253,1,80,2|0,0:0|0:0,0:0:0:0:
60,235,71818,6,0,B|153:248|100:297|214:309,1,160,2|0,1:2|0:0,0:0:0:0:
49,337,72318,1,2,0:0:0:0:
172,150,72484,2,0,P|193:183|192:228,1,80,10|0,1:2|0:0,0:0:0:0:
443,257,72818,2,0,P|408:275|386:314,1,80
255,344,73151,6,0,L|306:220,1,120,2|0,1:2|0:0,0:0:0:0:
310,215,73484,1,2,0:0:0:0:
366,62,73651,1,0,0:0:0:0:
453,34,73818,2,0,B|461:78|461:78|437:123,1,80,10|0,1:2|0:0,0:0:0:0:
283,84,74151,2,0,B|275:40|275:40|299:-5,1,80,2|0,0:0|0:0,0:0:0:0:
411,212,74485,6,0,B|374:198|356:158|356:158|331:193|288:195,1,150,2|0,1:2|0:0,0:0:0:0:
275,193,74818,1,2,2:0:0:0:
158,357,74984,2,0,P|203:361|249:314,1,100,2|8,0:0|1:2,0:0:0:0:
16,171,75318,2,0,P|38:231|36:374,1,200,2|0,0:0|0:0,0:0:0:0:
262,146,75818,6,0,P|253:90|164:63,1,150,2|0,1:2|0:0,0:0:0:0:
151,73,76151,2,0,P|204:55|212:2,1,100,2|0,0:0|0:0,0:0:0:0:
389,146,76484,1,10,1:2:0:0:
221,246,76651,1,2,0:0:0:0:
372,362,76818,2,0,B|483:339|483:339|465:333|450:317,1,134.999995880127,2|0,0:0|0:0,0:0:0:0:
456,317,77151,6,0,B|468:257|468:257|464:248|464:248|474:195,1,120,2|0,1:2|0:0,0:0:0:0:
475,184,77484,1,2,0:0:0:0:
248,186,77651,2,0,P|243:232|263:272,1,80,2|10,0:0|1:2,0:0:0:0:
362,305,77984,1,2,0:0:0:0:
389,91,78151,2,0,P|348:90|312:125,1,80
92,140,78484,6,0,B|139:162|196:126|196:126|171:106|176:68,1,160,2|0,1:2|0:0,0:0:0:0:
92,140,78984,1,2,0:0:0:0:
213,210,79151,1,8,1:2:0:0:
97,51,79318,1,2,0:0:0:0:
7,208,79484,2,0,P|20:254|27:294,1,80,2|0,0:0|0:0,0:0:0:0:
270,354,79818,6,0,B|172:349|228:294|132:284,1,160,2|0,1:2|0:0,0:0:0:0:
361,234,80318,2,0,P|380:272|370:316,1,80,2|10,0:0|1:2,0:0:0:0:
134,368,80651,1,2,0:0:0:0:
189,176,80818,2,0,P|230:158|271:171,1,80
474,87,81151,6,0,L|489:251,1,160,2|2,1:2|0:0,0:0:0:0:
366,223,81651,1,0,0:0:0:0:
477,268,81818,2,0,P|421:275|370:235,1,120,10|0,1:2|0:0,0:0:0:0:
366,223,82151,2,0,L|283:236,1,80,2|0,0:0|0:0,0:0:0:0:
132,137,82484,6,0,P|171:141|203:165,1,80,2|0,1:2|0:0,0:0:0:0:
200,285,82818,1,2,0:0:0:0:
104,355,82984,2,0,P|79:320|78:276,1,80,2|10,0:0|1:2,0:0:0:0:
297,161,83318,5,0,0:0:0:0:
200,285,83484,1,0,0:0:0:0:
69,194,83651,1,0,0:0:0:0:
289,61,83818,6,0,P|343:69|403:162,1,160,2|0,1:2|0:0,0:0:0:0:
197,304,84318,2,0,B|217:218|166:247|194:129,1,160,2|0,0:0|0:0,0:0:0:0:
439,278,84818,2,0,P|402:298|359:285,1,80
281,249,85151,6,0,B|268:187|236:241|176:184|237:180|160:175|169:113|213:80|263:99|263:99|276:32|359:25|395:82|334:133|402:127|331:154|366:208,1,500
