osu file format v14

[General]
AudioFilename: audio.mp3
AudioLeadIn: 0
PreviewTime: 43735
Countdown: 0
SampleSet: Soft
StackLeniency: 0.7
Mode: 0
LetterboxInBreaks: 0
WidescreenStoryboard: 1

[Editor]
DistanceSpacing: 1.1
BeatDivisor: 4
GridSize: 32
TimelineZoom: 1

[Metadata]
Title:Yasashii Suisei (TV Size)
TitleUnicode:優しい彗星 (TV Size)
Artist:YOASOBI
ArtistUnicode:YOASOBI
Creator:Bakugo-
Version:Gouhin's Easy
Source:BEASTARS
Tags:second season 2nd ending ed ビースターズ japanese anime pop jpop j-pop 幾田りら legoshi louis gouhin revolver furry zekk zekken _zekken Ikuta Lilas Rira ikura Ayase
BeatmapID:3428709
BeatmapSetID:1614565

[Difficulty]
HPDrainRate:3
CircleSize:3
OverallDifficulty:3
ApproachRate:3.5
SliderMultiplier:1
SliderTickRate:1

[Events]
//Background and Video events
0,0,"bg.jpg",0,0
Video,0,"ed.mp4"
//Break Periods
//Storyboard Layer 0 (Background)
//Storyboard Layer 1 (Fail)
//Storyboard Layer 2 (Pass)
//Storyboard Layer 3 (Foreground)
//Storyboard Layer 4 (Overlay)
//Storyboard Sound Samples

[TimingPoints]
2485,666.666666666667,4,2,1,50,1,0
2485,-100,4,2,1,50,0,0
13151,-71.4285714285714,4,2,1,55,0,0
23818,-66.6666666666667,4,2,1,60,0,0
24485,-66.6666666666667,4,2,2,70,0,0
38485,-66.6666666666667,4,2,2,70,0,0
43819,-66.6666666666667,4,2,2,70,0,0
45151,-66.6666666666667,4,2,1,85,0,1
45818,-66.6666666666667,4,2,1,85,0,1
51819,-66.6666666666667,4,2,1,85,0,1
52485,-66.6666666666667,4,2,1,85,0,1
53152,-66.6666666666667,4,2,1,85,0,1
55152,-66.6666666666667,4,2,1,85,0,1
55819,-66.6666666666667,4,2,1,85,0,1
65152,-66.6666666666667,4,2,1,85,0,1
66485,-66.6666666666667,4,2,1,85,0,1
74485,-66.6666666666667,4,2,1,85,0,1
76819,-66.6666666666667,4,2,1,85,0,1
77151,-66.6666666666667,4,2,1,85,0,1
85151,-100,4,2,1,30,0,0
86818,-100,4,2,1,5,0,0

[Colours]
Combo1 : 240,140,140
Combo2 : 200,180,220
Combo3 : 240,200,155
Combo4 : 150,185,220

[HitObjects]
484,98,2485,6,0,P|445:80|386:95,1,100,2|0,2:2|0:0,0:0:0:0:
320,175,3818,2,0,P|281:193|222:178,1,100,2|0,2:2|0:0,0:0:0:0:
159,94,5151,2,0,P|120:76|61:91,1,100,2|0,2:2|0:0,0:0:0:0:
107,200,6485,5,2,2:2:0:0:
225,181,7151,1,2,2:2:0:0:
342,156,7818,1,2,2:2:0:0:
322,335,9151,6,0,P|372:341|425:309,1,100,2|2,2:2|2:2,2:2:0:0:
465,221,10485,2,0,P|471:170|439:118,1,100,2|0,0:2|0:0,0:2:0:0:
363,195,11818,1,2,2:2:0:0:
268,139,12484,1,2,2:2:0:0:
253,273,13151,6,0,P|184:250|131:168,1,139.999995727539,2|0,1:2|0:0,2:2:0:0:
137,120,14150,1,2,2:2:0:0:
137,120,14484,2,0,L|65:111,2,69.9999978637696,2|2|2,2:2|1:2|2:2,2:2:0:0:
293,186,15818,6,0,L|273:93,1,69.9999978637696,2|2,1:2|2:2,0:0:0:0:
275,33,16485,1,2,2:2:0:0:
198,67,16818,1,2,2:2:0:0:
127,22,17151,2,0,L|48:36,2,69.9999978637696,2|0|2,2:2|1:2|2:2,2:2:0:0:
171,184,18484,6,0,P|196:229|168:310,1,139.999995727539,2|2,1:2|2:2,2:2:0:0:
89,319,19484,1,2,2:2:0:0:
89,319,19818,2,0,L|5:302,2,69.9999978637696,2|2|2,2:2|1:2|2:2,2:2:0:0:
169,308,20818,1,2,2:2:0:0:
249,331,21151,6,0,B|280:325|312:353|312:353|340:319|397:332,1,139.999995727539,2|2,1:2|2:2,0:0:0:0:
453,296,22151,1,2,1:2:0:0:
453,296,22484,2,0,L|435:226,1,69.9999978637696,2|2,2:2|1:2,2:2:0:0:
361,188,23151,1,0,2:2:0:0:
221,302,23818,6,0,B|150:337|146:265|64:311,1,150.000005722046,2|8,1:2|2:2,2:2:0:0:
20,241,24818,1,0,2:2:0:0:
20,241,25151,2,0,L|15:158,1,75.0000028610231,0|2,2:2|1:2,0:0:0:0:
5,76,25818,2,0,B|126:66,1,75.0000028610231,8|0,2:2|0:0,0:0:0:0:
146,130,26485,6,0,P|129:166|187:256,1,150.000005722046,2|8,1:2|2:2,2:2:0:0:
268,97,27818,2,0,P|289:58|286:15,1,75.0000028610231,2|2,2:2|1:2,2:2:0:0:
199,35,28485,2,0,P|160:13|117:17,1,75.0000028610231,10|2,2:2|2:2,0:0:0:0:
81,88,29151,6,0,B|80:157|80:157|85:168|85:168|85:258,1,150.000005722046,2|8,1:2|2:2,2:2:0:0:
114,327,30151,1,2,2:2:0:0:
114,327,30484,2,0,P|153:337|194:323,1,75.0000028610231,2|2,2:2|1:2,2:2:0:0:
253,268,31151,2,0,P|292:258|333:272,1,75.0000028610231,10|2,2:2|2:2,0:0:0:0:
401,314,31818,6,0,B|425:268|425:225|425:225|385:212|371:170,1,150.000005722046,2|10,1:2|2:2,2:2:0:0:
501,57,33151,2,0,P|439:16|365:20,1,150.000005722046,2|10,2:2|2:2,2:2:0:0:
271,172,34484,6,0,B|187:136|203:208|93:164,1,150.000005722046,2|8,1:2|2:2,2:2:0:0:
52,131,35484,1,0,2:2:0:0:
52,131,35818,2,0,L|26:224,1,75.0000028610231,0|2,2:2|1:2,0:0:0:0:
12,291,36485,2,0,L|26:371,1,75.0000028610231,8|0,2:2|0:0,0:0:0:0:
114,369,37151,1,2,1:2:0:0:
150,192,37818,6,0,B|251:160|251:160|303:205,1,150.000005722046,10|2,2:2|1:2,2:2:0:0:
368,233,38818,1,2,2:2:0:0:
368,233,39151,2,0,P|379:192|368:155,1,75.0000028610231,10|2,2:2|2:2,2:2:0:0:
322,85,39818,6,0,P|259:63|159:101,1,150.000005722046,2|8,1:2|2:2,2:2:0:0:
148,170,40818,1,2,2:2:0:0:
148,170,41151,2,0,P|108:171|74:154,1,75.0000028610231,2|2,2:2|1:2,2:2:0:0:
13,92,41818,2,0,P|-3:58|-1:20,1,75.0000028610231,10|2,2:2|2:2,0:0:0:0:
87,37,42485,6,0,L|170:49,1,75.0000028610231,2|2,1:2|2:2,2:2:0:0:
241,87,43151,2,0,L|315:76,1,75.0000028610231,10|2,2:2|1:2,0:0:0:0:
404,65,43818,5,2,2:2:0:0:
404,65,45151,6,0,P|441:142|393:213,1,150.000005722046,6|10,1:2|2:2,2:2:0:0:
344,249,46151,1,0,0:0:0:0:
344,249,46484,2,0,L|189:233,1,150.000005722046,2|8,1:2|2:2,2:2:0:0:
37,322,47818,6,0,B|114:292|111:374|212:343,1,150.000005722046,2|10,1:2|2:2,2:2:0:0:
266,328,48818,1,0,2:2:0:0:
222,249,49151,2,0,L|252:81,1,150.000005722046,2|10,1:2|2:2,2:2:0:0:
400,4,50484,6,0,P|439:71|426:164,1,150.000005722046,2|10,1:2|2:2,2:2:0:0:
370,203,51484,1,0,2:2:0:0:
370,203,51818,2,0,P|357:248|372:297,1,75.0000028610231,2|2,1:2|2:2,2:2:0:0:
446,305,52485,2,0,P|459:350|444:399,1,75.0000028610231,10|2,2:2|2:2,0:0:0:0:
365,371,53151,6,0,B|299:336|296:409|193:362,1,150.000005722046,2|8,1:2|2:2,2:2:0:0:
253,288,54151,2,0,B|190:275|190:275|171:283|171:283|104:268,1,150.000005722046,0|2,2:2|2:2,0:0:0:0:
39,327,55151,2,0,P|17:292|15:252,1,75.0000028610231,8|0,2:2|2:2,0:0:0:0:
36,171,55818,6,0,P|8:101|51:20,1,150.000005722046,2|10,1:2|2:2,2:2:0:0:
127,26,56818,1,0,2:2:0:0:
127,26,57151,2,0,B|218:63|218:63|276:42,1,150.000005722046,2|8,1:2|2:2,2:2:0:0:
351,9,58151,1,0,2:2:0:0:
351,9,58484,6,0,L|380:183,1,150.000005722046,2|10,1:2|2:2,2:2:0:0:
407,246,59484,1,0,2:2:0:0:
407,246,59818,2,0,P|330:270|250:221,1,150.000005722046,2|10,1:2|2:2,2:2:0:0:
98,300,61151,6,0,P|89:225|129:153,1,150.000005722046,2|8,1:2|2:2,2:2:0:0:
194,106,62151,2,0,P|235:101|279:114,1,75.0000028610231,2|2,2:2|1:2,2:2:0:0:
326,177,62818,2,0,L|294:267,2,75.0000028610231,0|10|0,2:2|2:2|2:2,0:0:0:0:
360,93,63818,6,0,B|404:79|434:99|434:99|462:120|516:107,1,150.000005722046,2|8,1:2|2:2,2:2:0:0:
489,288,65150,1,2,1:2:0:0:
429,355,65484,1,2,2:2:0:0:
357,300,65818,2,0,L|265:294,1,75.0000028610231,10|2,2:2|2:2,2:2:0:0:
214,354,66484,6,0,B|190:299|190:299|222:199,1,150.000005722046,6|10,1:2|2:2,2:2:0:0:
273,143,67484,1,0,0:0:0:0:
273,143,67818,2,0,P|349:106|420:140,1,150.000005722046,2|8,1:2|2:2,2:2:0:0:
486,287,69151,6,0,B|434:312|434:312|312:278,1,150.000005722046,2|8,1:2|2:2,2:2:0:0:
316,207,70151,1,0,2:2:0:0:
316,207,70485,2,0,B|252:197|252:197|243:209|243:209|149:197,1,150.000005722046,2|10,1:2|2:2,0:0:0:0:
55,63,71818,6,0,P|26:125|49:219,1,150.000005722046,2|10,1:2|2:2,2:2:0:0:
104,265,72818,1,0,2:2:0:0:
104,265,73151,2,0,L|87:359,1,75.0000028610231,2|2,1:2|2:2,2:2:0:0:
180,340,73818,2,0,L|254:352,1,75.0000028610231,10|2,2:2|2:2,0:0:0:0:
333,310,74484,6,0,B|382:251|382:251|357:171,1,150.000005722046,2|10,1:2|2:2,2:2:0:0:
311,104,75484,2,0,P|269:97|215:117,1,75.0000028610231,2|2,2:2|1:2,0:0:0:0:
188,179,76151,1,2,2:2:0:0:
101,153,76485,2,0,P|60:166|21:210,1,75.0000028610231,10|2,2:2|2:2,0:0:0:0:
99,250,77151,6,0,B|175:248|158:306|231:310,1,150.000005722046,2|10,1:2|2:2,2:2:0:0:
315,272,78151,1,0,0:0:0:0:
315,272,78484,2,0,L|323:364,1,75.0000028610231,2|0,1:2|2:2,2:2:0:0:
410,330,79151,2,0,L|484:294,1,75.0000028610231,8|0,2:2|2:2,0:0:0:0:
414,233,79818,6,0,B|378:166|437:155|407:88,1,150.000005722046,2|10,1:2|2:2,2:2:0:0:
323,73,80818,1,0,0:0:0:0:
323,73,81151,2,0,L|309:-7,1,75.0000028610231,2|2,1:2|2:2,2:2:0:0:
223,23,81818,1,10,2:2:0:0:
133,10,82151,1,2,2:2:0:0:
60,63,82484,6,0,L|73:227,1,150.000005722046,2|10,1:2|2:2,0:0:0:0:
152,265,83484,1,0,2:2:0:0:
152,265,83818,2,0,L|144:339,1,75.0000028610231,2|0,1:2|2:2,2:2:0:0:
231,361,84485,2,0,L|240:287,1,75.0000028610231,10|0,2:2|2:2,2:2:0:0:
256,192,85151,12,0,86818,0:0:0:0:
