osu file format v14

[General]
AudioFilename: audio.mp3
AudioLeadIn: 0
PreviewTime: 149831
Countdown: 0
SampleSet: Soft
StackLeniency: 0.7
Mode: 2
LetterboxInBreaks: 1
EpilepsyWarning: 1
WidescreenStoryboard: 1

[Editor]
DistanceSpacing: 0.8
BeatDivisor: 12
GridSize: 32
TimelineZoom: 2.5

[Metadata]
Title:Yasashii Suisei
TitleUnicode:優しい彗星
Artist:YOASOBI
ArtistUnicode:YOASOBI
Creator:Crowley
Version:The Mutual Connection of Two Exceptional Falling Stars
Source:BEASTARS
Tags:Second 2nd Season Chatie ビースターズ Japanese Anime Ed Ending Pop 幾田りら Ikuta Rira Lilas Ayase Ikura Kohei Kadowaki 門脇 恒平 Kadoppe Female Vocal BST Gentle Comet JPop J-Pop
BeatmapID:2910097
BeatmapSetID:1411580

[Difficulty]
HPDrainRate:6
CircleSize:4.4
OverallDifficulty:8.6
ApproachRate:8.6
SliderMultiplier:3.19999990463257
SliderTickRate:4

[Events]
//Background and Video events
Video,-697,"ffff.mp4"
0,0,"sski_0.jpg",0,0
//Break Periods
2,127331,137339
//Storyboard Layer 0 (Background)
//Storyboard Layer 1 (Fail)
//Storyboard Layer 2 (Pass)
//Storyboard Layer 3 (Foreground)
//Storyboard Layer 4 (Overlay)
//Storyboard Sound Samples
Sample,127331,0,"soft-hitwhistle68.mp3",25
Sample,204664,0,"soft-hitwhistle70.mp3",25

[TimingPoints]
1998,666.666666666667,4,2,1,60,1,0
1998,-133.333333333333,4,2,3,40,0,0
12665,-100,4,2,1,50,0,0
14915,-100,4,2,6,50,0,0
15165,-100,4,2,1,50,0,0
15415,-100,4,2,6,50,0,0
15665,-100,4,2,1,50,0,0
17581,-100,4,2,6,50,0,0
17831,-100,4,2,1,50,0,0
20665,-100,4,2,3,50,0,0
22665,-100,4,2,1,50,0,0
23331,-100,4,2,2,55,0,0
25581,-100,4,2,6,55,0,0
25748,-100,4,2,1,55,0,0
26081,-100,4,2,6,55,0,0
26248,-100,4,2,2,55,0,0
36248,-100,4,2,6,55,0,0
36498,-100,4,2,2,55,0,0
41998,-100,4,2,4,55,0,0
43331,-100,4,2,2,50,0,0
44664,-100,4,2,5,70,0,1
44831,-100,4,2,1,70,0,1
54081,-100,4,2,6,70,0,1
54331,-100,4,2,1,70,0,1
54915,-100,4,2,6,70,0,1
55165,-100,4,2,1,70,0,1
84331,-100,4,2,1,70,0,0
84664,-71.4285714285714,4,2,3,70,0,1
85665,-100,4,2,3,70,0,1
102665,-100,4,2,1,70,0,1
103331,-100,4,2,1,60,0,0
105581,-100,4,2,6,60,0,0
105748,-100,4,2,1,60,0,0
116248,-100,4,2,6,60,0,0
116415,-100,4,2,1,60,0,0
123331,-90.9090909090909,4,2,1,60,0,0
124665,-100,4,2,1,40,0,0
137998,-100,4,2,1,55,0,0
138581,-100,4,2,7,55,0,0
138748,-100,4,2,1,55,0,0
141248,-100,4,2,7,55,0,0
141415,-100,4,2,1,55,0,0
147665,-100,4,2,3,55,0,0
149998,-100,4,2,1,50,0,0
151331,-100,4,2,5,75,0,1
151498,-100,4,2,1,75,0,1
160748,-100,4,2,6,75,0,1
160998,-100,4,2,1,75,0,1
161581,-100,4,2,6,70,0,1
161831,-100,4,2,1,70,0,1
172664,-100,4,2,69,65,0,0
172748,-100,4,2,1,75,0,0
173498,-100,4,2,2,75,0,0
173665,-100,4,2,2,55,0,0
173831,-100,4,2,2,75,0,0
174665,-100,4,2,1,75,0,0
174831,-100,4,2,1,75,0,0
174915,-100,4,2,1,75,0,0
175331,-100,4,2,5,75,0,1
175498,-100,4,2,1,75,0,1
191331,-100,4,2,3,75,0,1
193331,-100,4,2,1,75,0,1
193998,-200,4,2,3,45,0,0
204665,-200,4,2,3,30,0,0

[Colours]
Combo1 : 192,192,192
Combo2 : 0,128,128
Combo3 : 128,255,255

[HitObjects]
126,337,1998,6,2,P|56:306|151:98,1,360.000003004074,2|0,0:0|0:0,0:0:0:0:
292,97,3331,2,2,P|189:92|55:296,1,360.000003004074,2|0,0:0|0:0,0:0:0:0:
261,344,4665,6,2,P|339:320|248:125,1,360.000003004074,2|0,0:0|0:0,0:0:0:0:
106,113,5998,2,2,L|398:108,1,240.000002002716
17,13,7331,6,2,L|29:402,1,360.000003004074,2|0,0:0|0:0,0:0:0:0:
254,364,8665,2,2,L|264:222,1,120.000001001358,2|0,0:0|0:0,0:0:0:0:
78,238,9331,2,2,L|68:96,1,120.000001001358,2|0,0:0|0:0,0:0:0:0:
265,89,9998,6,2,P|359:113|379:255,1,240.000002002716,2|0,0:0|0:0,0:0:0:0:
75,278,11331,2,2,L|63:4,1,240.000002002716
430,58,12665,6,0,P|480:123|404:131,1,159.999995231628,0|2,3:0|0:0,0:0:0:0:
302,147,13165,1,0,3:0:0:0:
218,143,13331,2,0,L|393:106,1,159.999995231628,2|2,0:0|0:0,0:0:0:0:
123,296,13998,6,0,L|310:272,2,159.999995231628,2|2|2,0:0|3:2|0:0,0:0:0:0:
279,262,14831,2,0,P|326:231|261:164,1,159.999995231628,0|2,3:2|0:0,0:0:0:0:
94,163,15331,6,0,P|44:135|106:79,1,159.999995231628,0|2,3:2|0:0,0:0:0:0:
233,79,15831,1,0,3:2:0:0:
320,82,15998,2,0,L|313:183,1,79.9999976158142
186,204,16331,2,0,L|102:220,1,79.9999976158142,2|0,0:0|0:0,0:0:0:0:
285,304,16665,6,0,L|476:340,2,159.999995231628,2|2|2,0:0|3:2|0:0,0:0:0:0:
163,290,17498,2,0,P|125:257|188:173,1,159.999995231628,0|0,3:2|0:0,0:0:0:0:
348,176,17998,6,0,P|425:157|447:72,1,159.999995231628,0|2,3:2|0:0,0:0:0:0:
296,76,18498,1,0,3:2:0:0:
206,73,18665,2,0,L|382:45,1,159.999995231628,2|2,0:0|0:0,0:0:0:0:
182,210,19331,6,0,L|-13:182,2,159.999995231628,2|2|2,0:0|3:2|0:0,0:0:0:0:
463,234,20331,1,2,0:0:0:0:
75,360,20665,6,0,P|26:317|114:272,1,159.999995231628,2|2,3:2|0:0,0:0:0:0:
165,262,21165,1,2,3:2:0:0:
303,264,21331,2,0,L|322:168,1,79.9999976158142,2|0,0:0|0:0,0:0:0:0:
192,186,21665,2,0,L|172:73,1,79.9999976158142,2|0,3:2|0:0,0:0:0:0:
322,99,21998,6,0,L|397:62,1,79.9999976158142,2|0,0:0|0:0,0:0:0:0:
248,210,22331,2,0,L|130:176,1,79.9999976158142,2|0,3:2|0:0,0:0:0:0:
454,149,22665,2,0,L|454:336,1,159.999995231628,2|2,0:0|0:0,0:0:0:0:
65,366,23331,6,0,P|27:346|77:257,1,159.999995231628,0|2,3:0|0:0,0:0:0:0:
156,250,23831,1,0,3:2:0:0:
380,248,23998,2,0,P|436:209|358:171,1,159.999995231628,10|2,0:2|0:0,0:0:0:0:
204,156,24665,5,2,0:0:0:0:
425,152,24998,2,0,L|428:180,1,19.9999994039536,2|0,3:2|0:0,0:0:0:0:
266,261,25331,1,10,0:0:0:0:
416,264,25498,2,0,L|399:89,1,159.999995231628,0|2,3:2|0:0,0:0:0:0:
173,102,25998,6,0,P|114:146|187:183,1,159.999995231628,0|2,3:2|0:0,0:0:0:0:
283,196,26498,1,0,3:0:0:0:
53,361,26665,1,8,0:0:0:0:
11,266,26831,1,0,0:0:0:0:
63,178,26998,1,0,0:0:0:0:
166,168,27165,1,2,0:0:0:0:
343,181,27331,6,0,L|213:181,1,79.9999976158142,2|0,0:0|0:0,0:0:0:0:
371,93,27665,2,0,L|501:93,1,79.9999976158142,2|2,3:2|0:0,0:0:0:0:
306,22,27998,2,0,L|436:22,1,79.9999976158142,8|0,0:2|3:2,0:0:0:0:
161,262,28331,2,0,L|31:262,1,79.9999976158142,2|2,0:0|0:0,0:0:0:0:
136,254,28581,1,0,0:0:0:0:
319,251,28665,6,0,P|366:216|301:148,1,159.999995231628,0|0,3:2|0:0,0:0:0:0:
220,145,29165,1,0,3:2:0:0:
61,145,29331,2,0,L|53:44,3,79.9999976158142,8|0|2|0,0:2|0:0|0:0|0:0,0:0:0:0:
227,73,29998,6,0,P|316:92|347:199,1,159.999995231628,2|2,0:0|3:2,0:0:0:0:
275,217,30498,1,0,0:0:0:0:
123,226,30665,2,0,L|225:231,1,79.9999976158142,10|0,0:0|0:0,0:0:0:0:
336,290,30998,2,0,L|246:296,1,79.9999976158142,2|0,0:0|0:0,0:0:0:0:
32,372,31331,6,0,P|8:316|95:258,1,159.999995231628,2|0,3:2|0:0,0:0:0:0:
302,257,31831,2,0,L|302:174,1,79.9999976158142,2|8,3:2|0:0,0:0:0:0:
141,209,32165,2,0,L|239:207,2,79.9999976158142
376,334,32665,5,2,0:0:0:0:
421,241,32831,1,0,0:0:0:0:
371,152,32998,1,0,3:2:0:0:
268,142,33164,1,0,0:0:0:0:
421,100,33331,2,0,L|560:84,1,79.9999976158142,10|0,0:0|3:2,0:0:0:0:
268,251,33665,2,0,L|141:235,1,79.9999976158142
237,236,33914,1,0,0:0:0:0:
401,210,33998,6,0,P|455:258|364:272,1,159.999995231628,2|2,0:0|0:0,0:0:0:0:
173,302,34498,2,0,L|290:302,1,79.9999976158142,2|8,3:2|0:2,0:0:0:0:
149,209,34831,2,0,L|58:206,2,79.9999976158142,2|2|2,0:0|0:0|0:0,0:0:0:0:
314,211,35331,5,2,0:0:0:0:
107,355,35665,2,0,L|102:317,1,19.9999994039536,2|0,3:2|0:0,0:0:0:0:
253,295,35998,1,10,0:0:0:0:
102,361,36165,2,0,L|113:174,1,159.999995231628,0|0,3:2|0:0,0:0:0:0:
345,206,36665,6,0,P|391:172|323:95,1,159.999995231628,2|0,3:2|0:0,0:0:0:0:
242,93,37165,1,0,3:2:0:0:
470,48,37331,1,10,0:2:0:0:
508,114,37497,1,0,0:0:0:0:
473,183,37664,1,0,0:0:0:0:
396,191,37830,1,0,0:0:0:0:
215,248,37998,6,0,L|332:250,1,79.9999976158142,2|0,3:2|0:0,0:0:0:0:
164,337,38331,2,0,L|259:338,1,79.9999976158142,2|0,0:0|0:0,0:0:0:0:
405,270,38665,2,0,L|285:269,1,79.9999976158142,10|0,3:2|0:0,0:0:0:0:
101,200,38998,2,0,L|14:199,1,79.9999976158142,2|0,0:0|0:0,0:0:0:0:
67,197,39248,1,0,0:0:0:0:
274,195,39331,6,0,P|333:218|322:351,1,159.999995231628,2|0,3:2|0:0,0:0:0:0:
255,329,39831,1,2,3:2:0:0:
34,373,39998,2,0,L|25:185,1,159.999995231628,10|2,0:0|0:0,0:0:0:0:
282,164,40665,6,0,L|187:189,1,79.9999976158142,2|0,0:0|0:0,0:0:0:0:
344,236,40998,2,0,L|445:271,1,79.9999976158142,2|2,3:2|0:0,0:0:0:0:
246,369,41331,2,0,L|230:269,1,79.9999976158142,10|2,0:0|0:0,0:0:0:0:
459,298,41665,2,0,L|471:208,1,79.9999976158142,2|0,0:0|0:0,0:0:0:0:
203,210,41998,5,2,3:2:0:0:
137,131,42164,1,2,0:2:0:0:
174,37,42331,1,2,0:2:0:0:
275,23,42497,1,2,3:2:0:0:
159,24,42665,1,10,0:2:0:0:
25,23,42831,2,2,L|28:53,1,26.6666658719381,2|2,0:2|0:2,0:0:0:0:
32,86,42942,1,2,0:2:0:0:
37,130,42998,2,0,L|144:158,1,79.9999976158142,2|2,3:2|3:2,0:0:0:0:
370,195,43331,5,2,0:0:0:0:
97,370,44665,6,0,P|39:352|105:264,1,159.999995231628,6|2,3:2|0:0,0:0:0:0:
188,277,45165,2,0,L|267:297,1,79.9999976158142,2|8,0:0|0:0,0:0:0:0:
42,198,45498,2,0,P|74:129|206:109,1,159.999995231628,2|0,0:0|0:0,0:0:0:0:
373,105,45998,6,0,L|176:143,1,159.999995231628,2|2,3:2|0:0,0:0:0:0:
377,155,46498,2,0,L|373:240,1,79.9999976158142,2|10,0:0|0:0,0:0:0:0:
141,256,46831,2,0,P|90:290|160:339,1,159.999995231628,2|0,0:0|0:0,0:0:0:0:
369,352,47331,6,0,P|428:327|408:226,1,159.999995231628,2|2,3:2|0:0,0:0:0:0:
296,231,47831,2,0,L|189:236,1,79.9999976158142,2|8,0:0|0:0,0:0:0:0:
356,158,48165,2,0,P|439:175|510:254,1,159.999995231628,2|0,0:0|0:0,0:0:0:0:
250,345,48665,6,0,L|223:242,1,79.9999976158142,2|0,3:2|0:0,0:0:0:0:
368,249,48998,2,0,L|341:146,1,79.9999976158142,2|2,0:0|0:0,0:0:0:0:
205,170,49331,2,0,L|225:68,1,79.9999976158142,8|0,0:0|0:0,0:0:0:0:
366,118,49664,2,0,L|388:4,1,79.9999976158142,0|2,0:0|0:0,0:0:0:0:
146,307,49998,6,0,P|97:287|154:207,1,159.999995231628,2|2,3:2|0:0,0:0:0:0:
254,207,50498,2,0,L|263:89,1,79.9999976158142,2|8,0:0|0:0,0:0:0:0:
135,109,50831,1,0,0:0:0:0:
102,103,50915,1,0,0:0:0:0:
71,96,50998,2,0,L|166:74,1,79.9999976158142,2|0,0:0|0:0,0:0:0:0:
381,71,51331,6,0,L|370:165,1,79.9999976158142,2|0,3:2|0:0,0:0:0:0:
253,184,51665,2,0,L|163:211,1,79.9999976158142,2|2,0:0|0:0,0:0:0:0:
401,229,51998,2,0,L|388:338,1,79.9999976158142,8|0,0:0|0:0,0:0:0:0:
156,350,52331,2,0,L|74:373,1,79.9999976158142,2|0,0:0|0:0,0:0:0:0:
345,367,52665,6,0,P|403:331|334:271,1,159.999995231628,2|0,3:2|0:0,0:0:0:0:
261,262,53165,2,0,L|229:262,2,26.6666658719381,2|0|0,0:0|0:0|0:0,0:0:0:0:
292,262,53331,2,0,L|395:252,1,79.9999976158142,8|0,0:0|0:0,0:0:0:0:
243,126,53665,2,0,L|148:111,1,79.9999976158142,2|0,0:0|0:0,0:0:0:0:
417,39,53998,6,0,P|475:72|398:113,1,159.999995231628,0|2,3:0|0:0,0:0:0:0:
298,140,54498,2,0,L|216:160,1,79.9999976158142,0|10,0:0|0:0,0:0:0:0:
446,154,54831,2,0,L|462:354,1,159.999995231628,2|0,0:0|0:0,0:0:0:0:
212,360,55331,6,0,P|174:337|241:255,1,159.999995231628,2|2,3:2|0:0,0:0:0:0:
334,256,55831,2,0,L|347:160,1,79.9999976158142,2|8,0:0|0:0,0:0:0:0:
180,164,56165,2,0,P|118:146|117:50,1,159.999995231628,2|0,0:0|0:0,0:0:0:0:
350,46,56665,6,0,L|145:98,1,159.999995231628,2|0,3:2|0:0,0:0:0:0:
294,109,57165,1,2,0:0:0:0:
133,146,57331,2,0,L|116:243,1,79.9999976158142,10|2,0:0|0:0,0:0:0:0:
248,249,57665,2,0,L|266:334,1,79.9999976158142,2|2,0:0|0:0,0:0:0:0:
26,363,57998,6,0,L|219:344,1,159.999995231628,2|2,3:2|0:0,0:0:0:0:
66,342,58498,2,0,L|65:239,1,79.9999976158142,2|8,0:0|0:0,0:0:0:0:
251,262,58831,2,0,P|301:224|243:161,1,159.999995231628,2|0,0:0|0:0,0:0:0:0:
25,157,59331,6,0,L|131:155,2,79.9999976158142,2|0|0,3:2|0:0|0:0,0:0:0:0:
302,241,59998,2,0,L|113:287,1,159.999995231628,10|0,0:0|0:0,0:0:0:0:
284,324,60498,2,0,L|223:322,1,39.9999988079071
76,362,60665,6,0,P|37:343|110:273,1,159.999995231628,2|0,3:2|0:0,0:0:0:0:
173,265,61164,2,0,L|214:266,2,26.6666658719381
141,263,61331,2,0,P|98:229|130:163,1,119.999996423721,10|0,0:0|0:0,0:0:0:0:
275,156,61665,6,0,L|433:137,2,159.999995231628,2|0|2,0:0|3:0|0:0,0:0:0:0:
149,164,62498,1,0,0:0:0:0:
370,246,62665,2,0,L|380:141,1,79.9999976158142,10|0,0:0|0:0,0:0:0:0:
201,44,62998,2,0,L|112:33,1,79.9999976158142,2|0,0:0|0:0,0:0:0:0:
356,285,63331,6,0,P|406:247|326:181,1,159.999995231628,2|0,3:2|0:0,0:0:0:0:
270,164,63831,1,0,0:0:0:0:
276,137,63886,1,0,0:0:0:0:
282,109,63942,1,0,0:0:0:0:
321,103,63998,2,0,L|400:100,1,79.9999976158142,8|0,0:0|0:0,0:0:0:0:
255,240,64331,2,0,L|345:240,1,79.9999976158142
101,365,64665,6,0,P|54:353|67:290,1,119.999996423721,2|0,3:2|0:0,0:0:0:0:
134,288,64998,2,0,L|277:288,1,119.999996423721,2|0,0:0|0:0,0:0:0:0:
163,210,65331,2,0,L|24:209,1,119.999996423721,10|0,0:0|0:0,0:0:0:0:
196,131,65665,2,0,P|239:144|266:238,1,119.999996423721,2|0,0:0|0:0,0:0:0:0:
73,358,65998,6,0,P|35:331|91:245,1,159.999995231628,6|2,3:2|0:0,0:0:0:0:
192,243,66498,2,0,L|302:244,1,79.9999976158142,2|8,0:0|0:0,0:0:0:0:
45,169,66831,2,0,P|66:95|199:73,1,159.999995231628,2|0,0:0|0:0,0:0:0:0:
370,66,67331,6,0,P|419:94|356:160,1,159.999995231628,2|2,3:2|0:0,0:0:0:0:
241,165,67831,2,0,L|152:166,1,79.9999976158142,2|8,0:0|0:0,0:0:0:0:
390,280,68165,2,0,P|453:240|434:152,1,159.999995231628,2|0,0:0|0:0,0:0:0:0:
215,202,68665,6,0,L|426:202,1,159.999995231628,2|2,3:2|0:0,0:0:0:0:
230,127,69165,2,0,L|126:126,1,79.9999976158142,2|8,0:0|0:0,0:0:0:0:
281,60,69498,2,0,P|336:104|254:142,1,159.999995231628,2|0,0:0|0:0,0:0:0:0:
46,268,69998,6,0,L|67:346,1,79.9999976158142,2|0,3:2|0:0,0:0:0:0:
205,179,70331,2,0,L|225:256,1,79.9999976158142,2|2,0:0|0:0,0:0:0:0:
62,149,70665,2,0,L|152:150,1,79.9999976158142,8|0,0:0|0:0,0:0:0:0:
281,253,70998,2,0,L|396:257,1,79.9999976158142,0|2,0:0|0:0,0:0:0:0:
105,372,71331,6,0,P|52:347|129:291,1,159.999995231628,2|2,3:2|0:0,0:0:0:0:
259,279,71831,2,0,L|270:188,1,79.9999976158142,2|8,0:0|0:0,0:0:0:0:
181,184,72165,1,0,0:0:0:0:
336,152,72331,2,0,L|468:124,1,79.9999976158142,2|0,0:0|0:0,0:0:0:0:
174,71,72665,6,0,L|79:86,1,79.9999976158142,2|0,3:2|0:0,0:0:0:0:
228,142,72998,2,0,L|315:166,1,79.9999976158142,2|2,0:0|0:0,0:0:0:0:
82,237,73331,2,0,L|-12:265,1,79.9999976158142,8|0,0:0|0:0,0:0:0:0:
254,339,73665,2,0,L|346:368,1,79.9999976158142,2|0,0:0|0:0,0:0:0:0:
84,358,73998,6,0,P|41:331|114:255,1,159.999995231628,2|2,3:2|0:0,0:0:0:0:
234,246,74498,2,0,L|274:246,2,26.6666658719381,2|0|0,0:0|0:0|0:0,0:0:0:0:
200,244,74665,1,8,0:0:0:0:
44,243,74831,2,0,L|41:151,1,79.9999976158142,2|0,0:0|0:0,0:0:0:0:
135,151,75165,1,0,0:0:0:0:
360,130,75331,6,0,L|495:109,1,79.9999976158142,2|0,3:2|0:0,0:0:0:0:
273,202,75665,2,0,L|172:195,1,79.9999976158142
419,302,75998,2,0,L|513:286,2,79.9999976158142,10|2|2,0:0|0:0|0:0,0:0:0:0:
301,302,76498,2,0,L|255:301,1,39.9999988079071
419,240,76665,6,0,P|454:207|388:134,1,159.999995231628,2|2,3:2|0:0,0:0:0:0:
263,129,77165,1,2,0:0:0:0:
258,89,77220,1,0,0:0:0:0:
255,60,77275,1,0,0:0:0:0:
253,35,77331,1,8,0:0:0:0:
388,39,77498,2,0,P|430:81|362:164,1,159.999995231628,2|0,0:0|0:0,0:0:0:0:
151,322,77998,6,0,P|184:224|287:235,1,159.999995231628,2|0,3:2|0:0,0:0:0:0:
389,213,78498,1,0,0:0:0:0:
264,208,78665,2,0,L|365:206,1,79.9999976158142,10|2,0:0|0:0,0:0:0:0:
463,208,78998,1,2,0:0:0:0:
63,354,79331,6,0,P|25:320|132:254,1,159.999995231628,2|2,3:2|0:0,0:0:0:0:
203,228,79831,1,2,0:0:0:0:
207,188,79886,1,0,0:0:0:0:
212,148,79942,1,0,0:0:0:0:
217,112,79997,1,8,0:0:0:0:
68,140,80165,2,0,P|99:89|215:75,1,159.999995231628,2|0,0:0|0:0,0:0:0:0:
424,71,80665,6,0,L|213:120,1,159.999995231628,2|0,3:2|0:0,0:0:0:0:
179,123,81165,1,0,0:0:0:0:
342,196,81331,2,0,L|431:231,1,79.9999976158142,10|0,0:0|0:0,0:0:0:0:
295,263,81665,2,0,L|191:288,1,79.9999976158142,2|0,0:0|0:0,0:0:0:0:
258,264,81915,1,0,0:0:0:0:
432,242,81998,6,0,P|397:163|274:137,1,159.999995231628,2|2,3:2|0:0,0:0:0:0:
194,131,82498,2,0,L|190:37,1,79.9999976158142,2|8,0:0|0:0,0:0:0:0:
301,40,82831,1,2,0:0:0:0:
178,204,82998,2,0,L|305:203,1,79.9999976158142,2|2,0:0|0:0,0:0:0:0:
484,357,83331,6,0,L|265:360,1,159.999995231628,2|2,3:2|0:0,0:0:0:0:
481,344,83831,2,0,L|481:246,1,79.9999976158142,2|8,0:0|0:0,0:0:0:0:
238,251,84165,1,2,0:0:0:0:
133,247,84331,2,0,L|133:161,1,79.9999976158142,2|0,0:0|0:0,0:0:0:0:
366,298,84664,6,0,P|506:171|341:12,1,447.999972976686,6|8,3:2|0:2,0:0:0:0:
125,31,85665,5,2,0:2:0:0:
175,32,85776,1,2,0:2:0:0:
227,33,85886,1,2,0:2:0:0:
406,299,85998,1,2,3:2:0:0:
459,243,86164,1,2,0:2:0:0:
436,170,86331,1,2,0:2:0:0:
362,155,86498,1,2,0:2:0:0:
212,157,86665,6,0,P|231:237|348:252,1,159.999995231628,10|2,0:2|0:2,0:0:0:0:
366,266,87109,1,2,0:2:0:0:
297,267,87220,1,2,0:2:0:0:
130,262,87331,6,0,P|87:300|143:371,1,159.999995231628,2|2,3:2|0:2,0:0:0:0:
292,293,87831,2,0,L|337:293,2,26.6666658719381,2|0|0,0:2|0:0|0:0,0:0:0:0:
254,294,87998,2,0,L|172:294,1,79.9999976158142,10|2,0:2|0:2,0:0:0:0:
312,153,88331,2,0,L|394:153,1,79.9999976158142,2|2,0:2|0:2,0:0:0:0:
154,306,88665,6,0,P|102:273|171:221,1,159.999995231628,2|2,3:2|0:2,0:0:0:0:
255,216,89165,1,2,0:2:0:0:
112,158,89331,2,0,L|15:160,1,79.9999976158142,10|2,0:2|0:2,0:0:0:0:
259,82,89665,2,0,L|375:78,1,79.9999976158142,2|2,0:2|0:2,0:0:0:0:
291,80,89915,1,0,0:0:0:0:
96,82,89998,5,2,3:2:0:0:
44,184,90164,1,2,0:2:0:0:
103,283,90331,1,2,0:2:0:0:
251,286,90498,2,0,L|297:285,2,26.6666658719381,2|0|0,0:2|0:0|0:0,0:0:0:0:
209,283,90665,6,0,L|100:284,1,106.666663487752,10|2,0:2|0:2,0:0:0:0:
32,282,90998,2,0,L|32:195,1,79.9999976158142,2|2,0:0|0:0,0:0:0:0:
283,295,91331,6,0,P|325:282|316:215,1,119.999996423721,2|0,3:2|0:0,0:0:0:0:
234,206,91665,2,0,L|389:207,1,119.999996423721,2|0,0:2|0:0,0:0:0:0:
234,206,91998,2,0,L|149:208,2,53.3333317438762,10|2|2,0:2|0:2|0:2,0:0:0:0:
410,197,92331,2,0,L|510:198,1,79.9999976158142,2|2,0:2|0:2,0:0:0:0:
220,362,92665,5,2,3:2:0:0:
180,267,92831,1,2,0:2:0:0:
237,182,92998,1,2,0:2:0:0:
322,184,93164,1,2,0:0:0:0:
291,184,93220,1,0,0:0:0:0:
257,183,93275,1,0,0:0:0:0:
224,181,93331,2,2,L|141:180,2,53.3333317438762,10|2|2,0:0|0:0|0:0,0:0:0:0:
401,272,93665,2,0,L|505:270,1,79.9999976158142,2|2,0:2|0:2,0:0:0:0:
204,377,93998,6,0,L|196:261,1,79.9999976158142,2|2,3:2|0:2,0:0:0:0:
314,294,94331,2,0,L|318:181,1,79.9999976158142,2|2,0:2|0:2,0:0:0:0:
137,209,94665,2,0,P|95:171|161:105,1,159.999995231628,10|2,0:2|0:2,0:0:0:0:
253,102,95165,1,2,0:2:0:0:
481,174,95331,6,0,L|377:173,2,79.9999976158142,2|0|0,3:2|0:0|0:0,0:0:0:0:
341,103,95831,2,0,L|368:103,1,26.6666658719381
404,103,95942,1,0,0:0:0:0:
441,202,95998,2,0,L|440:104,1,79.9999976158142,8|0,0:0|0:0,0:0:0:0:
299,124,96331,2,0,P|268:99|308:32,1,119.999996423721,2|0,0:2|0:0,0:0:0:0:
461,48,96665,6,0,P|512:90|448:148,1,159.999995231628,2|2,3:2|0:2,0:0:0:0:
268,239,97331,2,0,L|473:238,1,159.999995231628,10|2,0:2|0:2,0:0:0:0:
34,363,97998,6,0,L|11:265,2,79.9999976158142,2|0|0,3:2|0:0|0:0,0:0:0:0:
163,368,98498,1,0,0:0:0:0:
193,368,98553,1,0,0:0:0:0:
223,368,98609,1,0,0:0:0:0:
256,368,98665,1,10,0:2:0:0:
27,357,98831,2,0,P|8:296|96:252,1,159.999995231628,2|2,0:2|0:2,0:0:0:0:
309,258,99331,6,0,L|197:258,1,79.9999976158142,2|2,3:2|0:2,0:0:0:0:
358,317,99665,2,0,L|470:317,1,79.9999976158142,2|2,0:2|0:2,0:0:0:0:
175,234,99998,2,0,L|-14:234,1,159.999995231628,10|2,0:2|0:2,0:0:0:0:
438,106,100665,6,0,L|446:11,2,79.9999976158142,2|0|0,3:2|0:0|0:0,0:0:0:0:
326,120,101164,1,0,0:0:0:0:
300,128,101220,1,0,0:0:0:0:
271,136,101275,1,0,0:0:0:0:
238,145,101331,2,0,L|319:166,1,79.9999976158142,8|2,0:0|0:2,0:0:0:0:
65,278,101665,2,0,L|66:172,1,79.9999976158142,2|0,0:2|0:0,0:0:0:0:
312,147,101998,6,0,L|128:176,1,159.999995231628,2|0,3:2|0:0,0:0:0:0:
28,191,102498,1,0,0:0:0:0:
258,248,102665,2,0,L|378:274,1,79.9999976158142,10|0,0:2|0:0,0:0:0:0:
51,363,102998,2,0,L|51:253,1,79.9999976158142,2|0,0:2|0:0,0:0:0:0:
277,245,103331,6,0,L|85:246,1,159.999995231628,6|2,3:2|0:2,0:0:0:0:
194,237,103831,1,0,0:0:0:0:
356,221,103998,2,0,L|366:141,1,79.9999976158142,10|0,0:2|0:0,0:0:0:0:
235,135,104331,2,0,L|222:51,1,79.9999976158142,2|0,0:2|0:0,0:0:0:0:
449,53,104665,6,0,L|230:52,2,159.999995231628,2|2|10,3:2|0:2|0:2,0:0:0:0:
271,210,105498,2,0,P|221:168|279:105,1,159.999995231628
493,100,105998,6,0,L|490:201,1,79.9999976158142,2|0,3:2|0:0,0:0:0:0:
359,220,106331,2,0,L|444:219,1,79.9999976158142,2|0,0:2|0:0,0:0:0:0:
478,220,106553,1,0,0:0:0:0:
478,220,106609,1,0,0:0:0:0:
438,219,106665,2,0,L|324:219,2,79.9999976158142,10|0|2,0:2|0:0|0:2,0:0:0:0:
44,147,107331,5,0,3:0:0:0:
264,174,107665,2,0,L|128:173,1,79.9999976158142,2|0,0:2|0:0,0:0:0:0:
39,223,107998,2,0,L|147:222,2,79.9999976158142,10|0|2,0:2|0:0|0:2,0:0:0:0:
440,366,108665,5,0,3:0:0:0:
219,368,108998,2,0,L|123:369,1,79.9999976158142,2|0,0:2|0:0,0:0:0:0:
189,367,109248,1,0,0:0:0:0:
381,345,109331,2,0,L|389:258,1,79.9999976158142,10|0,0:2|0:0,0:0:0:0:
252,263,109665,2,0,L|242:163,1,79.9999976158142,2|0,0:2|0:0,0:0:0:0:
413,162,109998,6,0,L|223:164,1,159.999995231628,2|2,3:2|0:2,0:0:0:0:
454,95,110665,2,0,L|314:95,2,119.999996423721,10|2|2,0:2|0:2|0:2,0:0:0:0:
217,301,111331,5,2,3:2:0:0:
160,251,111497,1,0,0:0:0:0:
187,180,111664,1,0,0:0:0:0:
265,182,111831,2,0,L|313:181,2,26.6666658719381
220,181,111998,2,0,P|184:156|246:63,1,159.999995231628,10|2,0:2|0:2,0:0:0:0:
308,64,112498,1,0,0:0:0:0:
486,226,112665,6,0,L|493:59,1,159.999995231628,2|2,3:2|0:2,0:0:0:0:
206,33,113331,2,0,L|384:77,1,159.999995231628,10|2,0:2|0:2,0:0:0:0:
454,89,113831,1,0,0:0:0:0:
201,205,113998,6,0,L|114:223,2,79.9999976158142,2|0|0,3:2|0:0|0:0,0:0:0:0:
451,298,114665,1,10,0:2:0:0:
489,202,114831,1,2,0:2:0:0:
436,115,114998,1,2,0:2:0:0:
333,106,115165,1,2,0:2:0:0:
163,108,115331,6,0,P|245:138|277:244,2,159.999995231628,2|2|8,3:2|0:2|0:2,0:0:0:0:
326,102,116165,2,0,P|365:142|273:208,1,159.999995231628,0|2,0:0|0:2,0:0:0:0:
54,365,116665,6,0,L|43:251,3,79.9999976158142,0|0|0|0,3:2|0:0|0:0|0:0,0:0:0:0:
147,266,117331,2,0,L|246:239,1,79.9999976158142,10|2,0:2|0:2,0:0:0:0:
70,215,117665,2,0,L|75:83,1,79.9999976158142,2|2,0:2|0:2,0:0:0:0:
234,118,117998,6,0,P|179:120|111:234,2,159.999995231628,2|2|8,3:2|0:2|0:2,0:0:0:0:
356,117,118831,1,0,0:0:0:0:
204,120,118998,2,0,L|206:244,1,79.9999976158142,2|0,0:2|0:0,0:0:0:0:
437,263,119331,6,0,L|292:264,2,119.999996423721,2|2|2,3:2|0:2|0:2,0:0:0:0:
388,259,119915,1,0,0:0:0:0:
234,356,119998,2,0,L|225:268,1,79.9999976158142,10|0,0:2|0:0,0:0:0:0:
305,271,120248,2,0,L|314:145,1,119.999996423721,2|2,0:2|0:2,0:0:0:0:
81,147,120665,6,0,L|202:147,2,106.666663487752,2|2|2,3:2|0:2|0:2,0:0:0:0:
389,247,121331,2,0,L|261:247,2,106.666663487752,10|2|2,0:2|0:2|0:2,0:0:0:0:
52,362,121998,6,0,P|-1:324|67:277,1,159.999995231628,2|0,3:2|0:0,0:0:0:0:
175,274,122498,1,0,0:0:0:0:
204,235,122553,1,0,0:0:0:0:
182,198,122609,1,0,0:0:0:0:
128,193,122665,2,0,L|33:192,1,79.9999976158142,8|0,0:0|0:0,0:0:0:0:
205,89,122998,2,0,L|108:89,1,79.9999976158142
354,187,123331,6,0,L|245:187,1,88.0000000629425,2|0,3:2|0:0,0:0:0:0:
389,104,123665,2,0,L|503:104,1,88.0000000629425,2|0,3:2|0:0,0:0:0:0:
164,266,123998,2,0,L|306:265,1,88.0000000629425,10|0,3:2|0:0,0:0:0:0:
491,348,124331,2,0,L|373:347,1,88.0000000629425,2|0,3:2|0:0,0:0:0:0:
254,342,124665,5,0,0:0:0:0:
114,362,137998,6,0,P|78:336|134:249,1,159.999995231628,2|2,3:2|0:0,0:0:0:0:
243,246,138498,2,0,L|58:246,2,159.999995231628,2|2|0,0:0|0:0|0:0,0:0:0:0:
412,245,139331,5,2,3:2:0:0:
204,346,139831,1,2,0:0:0:0:
359,338,139998,2,0,L|370:222,1,79.9999976158142,2|2,3:2|0:0,0:0:0:0:
249,242,140331,2,0,L|146:243,1,79.9999976158142,2|2,0:0|0:0,0:0:0:0:
334,183,140665,6,0,P|370:157|314:70,1,159.999995231628,2|2,3:2|0:0,0:0:0:0:
222,68,141165,2,0,L|407:68,2,159.999995231628,2|2|0,0:0|0:0|0:0,0:0:0:0:
63,63,141998,6,0,P|26:93|75:190,1,159.999995231628,2|0,3:2|0:0,0:0:0:0:
279,237,142665,2,0,L|73:238,1,159.999995231628,2|0,3:2|0:0,0:0:0:0:
395,158,143331,6,0,P|448:200|365:231,1,159.999995231628,2|0,3:2|0:0,0:0:0:0:
133,254,143998,1,2,3:2:0:0:
395,158,144331,2,0,P|448:200|365:231,1,159.999995231628,2|0,0:0|3:2,0:0:0:0:
132,341,144998,2,0,L|345:343,2,159.999995231628,2|2|2,0:0|3:2|0:0,0:0:0:0:
401,297,145998,6,0,L|411:115,1,159.999995231628,2|0,3:2|0:0,0:0:0:0:
126,130,146665,2,0,P|75:108|81:6,1,159.999995231628,2|0,3:2|0:0,0:0:0:0:
480,242,147331,6,0,L|358:243,1,79.9999976158142,2|0,3:2|0:0,0:0:0:0:
276,331,147665,2,0,L|379:331,1,79.9999976158142
226,247,147998,2,0,L|108:248,1,79.9999976158142,2|0,3:2|0:0,0:0:0:0:
291,149,148331,2,0,L|383:151,1,79.9999976158142
121,160,148665,6,0,L|224:161,1,79.9999976158142,2|0,3:2|0:0,0:0:0:0:
26,276,148998,2,0,L|26:178,1,79.9999976158142,2|0,3:2|0:0,0:0:0:0:
249,234,149331,2,0,L|135:235,1,79.9999976158142,2|0,3:2|0:0,0:0:0:0:
423,138,149665,2,0,L|517:137,1,79.9999976158142,2|0,3:2|0:0,0:0:0:0:
75,345,150665,6,0,P|23:315|101:183,1,239.999992847443,14|0,0:0|0:0,0:0:0:0:
322,184,151331,6,0,P|380:148|289:76,1,159.999995231628,6|2,3:2|0:0,0:0:0:0:
177,72,151831,2,0,L|287:72,1,79.9999976158142,2|8,0:0|0:0,0:0:0:0:
487,155,152165,2,0,L|285:155,1,159.999995231628,2|0,0:0|0:0,0:0:0:0:
102,160,152665,6,0,P|61:191|122:268,1,159.999995231628,2|2,3:2|0:0,0:0:0:0:
263,272,153165,2,0,L|261:169,1,79.9999976158142,2|8,0:0|0:0,0:0:0:0:
35,193,153498,2,0,P|57:120|183:97,1,159.999995231628,2|0,0:0|0:0,0:0:0:0:
354,85,153998,6,0,L|157:85,1,159.999995231628,2|2,3:2|0:0,0:0:0:0:
322,167,154498,2,0,L|436:171,1,79.9999976158142,2|8,0:0|0:0,0:0:0:0:
263,272,154831,2,0,P|208:244|263:142,1,159.999995231628,2|0,0:0|0:0,0:0:0:0:
454,155,155331,6,0,L|351:155,1,79.9999976158142,2|0,3:2|0:0,0:0:0:0:
149,281,155665,2,0,L|46:281,1,79.9999976158142,2|2,0:0|0:0,0:0:0:0:
229,225,155998,2,0,L|249:108,1,79.9999976158142,8|0,0:0|0:0,0:0:0:0:
103,142,156331,2,0,L|210:142,1,79.9999976158142
414,36,156665,6,0,P|456:57|394:131,1,159.999995231628,2|2,3:2|0:0,0:0:0:0:
269,139,157165,2,0,L|149:144,1,79.9999976158142,2|8,0:0|0:0,0:0:0:0:
269,139,157498,1,0,0:0:0:0:
450,137,157665,2,0,L|448:238,1,79.9999976158142,2|0,0:0|0:0,0:0:0:0:
211,360,157998,6,0,L|119:359,1,79.9999976158142,2|0,3:2|0:0,0:0:0:0:
270,287,158331,2,0,L|391:286,1,79.9999976158142,2|2,0:0|0:0,0:0:0:0:
118,154,158665,2,0,L|219:154,1,79.9999976158142,8|0,0:0|0:0,0:0:0:0:
426,327,158998,2,0,L|509:325,1,79.9999976158142,2|0,0:0|0:0,0:0:0:0:
255,255,159331,6,0,L|134:254,2,79.9999976158142,2|0|0,3:2|0:0|0:0,0:0:0:0:
389,254,159831,2,0,L|353:254,1,26.6666658719381,2|0,0:0|0:0,0:0:0:0:
332,253,159942,1,0,0:0:0:0:
307,253,159998,2,0,L|187:254,1,79.9999976158142,8|0,0:0|0:0,0:0:0:0:
367,191,160331,2,0,L|368:101,1,79.9999976158142,2|0,0:0|0:0,0:0:0:0:
79,214,160665,6,0,L|267:215,1,159.999995231628,0|2,3:0|0:0,0:0:0:0:
79,189,161165,2,0,L|78:99,1,79.9999976158142,0|10,0:0|0:0,0:0:0:0:
246,108,161498,2,0,P|247:166|130:190,1,159.999995231628,2|0,0:0|0:0,0:0:0:0:
387,285,161998,6,0,P|426:252|359:171,1,159.999995231628,2|2,3:2|0:0,0:0:0:0:
237,170,162498,2,0,L|346:170,1,79.9999976158142,2|8,0:0|0:0,0:0:0:0:
476,172,162831,2,0,L|476:357,1,159.999995231628,2|0,0:0|0:0,0:0:0:0:
244,359,163331,6,0,P|190:338|253:232,1,159.999995231628,2|0,3:2|0:0,0:0:0:0:
283,215,163831,1,2,0:0:0:0:
100,190,163998,2,0,L|197:158,1,79.9999976158142,10|2,0:0|0:0,0:0:0:0:
320,245,164331,2,0,L|216:219,1,79.9999976158142,2|2,0:0|0:0,0:0:0:0:
490,133,164665,6,0,P|478:193|351:225,1,159.999995231628,2|2,3:2|0:0,0:0:0:0:
265,244,165165,2,0,L|265:143,1,79.9999976158142,2|8,0:0|0:0,0:0:0:0:
423,157,165498,2,0,P|473:124|411:54,1,159.999995231628,2|0,0:0|0:0,0:0:0:0:
206,52,165998,6,0,L|319:69,1,79.9999976158142,2|0,3:2|0:0,0:0:0:0:
400,98,166331,2,0,L|288:116,1,79.9999976158142
95,289,166665,1,10,0:0:0:0:
48,227,166831,1,0,0:0:0:0:
74,155,166998,1,0,0:0:0:0:
149,137,167165,2,0,L|188:138,1,39.9999988079071
396,203,167331,6,0,L|207:178,1,159.999995231628,2|0,3:2|0:0,0:0:0:0:
143,171,167831,2,0,L|92:171,2,26.6666658719381
177,173,167998,2,0,L|181:322,1,119.999996423721,10|0,0:0|0:0,0:0:0:0:
29,343,168331,6,0,L|229:296,2,159.999995231628,2|0|2,0:0|3:0|0:0,0:0:0:0:
146,351,169164,1,0,0:0:0:0:
371,320,169331,2,0,P|390:275|352:236,1,79.9999976158142,10|0,0:0|0:0,0:0:0:0:
204,238,169665,2,0,P|182:207|228:166,1,79.9999976158142,2|0,0:0|0:0,0:0:0:0:
447,177,169998,5,2,3:2:0:0:
478,106,170164,1,0,0:0:0:0:
434,40,170331,1,0,0:0:0:0:
348,36,170498,2,0,L|309:36,2,26.6666658719381
392,37,170665,2,0,L|475:36,1,79.9999976158142,8|0,0:0|0:0,0:0:0:0:
305,151,170998,2,0,L|187:152,1,79.9999976158142
447,125,171331,6,0,P|484:143|462:212,1,119.999996423721,2|0,3:2|0:0,0:0:0:0:
385,210,171665,2,0,L|241:213,1,119.999996423721,2|0,0:0|0:0,0:0:0:0:
403,186,171998,2,0,P|431:161|383:95,1,119.999996423721,10|0,0:0|0:0,0:0:0:0:
253,95,172331,2,0,L|409:95,1,119.999996423721,2|0,0:0|0:0,0:0:0:0:
222,332,172665,6,0,P|168:300|229:246,1,159.999995231628,6|2,3:2|3:2,0:0:0:0:
444,239,173165,2,0,L|443:130,1,79.9999976158142,2|8,0:0|0:0,0:0:0:0:
285,152,173498,2,0,L|462:137,1,159.999995231628,2|0,0:0|3:2,0:0:0:0:
214,271,173998,6,0,L|8:247,1,159.999995231628,2|2,0:2|3:2,0:0:0:0:
174,232,174498,2,0,L|297:208,1,79.9999976158142,2|8,0:0|0:0,0:0:0:70:soft-hitfinish69.wav
25,102,174831,2,0,P|30:163|132:200,1,159.999995231628,6|0,3:2|0:0,0:0:0:70:soft-hitfinish69.wav
382,295,175331,6,0,L|178:298,1,159.999995231628,6|2,3:2|0:0,0:0:0:0:
386,272,175831,2,0,L|384:170,1,79.9999976158142,2|8,0:0|0:0,0:0:0:0:
159,187,176165,2,0,P|106:227|184:286,1,159.999995231628,2|0,0:0|0:0,0:0:0:0:
393,313,176665,6,0,L|261:317,1,79.9999976158142,2|0,3:2|0:0,0:0:0:0:
87,377,176998,2,0,L|86:276,1,79.9999976158142,2|2,0:0|0:0,0:0:0:0:
236,281,177331,2,0,L|352:273,1,79.9999976158142,8|0,0:0|0:0,0:0:0:0:
183,199,177665,2,0,L|94:191,1,79.9999976158142,0|2,0:0|0:0,0:0:0:0:
360,70,177998,6,0,P|398:95|329:180,1,159.999995231628,2|2,3:2|0:0,0:0:0:0:
234,182,178498,2,0,L|232:278,1,79.9999976158142,2|8,0:0|0:0,0:0:0:0:
346,272,178831,1,0,0:0:0:0:
187,359,178998,2,0,L|72:358,1,79.9999976158142,2|0,0:0|0:0,0:0:0:0:
331,305,179331,6,0,L|341:186,1,79.9999976158142,2|0,3:2|0:0,0:0:0:0:
181,205,179665,2,0,L|54:193,1,79.9999976158142,2|2,0:0|0:0,0:0:0:0:
332,146,179998,2,0,L|339:33,1,79.9999976158142,8|0,0:0|0:0,0:0:0:0:
106,46,180331,2,0,L|5:36,1,79.9999976158142,2|0,0:0|0:0,0:0:0:0:
276,38,180665,6,0,L|442:25,1,159.999995231628,2|2,3:2|0:0,0:0:0:0:
268,117,181165,2,0,L|226:117,2,26.6666658719381,2|0|0,0:0|0:0|0:0,0:0:0:0:
298,119,181331,1,8,0:0:0:0:
148,67,181498,2,0,L|232:67,2,79.9999976158142,2|0|0,0:0|0:0|0:0,0:0:0:0:
384,205,181998,6,0,L|468:205,1,79.9999976158142,2|0,3:2|0:0,0:0:0:0:
238,333,182331,1,0,0:0:0:0:
334,332,182498,2,0,L|241:332,1,79.9999976158142,2|10,0:0|0:0,0:0:0:0:
31,249,182831,2,0,L|128:249,1,79.9999976158142,2|2,0:0|0:0,0:0:0:0:
31,249,183165,1,0,0:0:0:0:
302,134,183331,6,0,P|353:172|274:217,1,159.999995231628,2|2,3:2|0:0,0:0:0:0:
157,228,183831,1,2,0:0:0:0:
157,188,183886,1,0,0:0:0:0:
156,166,183942,1,0,0:0:0:0:
157,148,183997,1,8,0:0:0:0:
408,152,184165,2,0,P|455:193|377:252,1,159.999995231628,2|0,0:0|0:0,0:0:0:0:
178,330,184665,6,0,L|372:328,1,159.999995231628,2|0,3:2|0:0,0:0:0:0:
227,316,185165,1,2,0:0:0:0:
55,315,185331,2,0,L|189:314,2,79.9999976158142,10|2|2,0:0|0:0|0:0,0:0:0:0:
443,222,185998,6,0,L|216:222,1,159.999995231628,2|2,3:2|0:0,0:0:0:0:
442,195,186498,1,2,0:0:0:0:
446,155,186553,1,0,0:0:0:0:
447,142,186609,1,0,0:0:0:0:
450,115,186664,1,8,0:0:0:0:
204,114,186831,2,0,P|214:178|332:209,1,159.999995231628,2|0,0:0|0:0,0:0:0:0:
50,369,187331,6,0,L|46:265,1,79.9999976158142,2|0,3:2|0:0,0:0:0:0:
161,277,187665,2,0,L|68:275,1,79.9999976158142,0|2,0:0|0:0,0:0:0:0:
310,193,187998,2,0,L|424:191,1,79.9999976158142,10|0,0:0|0:0,0:0:0:0:
243,119,188331,2,0,L|161:112,1,79.9999976158142,2|0,0:0|0:0,0:0:0:0:
414,53,188665,6,0,P|452:79|370:152,1,159.999995231628,2|2,3:2|0:0,0:0:0:0:
266,163,189165,2,0,L|369:163,1,79.9999976158142,2|8,0:0|0:0,0:0:0:0:
461,163,189498,1,2,0:0:0:0:
234,304,189665,2,0,L|129:304,1,79.9999976158142,2|2,0:0|0:0,0:0:0:0:
380,252,189998,6,0,P|443:214|429:119,1,159.999995231628,2|2,3:2|0:0,0:0:0:0:
283,135,190498,2,0,L|185:136,1,79.9999976158142,2|8,0:0|0:0,0:0:0:0:
283,135,190831,1,2,0:0:0:0:
50,262,190998,2,0,L|50:152,1,79.9999976158142,2|0,0:0|0:0,0:0:0:0:
282,162,191331,5,2,3:2:0:0:
310,233,191497,1,2,0:0:0:0:
268,297,191664,1,2,0:0:0:0:
182,298,191831,2,0,L|135:298,2,26.6666658719381,2|2|2,3:2|3:2|3:2,0:0:0:0:
219,299,191998,2,0,L|327:299,2,79.9999976158142,10|2|2,0:0|0:0|0:0,0:0:0:0:
79,297,192498,1,2,0:0:0:0:
339,291,192665,5,2,3:2:0:0:
378,224,192831,1,2,0:0:0:0:
349,152,192998,1,2,0:0:0:0:
275,131,193164,1,2,0:0:0:0:
134,133,193331,2,0,L|352:134,1,159.999995231628,10|2,0:0|0:0,0:0:0:0:
54,40,193998,6,0,L|364:39,1,239.999992847443,2|0,0:0|0:0,0:0:0:0:
102,38,195331,2,0,P|42:92|128:225,1,239.999992847443,2|0,0:0|0:0,0:0:0:0:
272,376,196665,6,0,P|352:328|254:244,1,239.999992847443,2|0,0:0|0:0,0:0:0:0:
50,251,197998,2,0,L|157:250,1,79.9999976158142,2|0,0:0|0:0,0:0:0:0:
275,320,198665,2,0,L|163:320,1,79.9999976158142,2|0,0:0|0:0,0:0:0:0:
436,262,199331,6,0,P|492:234|419:110,1,239.999992847443,2|0,0:0|0:0,0:0:0:0:
228,114,200665,2,0,L|342:113,1,79.9999976158142,2|0,0:0|0:0,0:0:0:0:
479,212,201331,2,0,L|365:211,1,79.9999976158142,2|0,0:0|0:0,0:0:0:0:
210,362,201998,6,0,L|13:361,3,159.999995231628,2|0|2|2,0:0|0:0|0:0|0:0,0:0:0:0:
370,324,204665,6,0,P|450:226|358:66,1,319.999990463257,2|2,0:0|0:0,0:0:0:0:
68,73,207331,1,2,0:0:0:0:
368,188,208665,2,0,L|178:189,1,159.999995231628,2|2,0:0|0:0,0:0:0:0:
485,70,209998,6,0,L|241:70,1,239.999992847443,2|0,0:0|0:0,0:0:0:0:
438,55,211331,2,0,L|437:186,1,119.999996423721,2|2,0:0|0:0,0:0:0:0:
