osu file format v14

[General]
AudioFilename: audio.mp3
AudioLeadIn: 0
PreviewTime: 149831
Countdown: 0
SampleSet: Soft
StackLeniency: 0.7
Mode: 2
LetterboxInBreaks: 1
EpilepsyWarning: 1
WidescreenStoryboard: 1

[Editor]
DistanceSpacing: 0.8
BeatDivisor: 4
GridSize: 32
TimelineZoom: 1

[Metadata]
Title:Yasashii Suisei
TitleUnicode:優しい彗星
Artist:YOASOBI
ArtistUnicode:YOASOBI
Creator:Crowley
Version:Platter
Source:BEASTARS
Tags:Second 2nd Season Chatie ビースターズ Japanese Anime Ed Ending Pop 幾田りら Ikuta Rira Lilas Ayase Ikura Kohei Kadowaki 門脇 恒平 Kadoppe Female Vocal BST Gentle Comet JPop J-Pop
BeatmapID:2910098
BeatmapSetID:1411580

[Difficulty]
HPDrainRate:5
CircleSize:4
OverallDifficulty:8
ApproachRate:8
SliderMultiplier:2.79999990463257
SliderTickRate:4

[Events]
//Background and Video events
Video,-697,"ffff.mp4"
0,0,"sski_0.jpg",0,0
//Break Periods
2,127331,137248
//Storyboard Layer 0 (Background)
//Storyboard Layer 1 (Fail)
//Storyboard Layer 2 (Pass)
//Storyboard Layer 3 (Foreground)
//Storyboard Layer 4 (Overlay)
//Storyboard Sound Samples
Sample,127331,0,"soft-hitwhistle68.mp3",25
Sample,204664,0,"soft-hitwhistle70.mp3",25

[TimingPoints]
1998,666.666666666667,4,2,1,60,1,0
1998,-133.333333333333,4,2,3,40,0,0
12665,-100,4,2,1,50,0,0
13081,-100,4,2,7,50,0,0
13248,-100,4,2,1,50,0,0
15248,-100,4,2,7,50,0,0
15415,-100,4,2,1,50,0,0
15748,-100,4,2,7,50,0,0
15915,-100,4,2,1,50,0,0
17915,-100,4,2,7,50,0,0
18082,-100,4,2,1,50,0,0
18415,-100,4,2,7,50,0,0
18582,-100,4,2,1,50,0,0
20665,-100,4,2,3,50,0,0
22665,-100,4,2,1,50,0,0
23331,-100,4,2,2,50,0,0
25415,-100,4,2,7,50,0,0
25582,-100,4,2,1,50,0,0
25915,-100,4,2,7,50,0,0
26081,-100,4,2,2,50,0,0
28081,-100,4,2,7,50,0,0
28248,-100,4,2,1,50,0,0
29331,-100,4,2,2,50,0,0
33415,-100,4,2,7,50,0,0
33582,-100,4,2,1,50,0,0
35998,-100,4,2,2,50,0,0
39915,-100,4,2,9,50,0,0
40081,-100,4,2,2,50,0,0
41998,-100,4,2,4,55,0,0
43331,-100,4,2,2,50,0,0
44664,-100,4,2,5,70,0,1
44831,-100,4,2,1,70,0,1
45248,-100,4,2,8,70,0,1
45415,-100,4,2,1,70,0,1
46581,-100,4,2,8,70,0,1
46748,-100,4,2,1,70,0,1
47919,-100,4,2,8,70,0,1
48086,-100,4,2,1,70,0,1
50581,-100,4,2,8,70,0,1
50748,-100,4,2,1,70,0,1
51915,-100,4,2,8,70,0,1
52082,-100,4,2,1,70,0,1
53248,-100,4,2,8,70,0,1
53415,-100,4,2,1,70,0,1
54081,-100,4,2,6,70,0,1
54331,-100,4,2,1,70,0,1
54581,-100,4,2,8,70,0,1
54748,-100,4,2,1,70,0,1
54915,-100,4,2,6,70,0,1
55082,-100,4,2,1,70,0,1
55915,-100,4,2,8,70,0,1
56082,-100,4,2,1,70,0,1
58581,-100,4,2,8,70,0,1
58748,-100,4,2,1,70,0,1
66581,-100,4,2,8,70,0,1
66748,-100,4,2,1,70,0,1
67915,-100,4,2,8,70,0,1
68082,-100,4,2,1,70,0,1
69248,-100,4,2,8,70,0,1
69415,-100,4,2,1,70,0,1
71915,-100,4,2,8,70,0,1
72082,-100,4,2,1,70,0,1
73248,-100,4,2,8,70,0,1
73415,-100,4,2,1,70,0,1
74581,-100,4,2,8,70,0,1
74748,-100,4,2,1,70,0,1
77248,-100,4,2,8,70,0,1
77415,-100,4,2,1,70,0,1
79915,-100,4,2,8,70,0,1
80082,-100,4,2,1,70,0,1
82581,-100,4,2,8,70,0,1
82748,-100,4,2,1,70,0,1
83915,-100,4,2,8,70,0,1
84082,-100,4,2,1,70,0,1
84331,-100,4,2,1,70,0,0
84664,-100,4,2,3,70,0,1
102665,-100,4,2,1,70,0,1
103331,-100,4,2,1,60,0,0
116581,-100,4,2,7,60,0,0
116748,-100,4,2,1,60,0,0
124665,-100,4,2,1,40,0,0
137998,-100,4,2,1,55,0,0
138581,-100,4,2,7,55,0,0
138748,-100,4,2,1,55,0,0
141264,-100,4,2,7,55,0,0
141431,-100,4,2,1,55,0,0
147665,-100,4,2,3,55,0,0
149998,-100,4,2,1,50,0,0
151331,-100,4,2,5,75,0,1
151498,-100,4,2,1,75,0,1
151915,-100,4,2,8,75,0,1
152081,-100,4,2,1,75,0,1
153248,-100,4,2,8,75,0,1
153414,-100,4,2,1,75,0,1
154581,-100,4,2,8,75,0,1
154747,-100,4,2,1,75,0,1
157248,-100,4,2,8,75,0,1
157414,-100,4,2,1,75,0,1
158581,-100,4,2,8,75,0,1
158747,-100,4,2,1,75,0,1
160748,-100,4,2,6,75,0,1
160915,-100,4,2,1,75,0,1
161581,-100,4,2,6,75,0,1
161748,-100,4,2,1,75,0,1
162581,-100,4,2,8,75,0,1
162747,-100,4,2,1,75,0,1
165248,-100,4,2,8,75,0,1
165414,-100,4,2,1,75,0,1
172664,-100,4,2,69,65,0,0
172748,-100,4,2,1,75,0,0
173498,-100,4,2,2,75,0,0
173665,-100,4,2,2,55,0,0
173831,-100,4,2,2,75,0,0
174665,-100,4,2,1,75,0,0
174831,-100,4,2,1,75,0,0
174915,-100,4,2,1,75,0,0
175331,-100,4,2,5,75,0,1
175498,-100,4,2,1,75,0,1
175915,-100,4,2,8,75,0,1
176081,-100,4,2,1,75,0,1
178581,-100,4,2,8,75,0,1
178747,-100,4,2,1,75,0,1
179915,-100,4,2,8,75,0,1
180081,-100,4,2,1,75,0,1
181248,-100,4,2,8,75,0,1
181414,-100,4,2,1,75,0,1
183915,-100,4,2,8,75,0,1
184081,-100,4,2,1,75,0,1
186581,-100,4,2,8,75,0,1
186747,-100,4,2,1,75,0,1
189248,-100,4,2,8,75,0,1
189414,-100,4,2,1,75,0,1
190581,-100,4,2,8,75,0,1
190747,-100,4,2,1,75,0,1
191331,-100,4,2,3,75,0,1
193331,-100,4,2,1,75,0,1
193998,-181.818181818181,4,2,3,45,0,0
204665,-181.818181818181,4,2,3,30,0,0

[Colours]
Combo1 : 192,192,192
Combo2 : 0,128,128
Combo3 : 128,255,255

[HitObjects]
398,365,1998,6,0,P|456:349|363:107,2,420.000001716614,2|2|2,0:0|0:0|0:0,0:0:0:0:
121,360,5998,2,0,P|72:331|145:203,1,210.000000858307,2|2,0:0|0:0,0:0:0:0:
384,201,7331,5,2,0:0:0:0:
150,201,8665,2,0,L|384:201,1,210.000000858307,2|2,0:0|0:0,0:0:0:0:
116,64,9998,2,0,P|47:140|229:357,1,420.000001716614,2|2,0:0|0:0,0:0:0:0:
472,362,11998,1,2,0:0:0:0:
54,193,12665,5,0,3:0:0:0:
215,194,12998,2,0,L|59:194,2,139.999995231629,2|2|2,0:0|0:0|0:0,0:0:0:0:
369,195,13998,6,0,P|411:168|346:116,1,139.999995231629,2|2,0:0|3:2,0:0:0:0:
215,193,14665,1,2,0:0:0:0:
487,342,14998,1,2,0:0:0:0:
487,342,15165,2,0,L|492:191,1,139.999995231629,2|2,0:0|0:0,0:0:0:0:
323,200,15665,6,0,L|152:221,2,139.999995231629,2|0|2,0:0|0:0|0:0,0:0:0:0:
184,217,16665,1,2,0:0:0:0:
436,213,16998,2,0,L|437:372,1,139.999995231629,2|2,3:2|0:0,0:0:0:0:
138,345,17665,6,0,P|64:307|147:261,1,209.999992847443,2|0,0:0|0:0,0:0:0:0:
239,260,18331,2,0,L|85:260,2,139.999995231629,2|2|2,0:0|0:0|0:0,0:0:0:0:
401,257,19331,6,0,P|446:224|375:179,1,139.999995231629,2|2,0:0|3:2,0:0:0:0:
247,168,19998,1,2,0:0:0:0:
404,168,20331,1,2,0:0:0:0:
123,346,20665,6,0,P|75:320|140:274,1,139.999995231629,2|2,3:2|0:0,0:0:0:0:
202,260,21165,1,2,3:2:0:0:
369,267,21331,2,0,L|199:266,1,139.999995231629,2|2,0:0|3:2,0:0:0:0:
476,206,21998,6,0,L|476:46,1,139.999995231629,2|2,0:0|3:2,0:0:0:0:
182,72,22665,2,0,L|32:73,1,139.999995231629,2|2,0:0|0:0,0:0:0:0:
477,347,23331,6,0,L|477:181,1,139.999995231629,0|2,3:0|0:2,0:0:0:0:
239,207,23998,2,0,L|134:207,1,69.9999976158143,10|0,0:2|0:0,0:0:0:0:
239,207,24331,1,2,0:0:0:0:
82,168,24665,6,0,L|83:334,1,139.999995231629,2|2,0:0|3:2,0:0:0:0:
362,345,25331,2,0,L|159:344,1,139.999995231629,10|2,0:0|0:0,0:0:0:0:
390,327,25831,6,0,P|435:281|377:234,1,139.999995231629,2|2,0:0|0:0,0:0:0:0:
316,235,26331,1,2,0:0:0:0:
148,235,26498,1,0,3:0:0:0:
316,235,26831,2,0,L|408:235,2,69.9999976158143,0|0|2,0:0|0:0|0:0,0:0:0:0:
148,325,27331,6,0,P|102:290|154:238,1,139.999995231629,2|2,0:0|3:2,0:0:0:0:
312,214,27831,1,2,0:0:0:0:
390,210,27998,2,0,P|438:174|377:111,1,139.999995231629,8|2,0:2|0:0,0:0:0:0:
326,108,28498,1,2,0:0:0:0:
84,98,28665,6,0,P|32:151|111:229,1,209.999992847443,0|0,3:2|3:2,0:0:0:0:
202,236,29331,2,0,L|201:330,1,69.9999976158143,8|0,0:2|0:0,0:0:0:0:
32,341,29665,1,2,0:0:0:0:
199,341,29998,6,0,L|15:341,2,139.999995231629,2|2|10,0:0|3:2|0:0,0:0:0:0:
43,341,30998,1,2,0:0:0:0:
342,249,31331,6,0,P|402:201|327:100,1,209.999992847443,2|2,3:2|3:2,0:0:0:0:
175,93,31998,2,0,L|62:93,1,69.9999976158143,10|0,0:2|0:0,0:0:0:0:
196,188,32331,2,0,L|196:83,1,69.9999976158143
27,111,32665,6,0,P|31:189|118:199,1,139.999995231629,2|0,0:0|3:2,0:0:0:0:
157,213,33165,1,0,0:0:0:0:
325,288,33331,2,0,L|121:286,1,139.999995231629,10|0,0:0|0:0,0:0:0:0:
262,276,33831,1,0,0:0:0:0:
494,283,33998,6,0,P|462:210|395:197,1,139.999995231629,2|2,3:2|0:0,0:0:0:0:
233,194,34498,1,2,3:2:0:0:
89,190,34831,2,0,L|80:99,2,69.9999976158143,2|2|2,0:0|0:0|0:0,0:0:0:0:
257,275,35331,6,0,L|102:260,1,139.999995231629,2|2,0:0|3:2,0:0:0:0:
358,192,35998,2,0,P|425:167|422:59,1,139.999995231629,10|2,0:0|0:0,0:0:0:0:
150,69,36665,6,0,P|77:133|175:170,1,209.999992847443,2|0,3:2|3:2,0:0:0:0:
314,192,37331,2,0,L|384:192,1,69.9999976158143,10|0,0:2|0:0,0:0:0:0:
314,192,37665,1,0,0:0:0:0:
145,185,37998,6,0,P|95:225|165:262,1,139.999995231629,2|2,3:2|0:0,0:0:0:0:
387,333,38665,2,0,P|433:297|376:244,1,139.999995231629,10|2,3:2|0:0,0:0:0:0:
312,242,39165,1,0,0:0:0:0:
77,194,39331,6,0,P|38:173|110:122,1,139.999995231629,2|0,3:2|0:0,0:0:0:0:
167,107,39831,2,0,L|8:109,1,139.999995231629,2|0,3:2|0:0,0:0:0:0:
195,37,40331,1,2,0:0:0:0:
361,36,40665,6,0,P|404:78|333:127,1,139.999995231629,2|2,0:0|3:2,0:0:0:0:
194,137,41165,1,2,0:0:0:0:
108,138,41331,2,0,L|108:231,1,69.9999976158143,10|2,0:0|0:0,0:0:0:0:
277,260,41665,2,0,L|384:260,1,69.9999976158143,2|0,0:0|0:0,0:0:0:0:
104,353,41998,6,0,P|63:333|135:297,1,139.999995231629,2|2,3:2|0:0,0:0:0:0:
196,277,42498,1,2,3:2:0:0:
366,261,42665,2,0,L|371:187,1,69.9999976158143,10|2,0:2|0:2,0:0:0:0:
279,185,42998,2,0,L|180:186,1,69.9999976158143,2|2,3:2|3:2,0:0:0:0:
455,109,43331,5,2,0:0:0:0:
130,353,44665,6,0,P|85:327|148:279,1,139.999995231629,6|2,3:2|0:0,0:0:0:0:
298,272,45165,2,0,L|123:272,1,139.999995231629,2|2,0:0|0:0,0:0:0:0:
67,271,45665,1,0,0:0:0:0:
305,218,45998,6,0,P|361:194|378:100,1,139.999995231629,2|2,3:2|0:0,0:0:0:0:
213,113,46498,2,0,L|51:98,2,139.999995231629,2|2|0,0:0|0:0|0:0,0:0:0:0:
446,170,47331,6,0,P|487:205|432:261,1,139.999995231629,2|2,3:2|0:0,0:0:0:0:
271,268,47831,2,0,L|471:267,1,139.999995231629,2|2,0:0|0:0,0:0:0:0:
320,267,48331,1,0,0:0:0:0:
70,350,48665,6,0,P|23:320|85:273,1,139.999995231629,2|2,3:2|0:0,0:0:0:0:
225,269,49331,2,0,L|37:268,1,139.999995231629,8|0,0:0|0:0,0:0:0:0:
176,268,49831,1,2,0:0:0:0:
427,243,49998,6,0,P|468:210|408:147,1,139.999995231629,2|2,3:2|0:0,0:0:0:0:
242,137,50498,2,0,P|197:99|254:50,1,139.999995231629,2|0,0:0|0:0,0:0:0:0:
323,49,50998,1,2,0:0:0:0:
60,54,51331,6,0,L|63:208,1,139.999995231629,2|2,3:2|0:0,0:0:0:0:
233,206,51831,2,0,P|278:165|216:121,1,139.999995231629,2|0,0:0|0:0,0:0:0:0:
60,117,52331,2,0,L|60:20,1,69.9999976158143,2|0,0:0|0:0,0:0:0:0:
324,301,52665,6,0,L|481:305,1,139.999995231629,2|0,3:2|0:0,0:0:0:0:
282,238,53165,2,0,P|212:209|256:122,1,139.999995231629,2|0,0:0|0:0,0:0:0:0:
304,155,53665,2,0,L|304:71,1,69.9999976158143,2|0,0:0|0:0,0:0:0:0:
136,87,53998,6,0,P|89:148|166:176,1,139.999995231629,0|2,3:0|0:0,0:0:0:0:
292,213,54498,2,0,L|450:247,2,139.999995231629,0|2|0,0:0|0:0|0:0,0:0:0:0:
50,187,55331,6,0,P|48:133|150:93,1,139.999995231629,2|2,3:2|0:0,0:0:0:0:
202,96,55831,2,0,L|352:114,2,139.999995231629,2|2|0,0:0|0:0|0:0,0:0:0:0:
33,71,56665,1,2,3:2:0:0:
244,188,57165,5,2,0:0:0:0:
416,184,57331,2,0,L|416:93,1,69.9999976158143,10|2,0:0|0:0,0:0:0:0:
331,107,57665,2,0,L|246:108,1,69.9999976158143,2|2,0:0|0:0,0:0:0:0:
487,334,57998,6,0,P|467:266|371:238,1,139.999995231629,2|2,3:2|0:0,0:0:0:0:
318,230,58498,2,0,L|494:231,2,139.999995231629,2|2|0,0:0|0:0|0:0,0:0:0:0:
150,225,59331,6,0,P|116:201|172:129,1,139.999995231629,2|0,3:2|0:0,0:0:0:0:
432,330,59998,2,0,P|475:288|423:229,1,139.999995231629,10|0,0:0|0:0,0:0:0:0:
44,245,60665,6,0,P|2:188|70:143,1,139.999995231629,2|0,3:2|0:0,0:0:0:0:
135,144,61165,1,0,0:0:0:0:
302,147,61331,1,10,0:0:0:0:
135,284,61665,6,0,L|135:131,1,139.999995231629,2|0,0:0|3:0,0:0:0:0:
311,188,62331,1,2,0:0:0:0:
60,178,62665,2,0,P|18:155|73:100,1,139.999995231629,10|2,0:0|0:0,0:0:0:0:
454,65,63331,6,0,P|502:102|438:133,1,139.999995231629,2|0,3:2|0:0,0:0:0:0:
373,139,63831,1,0,0:0:0:0:
205,136,63998,2,0,L|127:136,2,69.9999976158143,8|0|0,0:0|0:0|0:0,0:0:0:0:
296,135,64498,1,0,0:0:0:0:
58,332,64665,6,0,L|48:178,1,139.999995231629,2|2,3:2|0:0,0:0:0:0:
134,180,65165,1,0,0:0:0:0:
301,184,65331,2,0,P|343:127|278:95,1,139.999995231629,10|2,0:0|0:0,0:0:0:0:
209,91,65831,1,0,0:0:0:0:
438,344,65998,6,0,L|247:344,1,139.999995231629,6|2,3:2|0:0,0:0:0:0:
127,340,66498,2,0,P|115:277|174:245,1,139.999995231629,2|2,0:0|0:0,0:0:0:0:
264,249,66998,1,0,0:0:0:0:
12,175,67331,6,0,L|188:175,1,139.999995231629,2|2,3:2|0:0,0:0:0:0:
320,160,67831,2,0,L|140:161,2,139.999995231629,2|2|0,0:0|0:0|0:0,0:0:0:0:
72,78,68665,6,0,P|29:108|97:171,1,139.999995231629,2|2,3:2|0:0,0:0:0:0:
231,183,69165,2,0,P|290:177|336:108,1,139.999995231629,2|2,0:0|0:0,0:0:0:0:
244,114,69665,1,0,0:0:0:0:
489,170,69998,6,0,L|488:341,1,139.999995231629,2|2,3:2|0:0,0:0:0:0:
323,249,70665,2,0,P|282:299|324:348,1,139.999995231629,8|0,0:0|0:0,0:0:0:0:
408,352,71165,1,2,0:0:0:0:
172,351,71331,6,0,P|114:329|133:238,1,139.999995231629,2|2,3:2|0:0,0:0:0:0:
279,252,71831,2,0,L|89:251,1,139.999995231629,2|0,0:0|0:0,0:0:0:0:
51,251,72331,1,2,0:0:0:0:
316,136,72665,6,0,L|463:137,1,139.999995231629,2|2,3:2|0:0,0:0:0:0:
288,225,73165,2,0,L|140:225,1,139.999995231629,2|0,0:0|0:0,0:0:0:0:
340,159,73665,2,0,L|340:72,1,69.9999976158143,2|0,0:0|0:0,0:0:0:0:
103,80,73998,6,0,P|46:115|118:145,1,139.999995231629,2|2,3:2|0:0,0:0:0:0:
258,172,74498,2,0,L|413:171,2,139.999995231629,2|2|0,0:0|0:0|0:0,0:0:0:0:
15,176,75331,6,0,L|14:337,1,139.999995231629,2|0,3:2|0:0,0:0:0:0:
255,323,75998,2,0,L|151:323,2,69.9999976158143,10|2|2,0:0|0:0|0:0,0:0:0:0:
343,324,76498,1,0,0:0:0:0:
97,268,76665,6,0,P|53:240|108:184,1,139.999995231629,2|2,3:2|0:0,0:0:0:0:
263,182,77165,2,0,L|438:181,1,139.999995231629,2|2,0:0|0:0,0:0:0:0:
315,173,77665,1,0,0:0:0:0:
61,174,77998,6,0,P|55:229|143:275,1,139.999995231629,2|0,3:2|0:0,0:0:0:0:
345,274,78665,2,0,L|440:274,2,69.9999976158143,10|2|2,0:0|0:0|0:0,0:0:0:0:
56,347,79331,6,0,P|24:317|71:239,1,139.999995231629,2|2,3:2|0:0,0:0:0:0:
228,249,79831,2,0,L|39:248,2,139.999995231629,2|2|0,0:0|0:0|0:0,0:0:0:0:
406,250,80665,6,0,P|449:222|398:169,1,139.999995231629,2|0,3:2|0:0,0:0:0:0:
137,162,81331,2,0,P|86:133|140:66,1,139.999995231629,10|2,0:0|0:0,0:0:0:0:
192,54,81831,1,0,0:0:0:0:
418,57,81998,6,0,P|401:125|302:147,1,139.999995231629,2|2,3:2|0:0,0:0:0:0:
248,160,82498,2,0,L|449:159,1,139.999995231629,2|2,0:0|0:0,0:0:0:0:
220,256,82998,2,0,L|134:254,1,69.9999976158143,2|2,0:0|0:0,0:0:0:0:
324,334,83331,6,0,P|362:307|312:231,1,139.999995231629,2|2,3:2|0:0,0:0:0:0:
162,136,83831,2,0,P|124:189|168:237,1,139.999995231629,2|2,0:0|0:0,0:0:0:0:
258,246,84331,2,0,L|258:160,1,69.9999976158143,2|0,0:0|0:0,0:0:0:0:
20,166,84665,6,0,L|220:165,2,139.999995231629,6|0|10,3:2|0:0|0:2,0:0:0:0:
258,114,85665,1,2,0:2:0:0:
309,115,85776,1,2,0:2:0:0:
258,114,85887,1,2,0:2:0:0:
132,117,85998,5,2,3:2:0:0:
92,191,86165,1,2,0:2:0:0:
126,268,86332,1,2,0:2:0:0:
208,289,86498,1,2,0:2:0:0:
378,289,86665,2,0,P|428:253|357:220,1,139.999995231629,10|2,0:2|0:2,0:0:0:0:
328,208,87109,1,2,0:0:0:0:
268,207,87220,1,2,0:0:0:0:
151,207,87331,6,0,P|106:166|157:132,1,139.999995231629,2|2,3:2|0:2,0:0:0:0:
329,134,87998,2,0,L|429:138,2,69.9999976158143,10|2|2,0:2|0:2|0:2,0:0:0:0:
225,133,88498,1,2,0:2:0:0:
393,148,88665,6,0,P|434:191|370:244,1,139.999995231629,2|2,3:2|0:2,0:0:0:0:
120,360,89331,2,0,P|77:328|141:273,1,139.999995231629,10|2,0:2|0:2,0:0:0:0:
209,269,89831,1,2,0:2:0:0:
441,291,89998,5,2,3:2:0:0:
496,223,90164,1,2,0:2:0:0:
476,135,90331,1,2,0:2:0:0:
393,100,90498,1,2,0:2:0:0:
264,93,90665,2,0,L|264:-5,1,93.333330154419,10|2,0:2|0:2,0:0:0:0:
319,0,90998,2,0,L|397:2,1,69.9999976158143,2|2,0:2|0:2,0:0:0:0:
164,297,91331,6,0,L|-29:297,2,139.999995231629,2|2|10,3:2|0:2|0:2,0:0:0:0:
220,298,92109,1,2,0:2:0:0:
164,297,92220,1,2,0:2:0:0:
38,290,92331,2,0,L|38:198,1,69.9999976158143,2|2,0:2|0:2,0:0:0:0:
270,97,92664,6,0,L|346:98,1,69.9999976158143,2|2,3:2|0:2,0:0:0:0:
270,97,92998,1,2,0:2:0:0:
102,100,93164,1,2,0:2:0:0:
191,105,93331,2,0,L|255:106,2,46.6666650772095,10|2|2,0:2|0:2|0:0,0:0:0:0:
134,107,93665,1,2,0:2:0:0:
134,107,93831,1,2,0:2:0:0:
359,285,93998,6,0,L|475:287,1,69.9999976158143,2|2,3:2|0:2,0:0:0:0:
359,285,94331,2,0,L|290:284,1,69.9999976158143,2|2,0:2|0:2,0:0:0:0:
112,283,94665,2,0,P|68:249|138:198,1,139.999995231629,10|2,0:2|0:2,0:0:0:0:
199,188,95164,1,2,0:2:0:0:
425,188,95331,6,0,L|438:95,2,69.9999976158143,2|0|0,3:2|0:0|0:0,0:0:0:0:
155,354,95998,2,0,P|101:327|141:251,1,139.999995231629,8|2,0:0|0:2,0:0:0:0:
201,251,96498,1,0,0:0:0:0:
371,248,96665,6,0,L|191:248,1,139.999995231629,2|2,3:2|0:2,0:0:0:0:
469,170,97331,2,0,L|467:348,1,139.999995231629,10|2,0:2|0:2,0:0:0:0:
62,334,97998,6,0,L|280:334,1,209.999992847443,2|0,3:2|0:0,0:0:0:0:
104,334,98665,1,10,0:2:0:0:
12,334,98831,2,0,L|9:151,1,139.999995231629,2|2,0:2|0:2,0:0:0:0:
178,207,99331,6,0,L|272:202,1,69.9999976158143,2|2,3:2|0:2,0:0:0:0:
152,96,99665,2,0,L|65:96,1,69.9999976158143,2|2,0:2|0:2,0:0:0:0:
250,32,99998,2,0,L|421:56,1,139.999995231629,10|2,0:2|0:2,0:0:0:0:
72,202,100665,6,0,P|53:138|134:111,1,139.999995231629,2|0,3:2|0:0,0:0:0:0:
278,208,101331,1,8,0:0:0:0:
193,206,101498,1,2,0:2:0:0:
361,135,101665,2,0,L|361:224,1,69.9999976158143,2|0,0:2|0:0,0:0:0:0:
176,260,101998,6,0,L|20:299,1,139.999995231629,2|0,3:2|0:0,0:0:0:0:
319,364,102665,2,0,P|399:338|395:252,1,139.999995231629,10|2,0:2|0:2,0:0:0:0:
15,345,103331,5,6,3:2:0:0:
155,345,103665,2,0,L|-50:345,2,139.999995231629,2|10|2,0:2|0:2|0:2,0:0:0:0:
253,346,104498,1,0,0:0:0:0:
427,358,104665,6,0,P|465:318|391:249,1,139.999995231629,2|2,3:2|0:2,0:0:0:0:
163,247,105331,2,0,P|122:215|182:151,1,139.999995231629,10|2,0:2|0:2,0:0:0:0:
236,145,105831,1,0,0:0:0:0:
404,145,105998,5,2,3:2:0:0:
236,145,106331,2,0,L|49:143,2,139.999995231629,2|10|2,0:2|0:2|0:2,0:0:0:0:
404,145,107331,5,0,3:0:0:0:
149,335,107665,1,2,0:2:0:0:
394,345,107998,2,0,P|434:303|390:233,1,139.999995231629,10|2,0:2|0:2,0:0:0:0:
311,229,108498,1,0,0:0:0:0:
80,229,108665,5,0,3:0:0:0:
240,221,108998,2,0,L|53:222,2,139.999995231629,2|10|2,0:2|0:2|0:2,0:0:0:0:
145,205,109831,1,0,0:0:0:0:
313,208,109998,6,0,L|480:210,1,139.999995231629,2|2,3:2|0:2,0:0:0:0:
214,275,110665,2,0,L|77:276,2,104.999996423721,10|2|2,0:2|0:2|0:2,0:0:0:0:
45,371,111331,6,0,P|14:347|63:268,1,139.999995231629,2|0,3:2|0:0,0:0:0:0:
325,275,111998,2,0,P|368:243|310:176,1,139.999995231629,10|2,0:2|0:2,0:0:0:0:
251,169,112498,1,0,0:0:0:0:
76,165,112665,6,0,P|30:138|96:98,1,139.999995231629,2|2,3:2|0:2,0:0:0:0:
313,266,113331,2,0,L|109:267,1,139.999995231629,10|2,0:2|0:2,0:0:0:0:
82,264,113831,1,0,0:0:0:0:
306,352,113998,6,0,L|393:358,2,69.9999976158143,2|0|0,3:2|0:0|0:0,0:0:0:0:
136,358,114664,1,10,0:0:0:0:
206,320,114830,1,2,0:0:0:0:
229,244,114997,1,2,0:2:0:0:
191,174,115164,1,2,0:0:0:0:
23,191,115331,6,0,L|216:193,2,139.999995231629,2|2|8,3:2|0:2|0:2,0:0:0:0:
191,115,116331,1,2,0:2:0:0:
359,116,116498,6,0,P|372:174|301:207,1,139.999995231629,2|0,0:2|0:0,0:0:0:0:
212,208,116998,1,0,0:0:0:0:
376,358,117331,1,10,0:0:0:0:
306,320,117497,1,2,0:0:0:0:
283,244,117664,1,2,0:2:0:0:
321,174,117831,1,2,0:0:0:0:
490,346,117998,6,0,L|292:347,2,139.999995231629,2|2|8,3:2|0:2|0:2,0:0:0:0:
240,278,118998,2,0,L|138:275,1,69.9999976158143,2|0,0:2|0:0,0:0:0:0:
398,221,119331,6,0,L|506:222,2,104.999996423721,2|2|2,3:2|0:2|0:2,0:0:0:0:
251,221,119998,2,0,L|251:109,1,104.999996423721,10|2,0:2|0:2,0:0:0:0:
395,112,120498,1,2,0:2:0:0:
217,331,120665,6,0,L|90:331,2,93.333330154419,2|2|2,3:2|0:2|0:2,0:0:0:0:
389,363,121331,2,0,L|517:364,2,93.333330154419,10|2|2,0:2|0:2|0:2,0:0:0:0:
102,361,121998,6,0,P|58:335|134:282,1,139.999995231629,2|0,3:2|0:0,0:0:0:0:
172,256,122498,1,0,0:0:0:0:
340,255,122665,2,0,L|257:254,1,69.9999976158143,8|0,0:0|0:0,0:0:0:0:
174,336,122998,2,0,L|269:334,1,69.9999976158143
470,361,123331,6,0,L|482:266,1,69.9999976158143,2|0,3:2|0:0,0:0:0:0:
305,279,123665,2,0,L|385:279,1,69.9999976158143,2|0,3:2|0:0,0:0:0:0:
207,209,123998,2,0,L|207:127,1,69.9999976158143,10|0,3:2|0:0,0:0:0:0:
296,136,124331,1,2,3:2:0:0:
45,137,124664,5,0,0:2:0:0:
81,361,137998,6,0,P|38:338|93:278,1,139.999995231629,2|2,3:2|0:0,0:0:0:0:
164,271,138498,2,0,L|-31:272,1,139.999995231629,2|2,0:0|0:0,0:0:0:0:
377,209,139331,5,2,3:2:0:0:
147,203,139831,1,2,0:0:0:0:
316,197,139998,2,0,L|316:102,1,69.9999976158143,2|2,3:2|0:0,0:0:0:0:
221,112,140331,2,0,L|112:113,1,69.9999976158143,2|2,0:0|0:0,0:0:0:0:
341,50,140665,6,0,P|384:77|322:140,1,139.999995231629,2|2,3:2|0:0,0:0:0:0:
267,153,141165,2,0,L|427:149,1,139.999995231629,2|2,0:0|0:0,0:0:0:0:
118,79,141998,5,2,3:2:0:0:
267,102,142331,1,0,0:0:0:0:
333,238,142664,1,2,3:2:0:0:
259,371,142998,1,0,0:0:0:0:
14,371,143331,6,0,L|6:149,1,209.999992847443,2|0,3:2|0:0,0:0:0:0:
95,157,143998,1,2,3:2:0:0:
279,238,144331,6,0,L|117:233,2,139.999995231629,2|0|2,0:0|3:2|0:0,0:0:0:0:
82,342,145331,2,0,P|34:314|98:287,1,139.999995231629,2|2,3:2|0:0,0:0:0:0:
382,271,145998,6,0,P|426:231|346:177,1,139.999995231629,2|0,3:2|0:0,0:0:0:0:
213,168,146664,2,0,L|45:168,1,139.999995231629,2|0,3:2|0:0,0:0:0:0:
370,62,147331,6,0,L|368:163,1,69.9999976158143,2|0,3:2|0:0,0:0:0:0:
275,173,147665,2,0,L|191:197,1,69.9999976158143
317,278,147998,2,0,L|417:306,1,69.9999976158143,2|0,3:2|0:0,0:0:0:0:
223,360,148331,2,0,L|210:278,1,69.9999976158143
485,293,148665,6,0,L|496:201,1,69.9999976158143,2|0,3:2|0:0,0:0:0:0:
324,190,148998,2,0,L|244:173,1,69.9999976158143,2|0,3:2|0:0,0:0:0:0:
27,293,149331,2,0,L|16:201,1,69.9999976158143,2|0,3:2|0:0,0:0:0:0:
188,190,149664,2,0,L|268:173,1,69.9999976158143,2|0,3:2|0:0,0:0:0:0:
37,51,150665,6,0,L|26:284,1,209.999992847443,14|0,0:0|0:0,0:0:0:0:
295,347,151331,6,0,P|343:315|279:268,1,139.999995231629,6|2,3:2|0:0,0:0:0:0:
134,258,151831,2,0,L|295:260,1,139.999995231629,2|2,0:0|0:0,0:0:0:0:
373,261,152331,1,0,0:0:0:0:
135,362,152665,6,0,P|91:336|166:292,1,139.999995231629,2|2,3:2|0:0,0:0:0:0:
298,275,153165,2,0,L|468:277,2,139.999995231629,2|2|0,0:0|0:0|0:0,0:0:0:0:
68,279,153998,6,0,P|83:227|205:199,1,139.999995231629,2|2,3:2|0:0,0:0:0:0:
330,189,154498,2,0,L|149:189,1,139.999995231629,2|2,0:0|0:0,0:0:0:0:
288,174,154998,1,0,0:0:0:0:
37,173,155331,6,0,L|46:349,1,139.999995231629,2|2,3:2|0:0,0:0:0:0:
132,331,155831,1,2,0:0:0:0:
308,364,155998,2,0,L|383:360,1,69.9999976158143,8|0,0:0|0:0,0:0:0:0:
254,302,156331,2,0,L|174:292,1,69.9999976158143
414,249,156665,6,0,P|450:224|392:151,1,139.999995231629,2|2,3:2|0:0,0:0:0:0:
248,141,157165,2,0,L|409:141,1,139.999995231629,2|0,0:0|0:0,0:0:0:0:
489,139,157665,1,2,0:0:0:0:
244,293,157998,6,0,P|187:273|203:189,1,139.999995231629,2|2,3:2|0:0,0:0:0:0:
358,201,158498,2,0,P|415:185|383:116,1,139.999995231629,2|0,0:0|0:0,0:0:0:0:
229,118,158998,2,0,L|229:204,1,69.9999976158143,2|0,0:0|0:0,0:0:0:0:
464,332,159331,6,0,P|506:298|432:253,1,139.999995231629,2|0,3:2|0:0,0:0:0:0:
357,242,159831,1,2,0:0:0:0:
175,243,159998,1,8,0:0:0:0:
357,242,160331,1,2,0:0:0:0:
88,352,160665,6,0,P|60:310|130:266,1,139.999995231629,0|2,3:0|0:0,0:0:0:0:
215,261,161165,2,0,L|227:175,1,69.9999976158143,0|10,0:0|0:0,0:0:0:0:
50,184,161498,2,0,P|25:143|84:93,1,139.999995231629,2|0,0:0|0:0,0:0:0:0:
319,104,161998,6,0,L|139:103,1,139.999995231629,2|2,3:2|0:0,0:0:0:0:
284,178,162498,2,0,L|466:180,2,139.999995231629,2|2|0,0:0|0:0|0:0,0:0:0:0:
116,178,163331,1,2,3:2:0:0:
354,343,163831,5,2,0:0:0:0:
186,338,163998,2,0,L|187:268,1,69.9999976158143,10|2,0:0|0:0,0:0:0:0:
289,269,164331,2,0,L|373:269,1,69.9999976158143,2|2,0:0|0:0,0:0:0:0:
133,191,164665,6,0,P|92:161|136:98,1,139.999995231629,2|2,3:2|0:0,0:0:0:0:
231,100,165165,2,0,L|91:100,2,139.999995231629,2|2|0,0:0|0:0|0:0,0:0:0:0:
58,159,165998,6,0,P|53:93|127:76,1,139.999995231629,2|0,3:2|0:0,0:0:0:0:
432,330,166664,2,0,P|475:288|423:229,1,139.999995231629,10|0,0:0|0:0,0:0:0:0:
27,162,167331,6,0,L|26:331,1,139.999995231629,2|0,3:2|0:0,0:0:0:0:
104,342,167831,1,0,0:0:0:0:
283,345,167998,1,10,0:0:0:0:
38,268,168331,6,0,P|13:209|87:173,1,139.999995231629,2|0,0:0|3:0,0:0:0:0:
311,171,168998,1,2,0:0:0:0:
43,39,169331,2,0,P|4:90|47:138,1,139.999995231629,10|2,0:0|0:0,0:0:0:0:
450,282,169998,6,0,L|450:109,1,139.999995231629,2|0,3:2|0:0,0:0:0:0:
365,144,170498,1,0,0:0:0:0:
187,226,170665,2,0,L|282:226,1,69.9999976158143,8|0,0:0|0:0,0:0:0:0:
353,306,170998,2,0,L|258:306,1,69.9999976158143
28,362,171331,5,2,3:2:0:0:
18,294,171497,1,0,0:0:0:0:
59,235,171664,1,2,0:0:0:0:
128,213,171830,1,0,0:0:0:0:
366,203,171998,2,0,L|370:117,1,69.9999976158143,10|0,0:0|0:0,0:0:0:0:
201,112,172331,2,0,L|128:108,1,69.9999976158143,2|0,0:0|0:0,0:0:0:0:
402,37,172665,6,0,P|448:83|364:101,1,139.999995231629,6|2,3:2|3:2,0:0:0:0:
236,128,173165,1,2,0:0:0:0:
404,125,173498,2,0,L|416:307,1,139.999995231629,2|0,0:0|3:2,0:0:0:0:
187,357,173998,6,0,P|143:319|207:265,1,139.999995231629,2|2,0:2|3:2,0:0:0:0:
351,259,174498,1,2,0:0:0:0:
101,242,174831,2,0,P|52:200|63:109,1,139.999995231629,6|0,3:2|0:0,0:0:0:0:
296,117,175331,6,0,L|105:143,1,139.999995231629,6|2,3:2|0:0,0:0:0:0:
326,206,175831,2,0,L|484:235,2,139.999995231629,2|2|0,0:0|0:0|0:0,0:0:0:0:
72,179,176665,6,0,P|27:144|92:84,1,139.999995231629,2|2,3:2|0:0,0:0:0:0:
154,74,177165,1,2,0:0:0:0:
321,63,177331,2,0,L|329:156,1,69.9999976158143,8|0,0:0|0:0,0:0:0:0:
226,189,177665,2,0,L|150:214,1,69.9999976158143,0|2,0:0|0:0,0:0:0:0:
398,352,177998,6,0,P|435:316|355:239,1,139.999995231629,2|2,3:2|0:0,0:0:0:0:
232,236,178498,2,0,L|64:234,1,139.999995231629,2|0,0:0|0:0,0:0:0:0:
181,219,178998,1,2,0:0:0:0:
417,212,179331,6,0,L|253:211,1,139.999995231629,2|2,3:2|0:0,0:0:0:0:
109,175,179831,2,0,L|276:174,1,139.999995231629,2|0,0:0|0:0,0:0:0:0:
417,173,180331,2,0,L|419:266,1,69.9999976158143,2|0,0:0|0:0,0:0:0:0:
174,353,180665,6,0,P|132:323|196:265,1,139.999995231629,2|2,3:2|0:0,0:0:0:0:
350,253,181165,2,0,L|157:251,2,139.999995231629,2|2|0,0:0|0:0|0:0,0:0:0:0:
122,178,181998,6,0,P|55:215|26:291,1,139.999995231629,2|0,3:2|0:0,0:0:0:0:
197,283,182498,1,2,0:0:0:0:
100,318,182665,2,0,L|5:321,2,69.9999976158143,10|2|2,0:0|0:0|0:0,0:0:0:0:
494,365,183331,6,0,L|494:205,1,139.999995231629,2|2,3:2|0:0,0:0:0:0:
326,215,183831,2,0,L|147:216,1,139.999995231629,2|2,0:0|0:0,0:0:0:0:
288,201,184331,1,0,0:0:0:0:
33,217,184665,6,0,P|27:282|101:300,1,139.999995231629,2|0,3:2|0:0,0:0:0:0:
179,310,185165,1,2,0:0:0:0:
354,355,185331,2,0,L|462:355,2,69.9999976158143,10|2|2,0:0|0:0|0:0,0:0:0:0:
88,361,185998,6,0,P|48:331|116:268,1,139.999995231629,2|2,3:2|0:0,0:0:0:0:
258,259,186498,2,0,L|431:257,2,139.999995231629,2|2|0,0:0|0:0|0:0,0:0:0:0:
87,249,187331,6,0,L|292:246,1,139.999995231629,2|0,3:2|0:0,0:0:0:0:
226,246,187831,1,2,0:0:0:0:
58,228,187998,2,0,P|10:278|74:295,1,139.999995231629,10|2,0:0|0:0,0:0:0:0:
144,305,188498,1,0,0:0:0:0:
386,318,188665,6,0,P|421:293|356:220,1,139.999995231629,2|2,3:2|0:0,0:0:0:0:
287,215,189165,2,0,L|125:215,1,139.999995231629,2|2,0:0|0:0,0:0:0:0:
315,131,189665,2,0,L|396:131,1,69.9999976158143,2|2,0:0|0:0,0:0:0:0:
217,61,189998,6,0,P|167:115|227:153,1,139.999995231629,2|2,3:2|0:0,0:0:0:0:
307,160,190498,2,0,P|351:193|282:241,1,139.999995231629,2|2,0:0|0:0,0:0:0:0:
140,250,190998,2,0,L|139:160,1,69.9999976158143,2|0,0:0|0:0,0:0:0:0:
371,171,191331,6,0,P|432:133|389:58,1,139.999995231629,2|2,3:2|0:0,0:0:0:0:
334,57,191831,1,2,0:0:0:0:
151,61,191998,2,0,L|51:67,2,69.9999976158143,10|2|2,0:0|0:0|0:0,0:0:0:0:
241,54,192498,1,2,0:0:0:0:
417,52,192665,6,0,P|463:78|385:112,1,139.999995231629,2|2,3:2|0:0,0:0:0:0:
159,233,193331,2,0,L|171:83,1,139.999995231629,10|2,0:0|0:0,0:0:0:0:
491,138,193998,6,0,L|184:137,2,307.999998908997,2|2|2,0:0|0:0|0:0,0:0:0:0:
92,365,197998,2,0,P|55:339|110:259,1,153.999999454498,2|2,0:0|0:0,0:0:0:0:
354,270,199331,5,2,0:0:0:0:
93,261,200665,2,0,L|266:262,1,153.999999454498,2|2,0:0|0:0,0:0:0:0:
93,261,201998,2,0,P|53:248|119:59,1,307.999998908997,2|2,0:0|0:0,0:0:0:0:
367,269,203998,1,2,0:0:0:0:
54,366,204665,6,0,P|126:333|48:167,1,307.999998908997,2|2,0:0|0:0,0:0:0:0:
339,179,207331,1,2,0:0:0:0:
54,167,208665,2,0,L|229:167,1,153.999999454498,2|2,0:0|0:0,0:0:0:0:
483,294,209998,6,0,P|503:245|385:108,1,230.999999181748,2|0,0:0|0:0,0:0:0:0:
250,104,211331,2,0,L|368:104,1,115.499999590874,2|2,0:0|0:0,0:0:0:0:
