osu file format v14

[General]
AudioFilename: audio.ogg
AudioLeadIn: 0
PreviewTime: 50496
Countdown: 0
SampleSet: Normal
StackLeniency: 0.7
Mode: 1
LetterboxInBreaks: 0
WidescreenStoryboard: 1

[Editor]
DistanceSpacing: 1
BeatDivisor: 2
GridSize: 32
TimelineZoom: 1.2

[Metadata]
Title:Shukufuku (TV Size)
TitleUnicode:祝福 (TV Size)
Artist:YOASOBI
ArtistUnicode:YOASOBI
Creator:Roxy-
Version:Futsuu
Source:機動戦士ガンダム 水星の魔女
Tags:the blessing ayase ikura mobile suit gundam the witch from mercury kidou senshi gundam suisei no majo g_witch anime opening japanese pop jpop j-pop KuroKuroKuro Linkff001
BeatmapID:4370557
BeatmapSetID:2086088

[Difficulty]
HPDrainRate:7
CircleSize:5
OverallDifficulty:4
ApproachRate:5
SliderMultiplier:1.4
SliderTickRate:1

[Events]
//Background and Video events
0,0,"Mercury.jpg",0,0
//Break Periods
//Storyboard Layer 0 (Background)
//Storyboard Layer 1 (Fail)
//Storyboard Layer 2 (Pass)
//Storyboard Layer 3 (Foreground)
//Storyboard Layer 4 (Overlay)
//Storyboard Sound Samples

[TimingPoints]
555,352.941176470588,4,1,0,100,1,0
555,-100,4,1,0,80,0,0
11849,-100,4,1,0,90,0,0
17496,-100,4,1,0,85,0,0
28790,-100,4,1,0,90,0,0
51378,-100,4,1,0,100,0,1
73966,-100,4,1,0,100,0,0

[HitObjects]
257,195,555,5,0,0:0:0:0:
257,195,1260,1,8,0:0:0:0:
257,195,2319,1,0,0:0:0:0:
257,195,2672,1,8,0:0:0:0:
257,195,3378,1,0,0:0:0:0:
257,195,3731,1,0,0:0:0:0:
257,195,4084,1,8,0:0:0:0:
257,195,5143,1,0,0:0:0:0:
257,195,5496,1,8,0:0:0:0:
257,195,6202,1,0,0:0:0:0:
257,195,6554,1,8,0:0:0:0:
257,195,6907,1,0,0:0:0:0:
257,195,7260,1,8,0:0:0:0:
257,195,7437,1,0,0:0:0:0:
257,195,7790,1,0,0:0:0:0:
257,195,7966,1,8,0:0:0:0:
257,195,8319,1,0,0:0:0:0:
257,195,9025,1,0,0:0:0:0:
257,195,9378,5,8,0:0:0:0:
257,195,9731,1,0,0:0:0:0:
257,195,10084,1,8,0:0:0:0:
257,195,10260,1,8,0:0:0:0:
249,194,11849,5,4,0:0:0:0:
249,194,12202,1,8,0:0:0:0:
249,194,12554,1,0,0:0:0:0:
249,194,12907,1,8,0:0:0:0:
249,194,13084,1,0,0:0:0:0:
249,194,13437,1,0,0:0:0:0:
249,194,13613,1,0,0:0:0:0:
249,194,13790,1,8,0:0:0:0:
249,194,14672,1,0,0:0:0:0:
249,194,15025,1,8,0:0:0:0:
249,194,15378,1,0,0:0:0:0:
249,194,15731,1,8,0:0:0:0:
249,194,15907,1,8,0:0:0:0:
249,194,16437,1,8,0:0:0:0:
249,194,16790,1,0,0:0:0:0:
249,194,17496,1,4,0:0:0:0:
249,194,17849,1,8,0:0:0:0:
249,194,18202,1,8,0:0:0:0:
249,194,18554,1,0,0:0:0:0:
249,194,18907,1,8,0:0:0:0:
249,194,19260,1,0,0:0:0:0:
249,194,19613,1,0,0:0:0:0:
249,194,19966,1,8,0:0:0:0:
249,194,20319,1,0,0:0:0:0:
249,194,20672,1,8,0:0:0:0:
249,194,21025,1,0,0:0:0:0:
249,194,21731,1,0,0:0:0:0:
249,194,22084,1,8,0:0:0:0:
249,194,22437,1,0,0:0:0:0:
249,194,22790,1,8,0:0:0:0:
249,194,22966,1,8,0:0:0:0:
249,194,23143,1,0,0:0:0:0:
249,194,23496,1,8,0:0:0:0:
249,194,23849,1,0,0:0:0:0:
249,194,24202,1,8,0:0:0:0:
249,194,24554,1,0,0:0:0:0:
249,194,24907,1,0,0:0:0:0:
249,194,25260,1,8,0:0:0:0:
249,194,25966,1,0,0:0:0:0:
249,194,26319,1,0,0:0:0:0:
249,194,26672,1,8,0:0:0:0:
249,194,27378,1,0,0:0:0:0:
249,194,27731,1,8,0:0:0:0:
249,194,28084,1,0,0:0:0:0:
249,194,28260,1,0,0:0:0:0:
249,194,28437,1,8,0:0:0:0:
249,194,28613,1,8,0:0:0:0:
249,194,28790,1,4,0:0:0:0:
249,194,29496,1,8,0:0:0:0:
249,194,29849,1,0,0:0:0:0:
249,194,30202,1,8,0:0:0:0:
249,194,30554,1,0,0:0:0:0:
249,194,30731,1,8,0:0:0:0:
249,194,30907,1,0,0:0:0:0:
249,194,31260,1,8,0:0:0:0:
249,194,31613,1,0,0:0:0:0:
249,194,31966,1,8,0:0:0:0:
249,194,32143,1,8,0:0:0:0:
249,194,32319,1,0,0:0:0:0:
249,194,33025,1,0,0:0:0:0:
249,194,33378,1,8,0:0:0:0:
249,194,33731,1,0,0:0:0:0:
249,194,34084,1,8,0:0:0:0:
249,194,34260,1,0,0:0:0:0:
249,194,34437,1,0,0:0:0:0:
249,194,34790,1,8,0:0:0:0:
249,194,35143,1,0,0:0:0:0:
249,194,35496,1,8,0:0:0:0:
249,194,35849,1,0,0:0:0:0:
249,194,36202,1,8,0:0:0:0:
249,194,36378,1,0,0:0:0:0:
249,194,36554,1,8,0:0:0:0:
249,194,37260,1,0,0:0:0:0:
249,194,37613,1,8,0:0:0:0:
249,194,37790,1,8,0:0:0:0:
249,194,37966,1,0,0:0:0:0:
249,194,38319,1,8,0:0:0:0:
249,194,38496,1,0,0:0:0:0:
249,194,38849,1,0,0:0:0:0:
249,194,39025,1,8,0:0:0:0:
249,194,39378,1,0,0:0:0:0:
249,194,40084,1,4,0:0:0:0:
249,194,40437,1,8,0:0:0:0:
249,194,40613,1,0,0:0:0:0:
249,194,41143,1,0,0:0:0:0:
249,194,41319,1,8,0:0:0:0:
249,194,41849,1,8,0:0:0:0:
249,194,42025,1,0,0:0:0:0:
249,194,42554,1,0,0:0:0:0:
249,194,43260,1,8,0:0:0:0:
249,194,43437,5,0,0:0:0:0:
249,194,43966,1,0,0:0:0:0:
249,194,44143,1,8,0:0:0:0:
249,194,44672,1,8,0:0:0:0:
249,194,44849,1,0,0:0:0:0:
249,194,45202,1,0,0:0:0:0:
249,194,45378,1,8,0:0:0:0:
249,194,45731,1,0,0:0:0:0:
249,194,46084,1,8,0:0:0:0:
249,194,46790,1,8,0:0:0:0:
249,194,46966,1,0,0:0:0:0:
249,194,47496,1,0,0:0:0:0:
249,194,47672,1,8,0:0:0:0:
249,194,48025,1,0,0:0:0:0:
249,194,48202,1,8,0:0:0:0:
249,194,48378,1,0,0:0:0:0:
256,192,48554,12,0,49613,0:0:0:0:
249,197,49790,5,4,0:0:0:0:
249,197,50319,1,12,0:0:0:0:
249,197,51378,1,4,0:0:0:0:
249,197,51731,1,8,0:0:0:0:
249,197,52084,1,0,0:0:0:0:
249,197,52437,1,8,0:0:0:0:
249,197,52613,1,8,0:0:0:0:
249,197,52790,1,0,0:0:0:0:
249,197,53143,1,8,0:0:0:0:
249,197,53496,1,0,0:0:0:0:
249,197,53672,1,0,0:0:0:0:
249,197,53849,1,8,0:0:0:0:
249,197,54202,1,0,0:0:0:0:
249,197,54907,1,0,0:0:0:0:
249,197,55260,1,8,0:0:0:0:
249,197,55613,1,0,0:0:0:0:
249,197,55966,1,8,0:0:0:0:
249,197,56143,1,8,0:0:0:0:
249,197,56319,1,0,0:0:0:0:
249,197,56496,1,0,0:0:0:0:
249,197,56672,1,8,0:0:0:0:
249,197,57025,1,4,0:0:0:0:
249,197,57731,1,8,0:0:0:0:
249,197,58084,1,0,0:0:0:0:
249,197,58260,1,8,0:0:0:0:
249,197,58437,1,0,0:0:0:0:
249,197,58790,1,8,0:0:0:0:
249,197,59143,1,0,0:0:0:0:
249,197,59319,1,0,0:0:0:0:
249,197,59496,1,8,0:0:0:0:
249,197,59672,1,8,0:0:0:0:
249,197,59849,1,0,0:0:0:0:
249,197,60202,1,8,0:0:0:0:
249,197,60554,1,0,0:0:0:0:
249,197,61260,1,4,0:0:0:0:
249,197,61613,1,8,0:0:0:0:
249,197,61966,1,0,0:0:0:0:
249,197,62143,1,0,0:0:0:0:
249,197,62319,1,8,0:0:0:0:
249,197,62672,1,4,0:0:0:0:
249,197,63025,1,12,0:0:0:0:
249,197,63731,1,0,0:0:0:0:
249,197,63907,1,8,0:0:0:0:
249,197,64084,1,0,0:0:0:0:
249,197,64437,1,8,0:0:0:0:
249,197,64790,1,0,0:0:0:0:
249,197,64966,1,0,0:0:0:0:
249,197,65143,1,8,0:0:0:0:
249,197,65319,1,8,0:0:0:0:
249,197,65496,1,0,0:0:0:0:
249,197,65848,1,8,0:0:0:0:
249,197,66202,1,0,0:0:0:0:
249,197,66554,1,8,0:0:0:0:
249,197,66731,1,0,0:0:0:0:
249,197,66907,1,0,0:0:0:0:
249,197,67260,1,8,0:0:0:0:
249,197,67613,1,0,0:0:0:0:
249,197,67790,1,0,0:0:0:0:
249,197,67966,1,8,0:0:0:0:
249,197,68319,1,4,0:0:0:0:
249,197,69025,1,0,0:0:0:0:
249,197,69378,1,8,0:0:0:0:
249,197,69731,1,0,0:0:0:0:
249,197,70084,1,8,0:0:0:0:
249,197,70260,1,0,0:0:0:0:
249,197,70437,1,8,0:0:0:0:
249,197,70790,1,0,0:0:0:0:
249,197,71143,1,0,0:0:0:0:
249,197,71496,1,8,0:0:0:0:
249,197,71672,1,8,0:0:0:0:
249,197,71849,1,0,0:0:0:0:
249,197,72202,1,8,0:0:0:0:
249,197,72554,1,0,0:0:0:0:
249,197,72731,1,0,0:0:0:0:
249,197,72907,1,0,0:0:0:0:
249,197,73260,1,8,0:0:0:0:
249,197,73437,1,0,0:0:0:0:
249,197,73613,1,8,0:0:0:0:
249,197,73966,1,4,0:0:0:0:
249,197,74672,1,8,0:0:0:0:
249,197,75378,1,4,0:0:0:0:
249,197,76084,1,8,0:0:0:0:
249,194,76790,5,4,0:0:0:0:
249,194,77143,1,8,0:0:0:0:
249,194,77495,1,0,0:0:0:0:
249,194,77848,1,8,0:0:0:0:
249,194,78025,1,0,0:0:0:0:
249,194,78378,1,0,0:0:0:0:
249,194,78554,1,0,0:0:0:0:
249,194,78731,1,8,0:0:0:0:
249,194,79260,1,8,0:0:0:0:
249,194,79613,1,0,0:0:0:0:
249,194,79966,1,8,0:0:0:0:
249,194,80319,1,0,0:0:0:0:
249,194,80672,1,8,0:0:0:0:
249,194,80848,1,0,0:0:0:0:
249,194,81202,1,0,0:0:0:0:
249,194,81378,1,0,0:0:0:0:
249,194,81555,1,8,0:0:0:0:
249,194,81907,1,0,0:0:0:0:
249,194,82084,5,8,0:0:0:0:
249,194,82437,5,4,0:0:0:0:
249,194,83142,1,8,0:0:0:0:
249,194,83495,1,0,0:0:0:0:
249,194,83672,1,8,0:0:0:0:
249,194,84025,1,0,0:0:0:0:
249,194,84201,1,0,0:0:0:0:
249,194,84378,1,8,0:0:0:0:
249,194,84907,1,8,0:0:0:0:
249,194,85260,1,0,0:0:0:0:
249,194,85613,1,8,0:0:0:0:
249,194,85966,1,0,0:0:0:0:
249,194,86319,1,8,0:0:0:0:
249,194,86495,1,0,0:0:0:0:
249,194,87025,1,8,0:0:0:0:
249,194,87202,1,0,0:0:0:0:
249,194,87554,1,8,0:0:0:0:
249,194,87907,1,0,0:0:0:0:
