osu file format v14

[General]
AudioFilename: audio.ogg
AudioLeadIn: 0
PreviewTime: 50496
Countdown: 0
SampleSet: None
StackLeniency: 0.7
Mode: 0
LetterboxInBreaks: 0
WidescreenStoryboard: 0

[Editor]
DistanceSpacing: 0.3
BeatDivisor: 4
GridSize: 32
TimelineZoom: 1.5

[Metadata]
Title:Shukufuku (TV Size)
TitleUnicode:祝福 (TV Size)
Artist:YOASOBI
ArtistUnicode:YOASOBI
Creator:achyoo
Version:gayge
Source:機動戦士ガンダム 水星の魔女
Tags:ayucchi 錦木 千束 Nishikigi Chisato 井ノ上 たきな Inoue Takina chisataki mobile suit gundam the witch from mercury kidou senshi gundam suisei no majo g_witch anime opening japanese pop jpop j-pop
BeatmapID:4537995
BeatmapSetID:2153645

[Difficulty]
HPDrainRate:5
CircleSize:4
OverallDifficulty:8
ApproachRate:9
SliderMultiplier:1.7
SliderTickRate:1

[Events]
//Background and Video events
0,0,"101691999_p0.jpg",0,0
//Break Periods
//Storyboard Layer 0 (Background)
//Storyboard Layer 1 (Fail)
//Storyboard Layer 2 (Pass)
//Storyboard Layer 3 (Foreground)
//Storyboard Layer 4 (Overlay)
//Storyboard Sound Samples

[TimingPoints]
555,352.941176470588,4,2,0,55,1,0
555,-133.333333333333,4,2,0,55,0,0
6202,-111.111111111111,4,2,0,55,0,0
11849,-100,4,2,0,55,0,0
17496,-133.333333333333,4,2,0,55,0,0
27378,-117.647058823529,4,2,0,55,0,0
40084,-100,4,2,0,55,0,0
48731,-200,4,2,0,55,0,0
49790,-142.857142857143,4,2,0,55,0,0
50143,-100,4,2,0,55,0,0
51378,-90.9090909090909,4,2,0,75,0,1
62672,-200,4,2,0,75,0,0
63025,-90.9090909090909,4,2,0,75,0,1
73966,-133.333333333333,4,2,0,75,0,0
76790,-100,4,2,0,55,0,0
86496,-90.9090909090909,4,2,0,55,0,0
87907,-333.333333333333,4,2,0,55,0,0

[Colours]
Combo1 : 136,169,255
Combo2 : 245,109,109
Combo3 : 143,143,143
Combo4 : 249,234,128

[HitObjects]
163,126,555,6,0,P|101:98|39:89,2,127.500004863739
240,84,1437,1,0,0:0:0:0:
310,127,1613,2,0,P|326:77|332:45,2,63.7500024318696
258,200,2143,1,0,0:0:0:0:
258,200,2319,2,0,P|317:216|382:177,1,127.500004863739
121,357,3025,1,0,0:0:0:0:
121,357,3378,6,0,P|116:307|106:270,1,63.7500024318696
204,362,3731,2,0,P|199:312|178:223,1,127.500004863739
258,200,4260,1,0,0:0:0:0:
321,264,4437,1,0,0:0:0:0:
289,351,4613,2,0,P|332:309|402:310,1,127.500004863739
462,243,5143,2,0,P|473:294|479:325,1,63.7500024318696
512,379,5496,1,0,0:0:0:0:
393,316,5672,6,0,P|404:367|410:398,2,63.7500024318696
407,161,6202,6,0,P|355:184|325:192,1,76.4999976654053
393,47,6554,2,0,P|429:58|463:75,1,76.4999976654053
247,211,6907,6,0,P|249:140|265:60,1,152.999995330811
102,60,7437,2,0,P|140:29|189:11,1,76.4999976654053
158,136,7790,5,0,0:0:0:0:
62,235,7966,1,0,0:0:0:0:
25,145,8143,5,0,0:0:0:0:
145,280,8319,2,0,P|182:284|252:298,1,76.4999976654053
13,359,8672,5,0,0:0:0:0:
13,359,8849,1,0,0:0:0:0:
187,208,9025,6,0,P|198:168|205:125,1,76.4999976654053
225,48,9290,1,0,0:0:0:0:
244,40,9378,6,0,P|286:65|296:99,1,76.4999976654053
280,161,9643,1,0,0:0:0:0:
343,201,9731,6,0,P|381:182|465:154,1,114.749996498108
461,154,10084,6,0,P|464:182|470:208,1,38.2499988327027
290,302,10260,2,0,P|287:274|281:248,1,38.2499988327027
232,174,10613,5,0,0:0:0:0:
257,182,10790,1,0,0:0:0:0:
232,160,10966,1,0,0:0:0:0:
255,193,11143,1,0,0:0:0:0:
247,157,11319,1,0,0:0:0:0:
243,201,11496,1,0,0:0:0:0:
249,179,11672,1,0,0:0:0:0:
242,189,11849,6,0,P|165:180|123:178,1,85
78,345,12202,2,0,P|117:317|118:261,1,85
117,269,12466,1,0,0:0:0:0:
107,262,12554,1,0,0:0:0:0:
17,132,12731,1,0,0:0:0:0:
197,140,12907,1,0,0:0:0:0:
80,19,13084,6,0,P|101:87|115:187,1,170
206,262,13613,1,0,0:0:0:0:
334,94,13790,2,0,P|284:78|230:59,1,85
291,258,14143,5,0,0:0:0:0:
417,170,14319,1,0,0:0:0:0:
245,73,14496,1,0,0:0:0:0:
427,266,14672,5,0,0:0:0:0:
276,170,14849,1,0,0:0:0:0:
168,359,15025,2,0,P|200:348|259:331,1,85
261,333,15290,1,0,0:0:0:0:
272,336,15378,1,0,0:0:0:0:
133,195,15554,2,0,P|147:149|154:121,2,42.5
80,384,15907,6,0,P|34:328|56:234,1,170
275,29,16437,2,0,P|262:87|254:123,1,85
119,298,16790,2,0,P|174:284|217:274,1,85
428,139,17143,2,0,P|419:166|413:200,3,42.5
420,126,17496,6,0,P|360:130|322:194,1,127.500004863739
381,252,18025,1,0,0:0:0:0:
499,103,18202,2,0,P|506:134|511:166,1,63.7500024318696
358,26,18554,2,0,P|351:57|346:88,1,63.7500024318696
338,104,18819,1,0,0:0:0:0:
338,104,18907,6,0,P|279:98|201:63,2,127.500004863739
53,29,19966,2,0,P|57:67|60:102,1,63.7500024318696
204,157,20319,5,0,0:0:0:0:
142,24,20496,1,0,0:0:0:0:
14,169,20672,2,0,P|70:139|146:121,2,127.500004863739
27,271,21554,5,0,0:0:0:0:
27,271,21643,1,0,0:0:0:0:
27,271,21731,2,0,P|69:265|101:258,1,63.7500024318696
223,382,22084,2,0,P|217:340|210:308,1,63.7500024318696
145,134,22437,5,0,0:0:0:0:
118,348,22702,1,0,0:0:0:0:
109,339,22790,1,0,0:0:0:0:
219,231,22966,1,0,0:0:0:0:
239,228,23054,1,0,0:0:0:0:
259,226,23143,6,0,P|283:261|296:295,1,63.7500024318696
408,279,23496,2,0,P|398:321|381:353,1,63.7500024318696
319,102,23849,5,0,0:0:0:0:
442,161,24025,1,0,0:0:0:0:
313,91,24202,2,0,P|261:111|202:124,1,95.6250036478044
213,116,24554,6,0,P|201:74|212:37,1,63.7500024318696
392,31,24907,2,0,P|404:73|393:110,1,63.7500024318696
226,244,25260,6,0,P|171:228|114:218,1,95.6250036478044
126,215,25613,2,0,P|170:199|198:191,1,63.7500024318696
450,305,25966,6,0,P|475:256|437:183,1,127.500004863739
374,165,26496,1,0,0:0:0:0:
292,306,26672,2,0,P|322:315|352:326,1,63.7500024318696
182,204,27025,1,0,0:0:0:0:
82,329,27202,1,0,0:0:0:0:
56,176,27378,6,0,L|110:162,1,36.1250006890297
127,49,27554,2,0,L|181:63,1,36.1250006890297
271,159,27731,2,0,L|285:105,1,36.1250006890297
417,34,27907,2,0,L|431:88,1,36.1250006890297
433,264,28084,6,0,L|419:210,1,36.1250006890297
368,142,28260,1,0,0:0:0:0:
368,142,28349,1,0,0:0:0:0:
368,142,28437,5,0,0:0:0:0:
361,162,28525,1,0,0:0:0:0:
354,182,28613,1,0,0:0:0:0:
347,202,28702,1,0,0:0:0:0:
341,222,28790,6,0,P|270:234|243:298,1,144.500002756119
134,187,29319,1,0,0:0:0:0:
261,379,29496,5,0,0:0:0:0:
89,288,29672,1,0,0:0:0:0:
287,210,29849,2,0,P|301:149|311:107,1,72.2500013780594
337,18,30113,1,0,0:0:0:0:
326,12,30202,6,0,P|283:23|232:40,1,72.2500013780594
82,196,30554,2,0,P|125:185|176:168,1,72.2500013780594
110,47,30907,5,0,0:0:0:0:
270,173,31084,1,0,0:0:0:0:
46,273,31260,2,0,P|5:241|6:168,1,108.375002067089
5,179,31613,6,0,P|-3:131|-12:87,1,72.2500013780594
194,42,31966,2,0,P|202:90|211:134,1,72.2500013780594
340,313,32319,5,0,0:0:0:0:
191,206,32496,1,0,0:0:0:0:
407,133,32672,1,0,0:0:0:0:
312,196,32849,5,0,0:0:0:0:
312,196,32937,1,0,0:0:0:0:
312,196,33025,1,0,0:0:0:0:
414,241,33202,1,0,0:0:0:0:
302,352,33378,5,0,0:0:0:0:
499,300,33554,1,0,0:0:0:0:
499,300,33643,1,0,0:0:0:0:
499,300,33731,6,0,P|489:334|484:370,1,72.2500013780594
312,196,34084,2,0,P|321:161|326:125,1,72.2500013780594
502,25,34437,6,0,P|484:59|431:74,1,72.2500013780594
224,150,34790,2,0,P|203:117|217:64,1,72.2500013780594
214,72,35054,1,0,0:0:0:0:
229,63,35143,5,0,0:0:0:0:
414,165,35319,1,0,0:0:0:0:
345,40,35496,2,0,P|329:101|323:129,1,72.2500013780594
267,242,35760,1,0,0:0:0:0:
261,250,35849,6,0,P|211:263|160:276,1,72.2500013780594
28,216,36202,1,0,0:0:0:0:
144,103,36378,1,0,0:0:0:0:
144,103,36466,1,0,0:0:0:0:
144,103,36554,1,0,0:0:0:0:
60,40,36731,1,0,0:0:0:0:
25,225,36907,1,0,0:0:0:0:
202,180,37084,1,0,0:0:0:0:
55,43,37260,5,0,0:0:0:0:
120,238,37437,1,0,0:0:0:0:
278,94,37613,1,0,0:0:0:0:
277,61,37702,1,0,0:0:0:0:
258,34,37790,1,0,0:0:0:0:
227,22,37878,1,0,0:0:0:0:
193,25,37966,1,0,0:0:0:0:
266,238,38143,5,0,0:0:0:0:
416,83,38319,1,0,0:0:0:0:
258,247,38496,2,0,B|210:271|222:303|160:326,1,108.375002067089
168,332,38849,5,0,0:0:0:0:
204,169,39025,1,0,0:0:0:0:
319,301,39202,1,0,0:0:0:0:
161,343,39378,5,0,0:0:0:0:
336,220,39554,1,0,0:0:0:0:
139,118,39731,1,0,0:0:0:0:
370,47,39907,1,0,0:0:0:0:
370,47,39996,1,0,0:0:0:0:
370,47,40084,6,0,P|355:91|337:144,1,85
319,301,40437,1,0,0:0:0:0:
512,279,40613,2,0,P|487:200|393:186,1,170
260,363,41143,5,0,0:0:0:0:
171,280,41319,2,0,P|116:266|75:258,1,85
44,364,41672,5,0,0:0:0:0:
185,281,41849,1,0,0:0:0:0:
185,281,41937,1,0,0:0:0:0:
185,281,42025,1,0,0:0:0:0:
36,168,42202,1,0,0:0:0:0:
227,29,42378,5,0,0:0:0:0:
129,179,42554,1,0,0:0:0:0:
227,29,42731,2,0,B|326:45|274:88|392:101,1,170
225,217,43260,5,0,0:0:0:0:
116,87,43437,2,0,P|126:45|135:-2,1,85
139,10,43702,1,0,0:0:0:0:
144,16,43790,1,0,0:0:0:0:
29,238,43966,5,0,0:0:0:0:
208,128,44143,2,0,P|247:120|305:105,1,85
478,221,44496,5,0,0:0:0:0:
352,39,44672,1,0,0:0:0:0:
307,199,44849,2,0,P|346:191|404:176,1,85
457,22,45202,5,0,0:0:0:0:
285,119,45378,1,0,0:0:0:0:
421,309,45554,1,0,0:0:0:0:
425,301,45643,1,0,0:0:0:0:
429,293,45731,6,0,P|379:277|341:268,1,85
139,335,46084,1,0,0:0:0:0:
284,216,46260,1,0,0:0:0:0:
130,136,46437,1,0,0:0:0:0:
140,344,46613,5,0,0:0:0:0:
220,128,46790,1,0,0:0:0:0:
31,205,46966,2,0,P|82:216|126:228,1,85
253,345,47319,5,0,0:0:0:0:
366,216,47496,1,0,0:0:0:0:
212,122,47672,1,0,0:0:0:0:
383,26,47849,1,0,0:0:0:0:
212,219,48025,5,0,0:0:0:0:
512,310,48202,1,0,0:0:0:0:
212,219,48378,1,0,0:0:0:0:
307,179,48731,6,0,P|311:149|320:123,2,42.5
219,124,49260,2,0,P|199:100|186:76,2,42.5
171,208,49790,2,0,P|121:221|80:232,1,89.2499972763062
79,238,50143,6,0,L|130:254,1,42.5
460,94,50319,1,0,0:0:0:0:
460,94,51378,6,0,P|410:113|372:133,1,93.5000028533936
325,253,51731,1,0,0:0:0:0:
129,54,51907,1,0,0:0:0:0:
129,54,51996,1,0,0:0:0:0:
129,54,52084,1,0,0:0:0:0:
121,244,52260,1,0,0:0:0:0:
320,52,52437,1,0,0:0:0:0:
113,252,52613,6,0,P|58:237|-1:223,1,93.5000028533936
231,87,52966,2,0,P|286:72|345:58,1,93.5000028533936
446,238,53319,5,0,0:0:0:0:
283,362,53496,1,0,0:0:0:0:
286,162,53672,1,0,0:0:0:0:
450,234,53849,1,0,0:0:0:0:
192,310,54025,5,0,0:0:0:0:
192,310,54113,1,0,0:0:0:0:
192,310,54202,2,0,P|205:247|215:204,1,93.5000028533936
151,80,54554,1,0,0:0:0:0:
4,289,54731,2,0,P|49:280|95:271,1,93.5000028533936
252,129,55084,1,0,0:0:0:0:
65,63,55260,1,0,0:0:0:0:
252,129,55437,6,0,P|293:92|292:32,1,93.5000028533936
124,0,55790,1,0,0:0:0:0:
210,213,55966,2,0,P|232:279|240:319,1,93.5000028533936
0,161,56319,5,0,0:0:0:0:
202,37,56496,1,0,0:0:0:0:
301,207,56672,1,0,0:0:0:0:
88,129,56849,1,0,0:0:0:0:
309,212,57025,6,0,B|388:201|351:158|470:146,1,140.25000428009
440,156,57378,1,0,0:0:0:0:
290,0,57554,2,0,P|278:49|266:107,1,93.5000028533936
281,111,57819,1,0,0:0:0:0:
304,111,57907,1,0,0:0:0:0:
454,248,58084,1,0,0:0:0:0:
247,301,58260,6,0,P|193:287|141:274,1,93.5000028533936
383,73,58613,2,0,P|437:59|489:46,1,93.5000028533936
245,214,58966,5,0,0:0:0:0:
126,109,59143,1,0,0:0:0:0:
277,28,59319,1,0,0:0:0:0:
245,221,59496,1,0,0:0:0:0:
182,35,59672,1,0,0:0:0:0:
336,178,59849,5,0,0:0:0:0:
336,178,59937,1,0,0:0:0:0:
336,178,60025,1,0,0:0:0:0:
140,208,60202,1,0,0:0:0:0:
294,82,60378,1,0,0:0:0:0:
140,208,60554,1,0,0:0:0:0:
110,21,60731,5,0,0:0:0:0:
237,176,60907,1,0,0:0:0:0:
39,192,61084,1,0,0:0:0:0:
213,30,61260,5,0,0:0:0:0:
60,290,61437,2,0,P|70:319|80:348,1,46.7500014266968
361,106,61613,2,0,P|331:98|299:89,1,46.7500014266968
289,384,61790,5,0,0:0:0:0:
318,354,61878,1,0,0:0:0:0:
318,312,61966,2,0,P|292:262|225:252,1,93.5000028533936
183,251,62231,1,0,0:0:0:0:
153,321,62319,1,0,0:0:0:0:
19,146,62496,1,0,0:0:0:0:
92,83,62672,6,0,P|120:90|160:102,1,63.75
248,83,63025,6,0,B|151:100|197:173|85:190,1,187.000005706787
10,58,63554,1,0,0:0:0:0:
199,169,63731,1,0,0:0:0:0:
26,270,63907,2,0,P|16:219|-3:150,1,93.5000028533936
105,39,64260,5,0,0:0:0:0:
208,186,64437,1,0,0:0:0:0:
275,32,64613,1,0,0:0:0:0:
111,227,64790,5,0,0:0:0:0:
296,130,64966,1,0,0:0:0:0:
138,120,65143,5,0,0:0:0:0:
342,214,65319,1,0,0:0:0:0:
426,30,65496,5,0,0:0:0:0:
372,96,65672,1,0,0:0:0:0:
512,148,65849,5,0,0:0:0:0:
428,169,66025,1,0,0:0:0:0:
505,319,66202,5,0,0:0:0:0:
335,211,66378,1,0,0:0:0:0:
507,139,66554,5,0,0:0:0:0:
315,294,66731,1,0,0:0:0:0:
284,11,66907,6,0,B|385:17|337:81|477:82,2,187.000005706787
209,63,67790,1,0,0:0:0:0:
325,289,67966,2,0,P|346:246|337:191,1,93.5000028533936
139,10,68319,6,0,P|126:64|114:105,1,93.5000028533936
10,301,68672,2,0,P|55:288|101:275,1,93.5000028533936
337,210,69025,5,0,0:0:0:0:
199,135,69202,1,0,0:0:0:0:
180,328,69378,1,0,0:0:0:0:
200,128,69554,1,0,0:0:0:0:
294,322,69731,5,0,0:0:0:0:
112,185,69907,1,0,0:0:0:0:
282,36,70084,5,0,0:0:0:0:
201,230,70260,1,0,0:0:0:0:
337,210,70437,1,0,0:0:0:0:
121,100,70613,1,0,0:0:0:0:
282,29,70790,5,0,0:0:0:0:
110,194,70966,1,0,0:0:0:0:
46,33,71143,6,0,P|105:56|230:108,1,187.000005706787
219,103,71672,1,0,0:0:0:0:
448,21,71849,2,0,P|427:71|411:119,1,93.5000028533936
205,198,72202,2,0,P|234:243|265:283,1,93.5000028533936
493,215,72554,5,0,0:0:0:0:
221,355,72731,1,0,0:0:0:0:
501,313,72907,5,0,0:0:0:0:
194,202,73084,1,0,0:0:0:0:
172,165,73172,1,0,0:0:0:0:
190,127,73260,1,0,0:0:0:0:
295,91,73437,5,0,0:0:0:0:
149,280,73613,1,0,0:0:0:0:
23,133,73790,1,0,0:0:0:0:
168,37,73966,6,0,B|167:148|82:84|96:218,1,191.250007295609
95,203,74584,1,0,0:0:0:0:
95,203,74672,1,0,0:0:0:0:
214,335,75025,6,0,P|250:324|293:317,2,63.7500024318696
131,367,75554,5,0,0:0:0:0:
65,281,75731,5,0,0:0:0:0:
136,209,75907,5,0,0:0:0:0:
231,186,76084,5,0,0:0:0:0:
225,96,76260,5,0,0:0:0:0:
141,64,76437,5,0,0:0:0:0:
131,71,76613,5,0,0:0:0:0:
130,60,76790,6,0,P|118:107|103:160,1,85
304,245,77143,1,0,0:0:0:0:
237,101,77319,2,0,L|283:83,2,42.5
29,221,77672,5,0,0:0:0:0:
49,242,77760,1,0,0:0:0:0:
59,270,77849,1,0,0:0:0:0:
49,298,77937,1,0,0:0:0:0:
32,322,78025,2,0,P|69:311|134:300,1,85
300,357,78378,5,0,0:0:0:0:
222,199,78554,1,0,0:0:0:0:
417,192,78731,1,0,0:0:0:0:
417,192,78819,1,0,0:0:0:0:
417,192,78907,1,0,0:0:0:0:
239,301,79084,5,0,0:0:0:0:
341,128,79260,1,0,0:0:0:0:
239,301,79437,1,0,0:0:0:0:
412,284,79613,5,0,0:0:0:0:
252,116,79790,1,0,0:0:0:0:
489,23,79966,2,0,P|435:33|394:46,1,85
400,53,80231,1,0,0:0:0:0:
394,64,80319,1,0,0:0:0:0:
199,55,80496,2,0,L|191:11,2,42.5
189,214,80849,6,0,P|250:154|337:164,1,170
415,227,81378,1,0,0:0:0:0:
285,36,81554,2,0,P|224:56|188:67,1,85
18,135,81907,5,0,0:0:0:0:
291,256,82084,2,0,P|245:272|210:289,1,85
167,352,82349,1,0,0:0:0:0:
90,334,82437,6,0,P|71:289|94:239,1,85
246,143,82790,2,0,P|286:156|324:174,1,85
334,182,83054,1,0,0:0:0:0:
342,191,83143,1,0,0:0:0:0:
452,97,83319,1,0,0:0:0:0:
452,97,83407,1,0,0:0:0:0:
452,97,83496,1,0,0:0:0:0:
508,301,83672,6,0,P|460:314|414:333,1,85
259,236,84025,1,0,0:0:0:0:
364,97,84202,1,0,0:0:0:0:
357,371,84378,2,0,P|323:333|321:291,1,85
448,214,84731,5,0,0:0:0:0:
276,141,84907,1,0,0:0:0:0:
226,309,85084,5,0,0:0:0:0:
226,309,85172,1,0,0:0:0:0:
226,309,85260,1,0,0:0:0:0:
374,172,85437,5,0,0:0:0:0:
197,42,85613,2,0,P|151:55|97:69,1,85
34,54,85878,1,0,0:0:0:0:
26,59,85966,2,0,P|1:103|13:158,1,85
48,208,86231,1,0,0:0:0:0:
131,183,86319,2,0,P|138:162|135:124,1,42.5
172,311,86496,6,0,P|250:284|274:235,1,140.25000428009
270,225,86849,6,0,L|252:180,1,46.7500014266968
396,54,87025,2,0,L|378:97,1,46.7500014266968
498,333,87202,6,0,B|427:333|448:288|373:280,1,140.25000428009
362,287,87554,1,0,0:0:0:0:
461,109,87731,5,0,0:0:0:0:
95,232,87907,2,0,L|100:265,1,25.4999992218018
