osu file format v14

[General]
AudioFilename: audio.ogg
AudioLeadIn: 0
PreviewTime: 50471
Countdown: 0
SampleSet: Soft
StackLeniency: 0.5
Mode: 3
LetterboxInBreaks: 0
SpecialStyle: 0
WidescreenStoryboard: 0

[Editor]
DistanceSpacing: 0.9
BeatDivisor: 4
GridSize: 4
TimelineZoom: 2.6

[Metadata]
Title:Shukufuku (TV Size)
TitleUnicode:祝福 (TV Size)
Artist:YOASOBI
ArtistUnicode:YOASOBI
Creator:Dailycare
Version:Hard
Source:機動戦士ガンダム 水星の魔女
Tags:ゆりかごの星 yurikago no hoshi cradle planet blessing ayase ikura mobile suit gundam the witch from mercury kidou senshi gundam suisei no majo g_witch anime opening japanese electronic pop jpop j-pop
BeatmapID:4044544
BeatmapSetID:1948557

[Difficulty]
HPDrainRate:7.5
CircleSize:4
OverallDifficulty:7.5
ApproachRate:5
SliderMultiplier:1.4
SliderTickRate:1

[Events]
//Background and Video events
0,0,"4q.jpg",0,0
//Break Periods
//Storyboard Layer 0 (Background)
//Storyboard Layer 1 (Fail)
//Storyboard Layer 2 (Pass)
//Storyboard Layer 3 (Foreground)
//Storyboard Layer 4 (Overlay)
//Storyboard Sound Samples
Sample,9377,0,"t3.wav",35
Sample,10259,0,"finish2.wav",50
Sample,15906,0,"finish2.wav",50
Sample,17142,0,"t2.wav",50
Sample,17318,0,"snare.wav",60
Sample,17495,0,"crash.wav",50
Sample,22965,0,"hihat.wav",90
Sample,27906,0,"hihat.wav",90
Sample,28259,0,"hihat.wav",90
Sample,28259,0,"snare.wav",50
Sample,28436,0,"t4.wav",50
Sample,28436,0,"snare.wav",50
Sample,37789,0,"snare.wav",70
Sample,38495,0,"crash.wav",50
Sample,39553,0,"snare.wav",70
Sample,39906,0,"snare.wav",80
Sample,40436,0,"snare.wav",80
Sample,41142,0,"snare.wav",80
Sample,41848,0,"snare.wav",80
Sample,42553,0,"snare.wav",80
Sample,43259,0,"snare.wav",80
Sample,43965,0,"snare.wav",80
Sample,44671,0,"snare.wav",80
Sample,46083,0,"snare.wav",80
Sample,46789,0,"snare.wav",80
Sample,47495,0,"snare.wav",80
Sample,48377,0,"finish2.wav",50
Sample,61259,0,"finish2.wav",50
Sample,61436,0,"snare.wav",90
Sample,61789,0,"snare.wav",90
Sample,62142,0,"snare.wav",90
Sample,62318,0,"hihat.wav",90
Sample,62495,0,"hihat.wav",90
Sample,62671,0,"crash.wav",30
Sample,63024,0,"snare.wav",90
Sample,72730,0,"snare.wav",90
Sample,72818,0,"t4.wav",70
Sample,73083,0,"snare.wav",70
Sample,82259,0,"snare.wav",80
Sample,86318,0,"t3.wav",50
Sample,86495,0,"t2.wav",50
Sample,87730,0,"snare.wav",80

[TimingPoints]
554,352.941176470588,4,2,1,70,1,0

[HitObjects]
448,192,24,5,0,0:0:0:0:
192,192,201,1,0,0:0:0:0:
320,192,377,1,0,0:0:0:0:
64,192,554,1,0,0:0:0:30:kick.wav
448,192,554,1,0,0:0:0:0:
64,192,730,1,0,0:0:0:0:
320,192,906,1,0,0:0:0:50:click.wav
192,192,1083,128,0,1259:0:0:0:0:
320,192,1259,1,8,0:0:0:85:clap.wav
448,192,1259,1,0,0:0:0:0:
64,192,1436,1,0,0:0:0:0:
320,192,1612,1,0,0:0:0:50:click.wav
192,192,1789,1,0,0:0:0:0:
192,192,1965,1,0,0:0:0:0:
448,192,2142,1,0,0:0:0:0:
64,192,2318,1,0,0:0:0:30:kick.wav
192,192,2318,1,0,0:0:0:50:click.wav
320,192,2495,1,0,0:0:0:0:
64,192,2671,1,8,0:0:0:85:clap.wav
448,192,2671,1,0,0:0:0:0:
192,192,2848,1,0,0:0:0:50:click.wav
192,192,3024,1,0,0:0:0:50:click.wav
64,192,3377,1,0,0:0:0:30:kick.wav
448,192,3377,1,0,0:0:0:0:
448,192,3553,1,0,0:0:0:0:
64,192,3730,1,0,0:0:0:30:kick.wav
192,192,3730,1,0,0:0:0:50:click.wav
320,192,3906,128,0,4083:0:0:0:0:
64,192,4083,1,0,0:0:0:85:clap.wav
192,192,4083,1,0,0:0:0:0:
448,192,4259,1,0,0:0:0:0:
192,192,4436,1,0,0:0:0:50:click.wav
320,192,4612,1,0,0:0:0:0:
320,192,4789,1,0,0:0:0:0:
64,192,4965,1,0,0:0:0:0:
320,192,5142,1,0,0:0:0:30:kick.wav
448,192,5142,1,0,0:0:0:50:click.wav
192,192,5318,1,0,0:0:0:0:
64,192,5495,1,0,0:0:0:85:clap.wav
448,192,5495,1,0,0:0:0:50:click.wav
320,192,5671,1,0,0:0:0:0:
320,192,5848,128,0,6024:0:0:0:50:crash.wav
192,192,6024,128,0,6201:0:0:0:90:hihat.wav
64,192,6201,1,0,0:0:0:50:kick.wav
320,192,6201,1,0,0:0:0:50:finish.wav
448,192,6201,1,0,0:0:0:0:
192,192,6377,1,0,0:0:0:0:
64,192,6553,1,0,0:0:0:50:kick.wav
448,192,6553,1,0,0:0:0:0:
448,192,6730,1,0,0:0:0:90:hihat.wav
64,192,6906,1,0,0:0:0:50:kick.wav
192,192,6906,1,0,0:0:0:0:
320,192,7083,1,0,0:0:0:0:
64,192,7259,1,0,0:0:0:50:kick.wav
448,192,7259,1,0,0:0:0:0:
64,192,7436,1,0,0:0:0:90:hihat.wav
320,192,7612,1,0,0:0:0:50:kick.wav
448,192,7612,1,0,0:0:0:0:
192,192,7789,1,0,0:0:0:0:
64,192,7965,1,0,0:0:0:50:kick.wav
320,192,7965,1,0,0:0:0:0:
320,192,8142,1,0,0:0:0:90:hihat.wav
64,192,8318,1,0,0:0:0:50:kick.wav
192,192,8318,1,0,0:0:0:0:
320,192,8495,1,0,0:0:0:0:
192,192,8671,1,0,0:0:0:50:kick.wav
448,192,8671,1,0,0:0:0:0:
192,192,8848,1,0,0:0:0:90:hihat.wav
64,192,9024,1,0,0:0:0:50:kick.wav
448,192,9024,1,0,0:0:0:35:t3.wav
192,192,9112,1,0,0:0:0:35:t3.wav
320,192,9201,1,0,0:0:0:35:t3.wav
448,192,9289,1,0,0:0:0:35:t3.wav
64,192,9377,1,0,0:0:0:50:kick.wav
192,192,9465,1,0,0:0:0:35:t3.wav
320,192,9553,1,0,0:0:0:35:t3.wav
448,192,9642,1,0,0:0:0:35:t3.wav
64,192,9730,1,0,0:0:0:50:kick.wav
192,192,9730,1,0,0:0:0:35:t3.wav
320,192,9906,1,0,0:0:0:50:t1.wav
64,192,10083,1,0,0:0:0:50:kick.wav
320,192,10083,1,0,0:0:0:0:
64,192,10259,1,0,0:0:0:50:kick.wav
448,192,10259,1,0,0:0:0:20:finish.wav
64,192,10612,128,0,10789:0:0:0:0:
320,192,10789,128,0,10965:0:0:0:0:
64,192,10965,128,0,11142:0:0:0:0:
448,192,11142,128,0,11318:0:0:0:0:
192,192,11318,128,0,11495:0:0:0:0:
448,192,11495,1,0,0:0:0:50:t3.wav
192,192,11671,128,0,11848:0:0:0:0:
64,192,11848,1,0,0:0:0:50:kick.wav
320,192,11848,128,0,12024:0:0:0:50:finish2.wav
448,192,11848,1,0,0:0:0:50:crash.wav
192,192,12024,128,0,12201:0:0:0:0:
64,192,12201,128,0,12553:0:0:0:80:snare.wav
448,192,12201,1,0,0:0:0:0:
192,192,12377,1,0,0:0:0:90:hihat.wav
320,192,12553,1,0,0:0:0:50:kick.wav
448,192,12553,128,0,12730:0:0:0:0:
64,192,12730,128,0,13083:0:0:0:90:hihat.wav
192,192,12906,1,0,0:0:0:80:snare.wav
448,192,12906,1,0,0:0:0:0:
320,192,13083,128,0,13436:0:0:0:90:hihat.wav
64,192,13259,1,0,0:0:0:50:kick.wav
192,192,13259,1,0,0:0:0:0:
448,192,13436,128,0,13612:0:0:0:90:hihat.wav
64,192,13612,128,0,13789:0:0:0:80:snare.wav
320,192,13612,1,0,0:0:0:0:
192,192,13789,128,0,14142:0:0:0:90:hihat.wav
320,192,13965,1,0,0:0:0:50:kick.wav
448,192,13965,1,0,0:0:0:0:
64,192,14142,1,0,0:0:0:90:hihat.wav
192,192,14318,128,0,14495:0:0:0:80:snare.wav
448,192,14318,1,0,0:0:0:0:
320,192,14495,128,0,14671:0:0:0:90:hihat.wav
64,192,14671,1,0,0:0:0:50:kick.wav
192,192,14671,128,0,14848:0:0:0:0:
320,192,14848,128,0,15024:0:0:0:90:hihat.wav
64,192,15024,1,0,0:0:0:80:snare.wav
448,192,15024,128,0,15377:0:0:0:0:
320,192,15201,1,0,0:0:0:90:hihat.wav
64,192,15377,128,0,15553:0:0:0:50:kick.wav
192,192,15377,1,0,0:0:0:0:
448,192,15553,128,0,15906:0:0:0:90:hihat.wav
64,192,15730,1,0,0:0:0:50:kick.wav
320,192,15730,1,0,0:0:0:80:snare.wav
64,192,15906,128,0,16436:0:0:0:50:kick.wav
192,192,15906,128,0,16436:0:0:0:50:crash.wav
320,192,16436,128,0,16789:0:0:0:50:kick.wav
448,192,16436,128,0,16789:0:0:0:30:finish2.wav
64,192,16789,128,0,17142:0:0:0:50:kick.wav
192,192,16789,128,0,17142:0:0:0:20:finish2.wav
448,192,17142,1,0,0:0:0:50:kick.wav
320,192,17230,1,0,0:0:0:50:t2.wav
192,192,17318,1,0,0:0:0:50:t3.wav
64,192,17406,1,0,0:0:0:60:snare.wav
320,192,17495,1,0,0:0:0:40:kick.wav
448,192,17495,128,0,17848:0:0:0:50:finish.wav
64,192,17848,1,0,0:0:0:40:kick.wav
192,192,17848,1,0,0:0:0:0:
448,192,18024,128,0,18201:0:0:0:0:
64,192,18201,1,0,0:0:0:40:kick.wav
320,192,18201,128,0,18553:0:0:0:0:
192,192,18553,1,0,0:0:0:40:kick.wav
448,192,18553,1,0,0:0:0:0:
64,192,18730,128,0,18906:0:0:0:0:
320,192,18906,1,0,0:0:0:40:kick.wav
448,192,18906,128,0,19259:0:0:0:0:
64,192,19259,1,0,0:0:0:40:kick.wav
192,192,19259,128,0,19612:0:0:0:0:
64,192,19612,128,0,19965:0:0:0:40:kick.wav
320,192,19612,1,0,0:0:0:0:
192,192,19965,1,0,0:0:0:40:kick.wav
448,192,19965,128,0,20318:0:0:0:0:
64,192,20318,1,0,0:0:0:40:kick.wav
192,192,20318,128,0,20671:0:0:0:0:
320,192,20671,1,0,0:0:0:40:kick.wav
448,192,20671,1,0,0:0:0:0:
192,192,20848,128,0,21377:0:0:0:0:
64,192,21024,1,0,0:0:0:40:kick.wav
448,192,21024,1,0,0:0:0:0:
320,192,21377,1,0,0:0:0:40:kick.wav
448,192,21377,1,0,0:0:0:0:
192,192,21553,1,0,0:0:0:0:
64,192,21730,1,0,0:0:0:40:kick.wav
320,192,21730,1,0,0:0:0:0:
448,192,21906,1,0,0:0:0:0:
64,192,22083,1,0,0:0:0:40:kick.wav
192,192,22083,1,0,0:0:0:0:
320,192,22259,1,0,0:0:0:0:
64,192,22436,128,0,22789:0:0:0:40:kick.wav
448,192,22436,1,0,0:0:0:0:
192,192,22612,1,0,0:0:0:90:hihat.wav
320,192,22789,1,0,0:0:0:40:kick.wav
448,192,22789,1,0,0:0:0:0:
64,192,22965,1,0,0:0:0:40:kick.wav
192,192,23053,1,0,0:0:0:40:kick.wav
320,192,23142,1,0,0:0:0:40:kick.wav
448,192,23142,128,0,23495:0:0:0:20:finish2.wav
64,192,23495,1,0,0:0:0:40:kick.wav
192,192,23495,128,0,23848:0:0:0:0:
64,192,23848,128,0,24201:0:0:0:40:kick.wav
320,192,23848,1,0,0:0:0:0:
192,192,24201,1,0,0:0:0:40:kick.wav
448,192,24201,128,0,24553:0:0:0:0:
64,192,24553,128,0,24906:0:0:0:40:kick.wav
192,192,24553,1,0,0:0:0:0:
320,192,24906,1,0,0:0:0:40:kick.wav
448,192,24906,128,0,25259:0:0:0:0:
64,192,25259,1,0,0:0:0:40:kick.wav
192,192,25259,128,0,25612:0:0:0:0:
64,192,25612,128,0,25965:0:0:0:40:kick.wav
320,192,25612,1,0,0:0:0:0:
320,192,25965,1,0,0:0:0:40:kick.wav
448,192,25965,128,0,26318:0:0:0:0:
64,192,26318,1,0,0:0:0:40:kick.wav
192,192,26318,1,0,0:0:0:0:
320,192,26495,128,0,26671:0:0:0:0:
192,192,26671,128,0,27024:0:0:0:40:kick.wav
448,192,26671,1,0,0:0:0:0:
64,192,27024,1,0,0:0:0:40:kick.wav
320,192,27024,1,0,0:0:0:0:
448,192,27201,128,0,27377:0:0:0:0:
192,192,27377,1,0,0:0:0:40:kick.wav
320,192,27377,1,0,0:0:0:70:hihat2.wav
320,192,27553,1,0,0:0:0:40:kick.wav
64,192,27730,1,0,0:0:0:40:kick.wav
64,192,27906,1,0,0:0:0:40:kick.wav
320,192,28083,1,0,0:0:0:50:kick.wav
448,192,28083,1,0,0:0:0:0:
192,192,28171,1,0,0:0:0:50:kick.wav
448,192,28259,1,0,0:0:0:50:kick.wav
320,192,28348,1,0,0:0:0:50:snare.wav
64,192,28436,1,0,0:0:0:50:kick.wav
192,192,28524,1,0,0:0:0:70:t4.wav
320,192,28612,1,0,0:0:0:70:t3.wav
448,192,28701,1,0,0:0:0:70:t2.wav
64,192,28789,128,0,29142:0:0:0:50:kick.wav
192,192,28789,1,0,0:0:0:50:crash.wav
320,192,28789,1,0,0:0:0:50:finish.wav
192,192,29142,1,0,0:0:0:70:snare.wav
448,192,29142,1,0,0:0:0:0:
320,192,29318,128,0,29495:0:0:0:90:hihat.wav
64,192,29495,128,0,29671:0:0:0:50:kick.wav
192,192,29495,1,0,0:0:0:0:
320,192,29671,1,0,0:0:0:0:
64,192,29848,1,0,0:0:0:70:snare.wav
448,192,29848,1,0,0:0:0:0:
192,192,30024,128,0,30201:0:0:0:90:hihat.wav
320,192,30201,128,0,30553:0:0:0:50:kick.wav
448,192,30201,1,0,0:0:0:0:
192,192,30377,1,0,0:0:0:90:hihat.wav
64,192,30553,128,0,30906:0:0:0:70:snare.wav
448,192,30553,1,0,0:0:0:0:
320,192,30730,1,0,0:0:0:90:hihat.wav
448,192,30906,128,0,31259:0:0:0:50:kick.wav
192,192,30906,1,0,0:0:0:0:
320,192,31083,1,0,0:0:0:0:
64,192,31259,128,0,31612:0:0:0:70:snare.wav
192,192,31259,1,0,0:0:0:0:
448,192,31436,1,0,0:0:0:90:hihat.wav
320,192,31612,1,0,0:0:0:50:kick.wav
192,192,31612,128,0,31965:0:0:0:0:
64,192,31965,1,0,0:0:0:70:snare.wav
448,192,31965,1,0,0:0:0:0:
192,192,32142,128,0,32318:0:0:0:90:hihat.wav
64,192,32318,1,0,0:0:0:50:kick.wav
448,192,32318,128,0,32671:0:0:0:0:
320,192,32495,1,0,0:0:0:0:
64,192,32671,1,0,0:0:0:70:snare.wav
192,192,32671,1,0,0:0:0:0:
448,192,32848,1,0,0:0:0:90:hihat.wav
64,192,33024,1,0,0:0:0:50:kick.wav
320,192,33024,1,0,0:0:0:0:
192,192,33201,1,0,0:0:0:90:hihat.wav
320,192,33377,1,0,0:0:0:70:snare.wav
448,192,33377,1,0,0:0:0:0:
64,192,33553,1,0,0:0:0:90:hihat.wav
320,192,33730,1,0,0:0:0:50:kick.wav
448,192,33730,128,0,34083:0:0:0:0:
192,192,33906,1,0,0:0:0:0:
320,192,34083,1,0,0:0:0:70:snare.wav
64,192,34083,128,0,34436:0:0:0:0:
192,192,34259,1,0,0:0:0:90:hihat.wav
320,192,34436,128,0,34789:0:0:0:50:kick.wav
448,192,34436,1,0,0:0:0:0:
64,192,34612,1,0,0:0:0:0:
448,192,34789,128,0,35142:0:0:0:0:
192,192,34789,1,0,0:0:0:70:snare.wav
320,192,34965,1,0,0:0:0:90:hihat.wav
192,192,35142,1,0,0:0:0:50:kick.wav
64,192,35142,128,0,35495:0:0:0:0:
448,192,35318,1,0,0:0:0:0:
192,192,35495,1,0,0:0:0:70:snare.wav
320,192,35495,128,0,35848:0:0:0:0:
64,192,35671,1,0,0:0:0:90:hihat.wav
192,192,35848,1,0,0:0:0:50:kick.wav
448,192,35848,128,0,36201:0:0:0:0:
64,192,36024,1,0,0:0:0:90:hihat.wav
192,192,36201,128,0,36553:0:0:0:70:snare.wav
320,192,36201,1,0,0:0:0:0:
448,192,36377,1,0,0:0:0:90:hihat.wav
64,192,36553,1,0,0:0:0:50:kick.wav
320,192,36553,128,0,36906:0:0:0:0:
64,192,36906,1,0,0:0:0:70:snare.wav
192,192,36906,1,0,0:0:0:0:
320,192,37083,128,0,37259:0:0:0:90:hihat.wav
192,192,37259,1,0,0:0:0:50:kick.wav
448,192,37259,1,0,0:0:0:0:
320,192,37436,1,0,0:0:0:50:kick.wav
448,192,37436,1,0,0:0:0:0:
64,192,37612,1,0,0:0:0:50:kick.wav
192,192,37612,1,0,0:0:0:50:t3.wav
320,192,37701,1,0,0:0:0:50:t3.wav
448,192,37789,1,0,0:0:0:90:hihat.wav
64,192,37877,1,0,0:0:0:70:snare.wav
320,192,37965,1,0,0:0:0:50:kick.wav
448,192,37965,1,0,0:0:0:50:t4.wav
64,192,38142,1,0,0:0:0:50:kick.wav
192,192,38142,1,0,0:0:0:50:t3.wav
192,192,38318,1,0,0:0:0:20:finish2.wav
448,192,38318,1,0,0:0:0:70:snare.wav
64,192,38495,1,0,0:0:0:50:kick.wav
448,192,38495,1,0,0:0:0:50:finish.wav
64,192,38848,1,0,0:0:0:30:finish2.wav
192,192,38848,1,0,0:0:0:0:
192,192,39024,1,0,0:0:0:50:kick.wav
320,192,39024,1,0,0:0:0:0:
320,192,39201,1,0,0:0:0:70:snare.wav
448,192,39201,1,0,0:0:0:0:
64,192,39377,1,0,0:0:0:50:kick.wav
192,192,39377,128,0,39465:0:0:0:0:
192,192,39553,1,0,0:0:0:90:hihat.wav
320,192,39730,128,0,39818:0:0:0:50:kick.wav
448,192,39730,1,0,0:0:0:70:snare.wav
320,192,39906,1,0,0:0:0:90:hihat.wav
64,192,40083,128,0,40259:0:0:0:50:kick.wav
192,192,40083,1,0,0:0:0:50:finish.wav
448,192,40083,1,0,0:0:0:50:crash.wav
320,192,40259,128,0,40436:0:0:0:0:
64,192,40436,1,0,0:0:0:50:kick.wav
192,192,40436,128,0,40524:0:0:0:90:hihat.wav
192,192,40612,128,0,40789:0:0:0:90:hihat.wav
320,192,40789,1,0,0:0:0:50:kick.wav
448,192,40789,1,0,0:0:0:0:
64,192,40965,128,0,41142:0:0:0:0:
192,192,41142,1,0,0:0:0:50:kick.wav
320,192,41142,128,0,41230:0:0:0:90:hihat.wav
320,192,41318,128,0,41495:0:0:0:90:hihat.wav
64,192,41495,1,0,0:0:0:50:kick.wav
448,192,41495,1,0,0:0:0:0:
192,192,41671,128,0,41848:0:0:0:0:
320,192,41848,1,0,0:0:0:50:kick.wav
448,192,41848,128,0,41936:0:0:0:90:hihat.wav
448,192,42024,128,0,42201:0:0:0:90:hihat.wav
64,192,42201,1,0,0:0:0:50:kick.wav
192,192,42201,1,0,0:0:0:0:
320,192,42377,128,0,42553:0:0:0:0:
64,192,42553,128,0,42642:0:0:0:50:kick.wav
448,192,42553,1,0,0:0:0:90:hihat.wav
64,192,42730,128,0,42906:0:0:0:90:hihat.wav
192,192,42906,1,0,0:0:0:50:kick.wav
320,192,42906,1,0,0:0:0:0:
448,192,43083,128,0,43259:0:0:0:0:
64,192,43259,1,0,0:0:0:50:kick.wav
320,192,43259,128,0,43348:0:0:0:90:hihat.wav
320,192,43436,128,0,43612:0:0:0:90:hihat.wav
64,192,43612,1,0,0:0:0:50:kick.wav
448,192,43612,1,0,0:0:0:0:
192,192,43789,128,0,43965:0:0:0:0:
64,192,43965,128,0,44053:0:0:0:50:kick.wav
320,192,43965,1,0,0:0:0:90:hihat.wav
64,192,44142,128,0,44318:0:0:0:90:hihat.wav
320,192,44318,1,0,0:0:0:50:kick.wav
448,192,44318,1,0,0:0:0:0:
192,192,44495,128,0,44671:0:0:0:0:
64,192,44671,1,0,0:0:0:50:kick.wav
448,192,44671,128,0,44759:0:0:0:90:hihat.wav
448,192,44848,128,0,45024:0:0:0:90:hihat.wav
64,192,45024,1,0,0:0:0:50:kick.wav
192,192,45024,1,0,0:0:0:0:
320,192,45201,1,0,0:0:0:50:hihat2.wav
448,192,45201,1,0,0:0:0:80:snare.wav
192,192,45377,1,0,0:0:0:50:kick.wav
448,192,45377,1,0,0:0:0:90:hihat.wav
64,192,45553,1,0,0:0:0:50:hihat2.wav
192,192,45553,1,0,0:0:0:80:snare.wav
320,192,45642,1,0,0:0:0:80:snare.wav
64,192,45730,1,0,0:0:0:50:kick.wav
448,192,45730,128,0,46083:0:0:0:50:finish.wav
320,192,45906,128,0,46083:0:0:0:0:
64,192,46083,1,0,0:0:0:50:kick.wav
192,192,46083,128,0,46436:0:0:0:50:hihat2.wav
320,192,46259,128,0,46436:0:0:0:90:hihat.wav
64,192,46436,1,0,0:0:0:50:kick.wav
448,192,46436,1,0,0:0:0:90:hihat.wav
320,192,46612,128,0,46789:0:0:0:0:
64,192,46789,128,0,47142:0:0:0:50:kick.wav
448,192,46789,1,0,0:0:0:50:hihat2.wav
192,192,46965,128,0,47142:0:0:0:90:hihat.wav
320,192,47142,1,0,0:0:0:50:kick.wav
448,192,47142,1,0,0:0:0:90:hihat.wav
192,192,47318,128,0,47495:0:0:0:0:
64,192,47495,1,0,0:0:0:50:kick.wav
448,192,47495,128,0,47848:0:0:0:50:hihat2.wav
320,192,47671,128,0,47848:0:0:0:90:hihat.wav
64,192,47848,1,0,0:0:0:50:kick.wav
192,192,47848,1,0,0:0:0:90:hihat.wav
64,192,48024,128,0,48201:0:0:0:50:hihat2.wav
448,192,48024,1,0,0:0:0:70:snare.wav
320,192,48201,128,0,48377:0:0:0:70:t3.wav
192,192,48377,1,0,0:0:0:30:kick.wav
448,192,48377,1,0,0:0:0:50:crash.wav
192,192,48730,128,0,48906:0:0:0:0:
448,192,48906,128,0,49083:0:0:0:0:
320,192,49083,128,0,49259:0:0:0:0:
192,192,49259,128,0,49436:0:0:0:50:crash.wav
448,192,49436,128,0,49612:0:0:0:0:
192,192,49612,128,0,49789:0:0:0:50:t4.wav
64,192,49789,1,0,0:0:0:50:kick.wav
320,192,49789,1,0,0:0:0:50:finish2.wav
448,192,49789,1,0,0:0:0:80:snare.wav
64,192,50142,1,0,0:0:0:50:kick.wav
320,192,50142,1,0,0:0:0:20:finish2.wav
448,192,50142,1,0,0:0:0:80:snare.wav
64,192,50318,1,0,0:0:0:50:kick.wav
320,192,50318,1,0,0:0:0:20:finish2.wav
448,192,50318,1,0,0:0:0:80:snare.wav
192,192,50495,128,0,50671:0:0:0:0:
448,192,50671,128,0,50848:0:0:0:0:
320,192,50848,128,0,51024:0:0:0:0:
64,192,51024,128,0,51201:0:0:0:0:
320,192,51201,128,0,51377:0:0:0:0:
64,192,51377,128,0,51730:0:0:0:50:kick.wav
192,192,51377,1,0,0:0:0:50:finish.wav
448,192,51377,1,0,0:0:0:50:crash.wav
192,192,51730,1,0,0:0:0:50:kick.wav
320,192,51730,1,0,0:0:0:90:snare.wav
448,192,51730,128,0,51818:0:0:0:0:
448,192,51906,128,0,52083:0:0:0:90:hihat2.wav
64,192,52083,1,0,0:0:0:50:kick.wav
192,192,52083,1,0,0:0:0:0:
320,192,52259,128,0,52348:0:0:0:90:hihat2.wav
64,192,52436,1,0,0:0:0:50:kick.wav
320,192,52436,128,0,52612:0:0:0:90:snare.wav
448,192,52436,1,0,0:0:0:0:
64,192,52612,128,0,52789:0:0:0:90:hihat2.wav
192,192,52789,1,0,0:0:0:50:kick.wav
448,192,52789,1,0,0:0:0:0:
320,192,52965,128,0,53142:0:0:0:90:hihat2.wav
64,192,53142,1,0,0:0:0:50:kick.wav
192,192,53142,1,0,0:0:0:90:snare.wav
448,192,53142,1,0,0:0:0:0:
320,192,53318,128,0,53495:0:0:0:90:hihat2.wav
64,192,53495,1,0,0:0:0:50:kick.wav
448,192,53495,128,0,53671:0:0:0:0:
192,192,53671,128,0,53848:0:0:0:90:hihat2.wav
64,192,53848,128,0,54024:0:0:0:50:kick.wav
320,192,53848,1,0,0:0:0:90:snare.wav
448,192,53848,1,0,0:0:0:0:
192,192,54024,128,0,54201:0:0:0:90:hihat2.wav
320,192,54201,1,0,0:0:0:50:kick.wav
448,192,54201,128,0,54553:0:0:0:90:hihat.wav
64,192,54553,128,0,54642:0:0:0:50:kick.wav
192,192,54553,1,0,0:0:0:90:snare.wav
320,192,54553,1,0,0:0:0:0:
64,192,54730,128,0,54906:0:0:0:90:hihat2.wav
320,192,54906,1,0,0:0:0:50:kick.wav
448,192,54906,1,0,0:0:0:0:
192,192,55083,128,0,55171:0:0:0:90:hihat2.wav
192,192,55259,128,0,55436:0:0:0:50:kick.wav
320,192,55259,1,0,0:0:0:90:snare.wav
448,192,55259,1,0,0:0:0:0:
64,192,55436,128,0,55789:0:0:0:90:hihat2.wav
192,192,55612,1,0,0:0:0:50:kick.wav
448,192,55612,1,0,0:0:0:0:
320,192,55789,128,0,55877:0:0:0:90:hihat2.wav
192,192,55965,1,0,0:0:0:50:kick.wav
320,192,55965,128,0,56142:0:0:0:90:snare.wav
448,192,55965,1,0,0:0:0:0:
64,192,56142,1,0,0:0:0:90:hihat2.wav
192,192,56318,128,0,56495:0:0:0:50:kick.wav
448,192,56318,1,0,0:0:0:0:
448,192,56495,128,0,56671:0:0:0:90:hihat2.wav
64,192,56671,128,0,56848:0:0:0:50:kick.wav
320,192,56671,1,0,0:0:0:90:snare.wav
320,192,56848,128,0,57024:0:0:0:90:hihat2.wav
64,192,57024,128,0,57377:0:0:0:50:kick.wav
192,192,57024,1,0,0:0:0:50:finish.wav
448,192,57024,1,0,0:0:0:50:crash.wav
192,192,57377,1,0,0:0:0:50:kick.wav
320,192,57377,1,0,0:0:0:90:snare.wav
448,192,57377,128,0,57465:0:0:0:0:
448,192,57553,128,0,57730:0:0:0:90:hihat2.wav
64,192,57730,1,0,0:0:0:50:kick.wav
192,192,57730,1,0,0:0:0:0:
320,192,57906,128,0,57995:0:0:0:90:hihat2.wav
64,192,58083,1,0,0:0:0:50:kick.wav
320,192,58083,128,0,58259:0:0:0:90:snare.wav
448,192,58083,1,0,0:0:0:0:
64,192,58259,128,0,58436:0:0:0:90:hihat2.wav
192,192,58436,1,0,0:0:0:50:kick.wav
448,192,58436,1,0,0:0:0:0:
320,192,58612,128,0,58789:0:0:0:90:hihat2.wav
64,192,58789,1,0,0:0:0:50:kick.wav
192,192,58789,1,0,0:0:0:90:snare.wav
448,192,58789,1,0,0:0:0:0:
320,192,58965,128,0,59142:0:0:0:90:hihat2.wav
64,192,59142,128,0,59318:0:0:0:50:kick.wav
192,192,59142,1,0,0:0:0:0:
320,192,59318,128,0,59495:0:0:0:90:hihat2.wav
64,192,59495,1,0,0:0:0:50:kick.wav
192,192,59495,1,0,0:0:0:90:snare.wav
448,192,59495,128,0,59671:0:0:0:0:
320,192,59671,128,0,59848:0:0:0:90:hihat2.wav
64,192,59848,1,0,0:0:0:50:kick.wav
192,192,59848,128,0,60201:0:0:0:90:hihat.wav
64,192,60201,1,0,0:0:0:50:kick.wav
320,192,60201,1,0,0:0:0:90:snare.wav
448,192,60201,128,0,60377:0:0:0:0:
64,192,60377,128,0,60553:0:0:0:90:hihat2.wav
192,192,60553,1,0,0:0:0:50:kick.wav
448,192,60553,1,0,0:0:0:0:
64,192,60730,128,0,60906:0:0:0:90:hihat2.wav
192,192,60906,128,0,61083:0:0:0:50:kick.wav
320,192,60906,1,0,0:0:0:90:snare.wav
448,192,60906,1,0,0:0:0:0:
448,192,61083,128,0,61259:0:0:0:90:hihat2.wav
64,192,61259,1,0,0:0:0:50:kick.wav
192,192,61259,1,0,0:0:0:50:crash.wav
320,192,61436,1,0,0:0:0:50:kick.wav
448,192,61436,1,0,0:0:0:90:hihat.wav
64,192,61612,1,0,0:0:0:50:kick.wav
192,192,61612,1,0,0:0:0:90:snare.wav
320,192,61789,1,0,0:0:0:90:hihat2.wav
192,192,61877,1,0,0:0:0:90:snare.wav
64,192,61965,1,0,0:0:0:50:kick.wav
448,192,61965,1,0,0:0:0:0:
192,192,62142,1,0,0:0:0:90:hihat2.wav
320,192,62230,1,0,0:0:0:90:snare.wav
64,192,62318,1,0,0:0:0:50:kick.wav
448,192,62318,1,0,0:0:0:70:t3.wav
192,192,62495,1,0,0:0:0:50:kick.wav
448,192,62495,1,0,0:0:0:70:t3.wav
192,192,62671,128,0,62936:0:0:0:50:kick.wav
320,192,62671,128,0,62936:0:0:0:30:finish.wav
64,192,63024,128,0,63112:0:0:0:50:kick.wav
320,192,63024,1,0,0:0:0:50:finish2.wav
448,192,63024,1,0,0:0:0:50:finish.wav
64,192,63201,128,0,63377:0:0:0:90:hihat2.wav
192,192,63377,1,0,0:0:0:50:kick.wav
448,192,63377,1,0,0:0:0:0:
320,192,63553,128,0,63730:0:0:0:90:hihat2.wav
64,192,63730,1,0,0:0:0:50:kick.wav
192,192,63730,128,0,63906:0:0:0:90:snare.wav
448,192,63730,1,0,0:0:0:0:
320,192,63906,128,0,64083:0:0:0:90:hihat2.wav
64,192,64083,1,0,0:0:0:50:kick.wav
192,192,64083,1,0,0:0:0:0:
320,192,64259,128,0,64436:0:0:0:90:hihat2.wav
64,192,64436,1,0,0:0:0:50:kick.wav
192,192,64436,128,0,64612:0:0:0:90:snare.wav
448,192,64436,1,0,0:0:0:0:
448,192,64612,128,0,64789:0:0:0:90:hihat2.wav
64,192,64789,128,0,64965:0:0:0:50:kick.wav
320,192,64789,1,0,0:0:0:0:
448,192,64965,128,0,65142:0:0:0:90:hihat2.wav
64,192,65142,1,0,0:0:0:50:kick.wav
192,192,65142,1,0,0:0:0:90:snare.wav
320,192,65142,128,0,65318:0:0:0:0:
64,192,65318,128,0,65495:0:0:0:90:hihat2.wav
192,192,65495,1,0,0:0:0:50:kick.wav
448,192,65495,1,0,0:0:0:90:hihat.wav
192,192,65671,1,0,0:0:0:90:hihat2.wav
64,192,65848,1,0,0:0:0:50:kick.wav
320,192,65848,1,0,0:0:0:90:snare.wav
448,192,65848,1,0,0:0:0:0:
320,192,66024,1,0,0:0:0:90:hihat2.wav
64,192,66201,1,0,0:0:0:50:kick.wav
448,192,66201,1,0,0:0:0:0:
64,192,66377,1,0,0:0:0:90:hihat2.wav
192,192,66553,1,0,0:0:0:50:kick.wav
320,192,66553,1,0,0:0:0:90:snare.wav
448,192,66553,1,0,0:0:0:0:
192,192,66730,1,0,0:0:0:90:hihat2.wav
64,192,66906,1,0,0:0:0:50:kick.wav
320,192,66906,128,0,67083:0:0:0:0:
192,192,67083,1,0,0:0:0:90:hihat2.wav
64,192,67259,1,0,0:0:0:50:kick.wav
320,192,67259,1,0,0:0:0:90:snare.wav
448,192,67259,128,0,67436:0:0:0:0:
64,192,67436,1,0,0:0:0:90:hihat2.wav
192,192,67612,1,0,0:0:0:50:kick.wav
320,192,67612,128,0,67789:0:0:0:0:
64,192,67789,1,0,0:0:0:90:hihat2.wav
64,192,67965,128,0,68142:0:0:0:50:kick.wav
192,192,67965,1,0,0:0:0:90:snare.wav
448,192,67965,1,0,0:0:0:0:
448,192,68142,1,0,0:0:0:90:hihat2.wav
64,192,68318,1,0,0:0:0:50:kick.wav
192,192,68318,1,0,0:0:0:50:crash.wav
320,192,68318,128,0,68495:0:0:0:50:finish.wav
448,192,68495,128,0,68671:0:0:0:90:hihat2.wav
64,192,68671,1,0,0:0:0:50:kick.wav
192,192,68671,1,0,0:0:0:90:snare.wav
320,192,68671,1,0,0:0:0:0:
448,192,68848,1,0,0:0:0:90:hihat2.wav
192,192,69024,128,0,69201:0:0:0:50:kick.wav
320,192,69024,1,0,0:0:0:0:
64,192,69201,128,0,69377:0:0:0:90:hihat2.wav
192,192,69377,1,0,0:0:0:50:kick.wav
320,192,69377,1,0,0:0:0:90:snare.wav
448,192,69377,1,0,0:0:0:0:
64,192,69553,1,0,0:0:0:90:hihat2.wav
192,192,69730,1,0,0:0:0:50:kick.wav
448,192,69730,1,0,0:0:0:0:
192,192,69906,1,0,0:0:0:90:hihat2.wav
64,192,70083,1,0,0:0:0:50:kick.wav
320,192,70083,1,0,0:0:0:90:snare.wav
448,192,70083,1,0,0:0:0:0:
192,192,70259,128,0,70436:0:0:0:90:hihat2.wav
320,192,70436,1,0,0:0:0:50:kick.wav
448,192,70436,1,0,0:0:0:0:
448,192,70612,128,0,70789:0:0:0:90:hihat2.wav
64,192,70789,1,0,0:0:0:50:kick.wav
192,192,70789,1,0,0:0:0:90:snare.wav
320,192,70789,1,0,0:0:0:0:
192,192,70965,128,0,71142:0:0:0:90:hihat2.wav
64,192,71142,128,0,71495:0:0:0:50:kick.wav
320,192,71142,1,0,0:0:0:90:hihat.wav
448,192,71318,1,0,0:0:0:90:hihat2.wav
192,192,71495,1,0,0:0:0:50:kick.wav
320,192,71495,1,0,0:0:0:90:snare.wav
448,192,71495,1,0,0:0:0:0:
192,192,71671,128,0,71848:0:0:0:90:hihat2.wav
320,192,71848,1,0,0:0:0:50:kick.wav
448,192,71848,128,0,72201:0:0:0:0:
64,192,72024,1,0,0:0:0:90:hihat2.wav
64,192,72201,1,0,0:0:0:50:kick.wav
192,192,72201,1,0,0:0:0:90:snare.wav
320,192,72201,1,0,0:0:0:0:
320,192,72377,128,0,72553:0:0:0:90:hihat2.wav
64,192,72553,1,0,0:0:0:50:kick.wav
192,192,72553,1,0,0:0:0:50:finish2.wav
448,192,72553,1,0,0:0:0:50:crash.wav
192,192,72730,1,0,0:0:0:50:kick.wav
320,192,72818,1,0,0:0:0:50:kick.wav
64,192,72906,1,0,0:0:0:50:kick.wav
448,192,72906,1,0,0:0:0:0:
320,192,73083,1,0,0:0:0:50:kick.wav
192,192,73171,1,0,0:0:0:70:snare.wav
64,192,73259,1,0,0:0:0:100:t4.wav
448,192,73259,1,0,0:0:0:0:
192,192,73436,1,0,0:0:0:50:kick.wav
320,192,73436,1,0,0:0:0:100:t3.wav
320,192,73612,1,0,0:0:0:40:kick.wav
448,192,73612,1,0,0:0:0:100:t2.wav
64,192,73789,1,0,0:0:0:30:kick.wav
192,192,73789,1,0,0:0:0:100:t1.wav
64,192,73965,1,0,0:0:0:50:kick.wav
320,192,73965,1,0,0:0:0:50:finish2.wav
448,192,73965,1,0,0:0:0:50:crash.wav
448,192,74318,128,0,74671:0:0:0:0:
64,192,74671,1,0,0:0:0:90:hihat.wav
192,192,74671,1,0,0:0:0:0:
64,192,75024,128,0,75377:0:0:0:0:
320,192,75377,1,0,0:0:0:50:kick.wav
448,192,75377,128,0,76083:0:0:0:50:crash.wav
192,192,75553,128,0,75730:0:0:0:0:
320,192,75730,128,0,75906:0:0:0:0:
192,192,75906,128,0,76083:0:0:0:0:
64,192,76083,128,0,76436:0:0:0:50:kick.wav
320,192,76083,128,0,76259:0:0:0:0:
448,192,76259,128,0,76436:0:0:0:0:
192,192,76436,128,0,76789:0:0:0:50:hihat2.wav
64,192,76789,1,0,0:0:0:50:kick.wav
320,192,76789,1,0,0:0:0:50:finish2.wav
448,192,76789,128,0,76965:0:0:0:50:crash.wav
192,192,76965,128,0,77142:0:0:0:0:
64,192,77142,128,0,77495:0:0:0:80:snare.wav
448,192,77142,1,0,0:0:0:0:
192,192,77318,1,0,0:0:0:90:hihat.wav
320,192,77495,1,0,0:0:0:50:kick.wav
448,192,77495,128,0,77671:0:0:0:0:
64,192,77671,128,0,78024:0:0:0:90:hihat.wav
192,192,77848,1,0,0:0:0:80:snare.wav
448,192,77848,1,0,0:0:0:0:
320,192,78024,128,0,78377:0:0:0:90:hihat.wav
64,192,78201,1,0,0:0:0:50:kick.wav
192,192,78201,1,0,0:0:0:0:
448,192,78377,128,0,78553:0:0:0:90:hihat.wav
64,192,78553,128,0,78730:0:0:0:80:snare.wav
320,192,78553,1,0,0:0:0:0:
192,192,78730,128,0,79083:0:0:0:90:hihat.wav
320,192,78906,1,0,0:0:0:50:kick.wav
448,192,78906,1,0,0:0:0:0:
64,192,79083,1,0,0:0:0:90:hihat.wav
192,192,79259,128,0,79436:0:0:0:80:snare.wav
448,192,79259,1,0,0:0:0:0:
320,192,79436,128,0,79612:0:0:0:90:hihat.wav
64,192,79612,128,0,79789:0:0:0:50:kick.wav
448,192,79612,1,0,0:0:0:0:
320,192,79789,128,0,79965:0:0:0:90:hihat.wav
64,192,79965,1,0,0:0:0:80:snare.wav
448,192,79965,128,0,80318:0:0:0:0:
320,192,80142,1,0,0:0:0:90:hihat.wav
64,192,80318,128,0,80495:0:0:0:50:kick.wav
192,192,80318,1,0,0:0:0:0:
448,192,80495,128,0,80848:0:0:0:90:hihat.wav
64,192,80671,1,0,0:0:0:80:snare.wav
320,192,80671,1,0,0:0:0:0:
192,192,80848,128,0,81201:0:0:0:90:hihat.wav
320,192,81024,1,0,0:0:0:50:kick.wav
448,192,81024,1,0,0:0:0:0:
64,192,81201,128,0,81377:0:0:0:90:hihat.wav
192,192,81377,1,0,0:0:0:80:snare.wav
448,192,81377,128,0,81553:0:0:0:0:
320,192,81553,128,0,81906:0:0:0:90:hihat.wav
64,192,81730,1,0,0:0:0:50:kick.wav
192,192,81730,1,0,0:0:0:0:
64,192,81906,1,0,0:0:0:90:hihat.wav
448,192,81906,1,0,0:0:0:80:snare.wav
320,192,82083,1,0,0:0:0:50:kick.wav
448,192,82083,1,0,0:0:0:0:
64,192,82259,1,0,0:0:0:90:hihat.wav
192,192,82348,1,0,0:0:0:80:snare.wav
64,192,82436,1,0,0:0:0:50:kick.wav
320,192,82436,1,0,0:0:0:50:finish2.wav
448,192,82436,128,0,82612:0:0:0:0:
192,192,82612,128,0,82789:0:0:0:90:hihat.wav
64,192,82789,128,0,83142:0:0:0:80:snare.wav
448,192,82789,1,0,0:0:0:0:
192,192,82965,1,0,0:0:0:90:hihat.wav
320,192,83142,128,0,83318:0:0:0:50:kick.wav
448,192,83142,1,0,0:0:0:0:
64,192,83318,128,0,83671:0:0:0:90:hihat.wav
192,192,83495,1,0,0:0:0:80:snare.wav
448,192,83495,1,0,0:0:0:0:
320,192,83671,128,0,84024:0:0:0:90:hihat.wav
64,192,83848,1,0,0:0:0:50:kick.wav
192,192,83848,1,0,0:0:0:0:
448,192,84024,128,0,84201:0:0:0:90:hihat.wav
64,192,84201,1,0,0:0:0:80:snare.wav
320,192,84201,128,0,84377:0:0:0:0:
192,192,84377,128,0,84730:0:0:0:90:hihat.wav
320,192,84553,1,0,0:0:0:50:kick.wav
448,192,84553,1,0,0:0:0:0:
64,192,84730,1,0,0:0:0:90:hihat.wav
192,192,84906,128,0,85083:0:0:0:80:snare.wav
320,192,84906,1,0,0:0:0:0:
448,192,85083,128,0,85259:0:0:0:90:hihat.wav
64,192,85259,128,0,85436:0:0:0:50:kick.wav
192,192,85259,1,0,0:0:0:0:
320,192,85436,128,0,85612:0:0:0:90:hihat.wav
64,192,85612,1,0,0:0:0:80:snare.wav
448,192,85612,128,0,85965:0:0:0:0:
320,192,85789,1,0,0:0:0:90:hihat.wav
64,192,85965,1,0,0:0:0:50:kick.wav
192,192,85965,1,0,0:0:0:0:
64,192,86142,1,0,0:0:0:90:hihat.wav
448,192,86142,1,0,0:0:0:80:snare.wav
320,192,86230,1,0,0:0:0:80:snare.wav
192,192,86318,1,0,0:0:0:50:kick.wav
448,192,86406,1,0,0:0:0:50:kick.wav
64,192,86495,128,0,86848:0:0:0:50:kick.wav
320,192,86495,128,0,86848:0:0:0:50:crash.wav
192,192,86848,1,0,0:0:0:50:kick.wav
448,192,86848,1,0,0:0:0:0:
64,192,87024,1,0,0:0:0:90:hihat.wav
320,192,87024,1,0,0:0:0:80:snare.wav
192,192,87201,128,0,87553:0:0:0:50:kick.wav
448,192,87201,128,0,87553:0:0:0:40:finish2.wav
64,192,87553,1,0,0:0:0:50:kick.wav
320,192,87553,1,0,0:0:0:0:
64,192,87730,1,0,0:0:0:50:kick.wav
448,192,87730,1,0,0:0:0:40:finish2.wav
64,192,87906,128,0,88083:0:0:0:50:kick.wav
192,192,87906,1,0,0:0:0:20:finish2.wav
448,192,87906,128,0,88083:0:0:0:80:snare.wav
