osu file format v14

[General]
AudioFilename: audio.ogg
AudioLeadIn: 0
PreviewTime: 50471
Countdown: 0
SampleSet: Soft
StackLeniency: 0.5
Mode: 3
LetterboxInBreaks: 0
SpecialStyle: 0
WidescreenStoryboard: 0

[Editor]
DistanceSpacing: 0.9
BeatDivisor: 4
GridSize: 4
TimelineZoom: 2.6

[Metadata]
Title:Shukufuku (TV Size)
TitleUnicode:祝福 (TV Size)
Artist:YOASOBI
ArtistUnicode:YOASOBI
Creator:Dailycare
Version:Aerial
Source:機動戦士ガンダム 水星の魔女
Tags:ゆりかごの星 yurikago no hoshi cradle planet blessing ayase ikura mobile suit gundam the witch from mercury kidou senshi gundam suisei no majo g_witch anime opening japanese electronic pop jpop j-pop
BeatmapID:4033324
BeatmapSetID:1948557

[Difficulty]
HPDrainRate:8
CircleSize:4
OverallDifficulty:8
ApproachRate:5
SliderMultiplier:1.4
SliderTickRate:1

[Events]
//Background and Video events
0,0,"4q.jpg",0,0
//Break Periods
//Storyboard Layer 0 (Background)
//Storyboard Layer 1 (Fail)
//Storyboard Layer 2 (Pass)
//Storyboard Layer 3 (Foreground)
//Storyboard Layer 4 (Overlay)
//Storyboard Sound Samples
Sample,28436,0,"snare.wav",50
Sample,48024,0,"snare.wav",70
Sample,62318,0,"hihat.wav",90
Sample,62495,0,"hihat.wav",90
Sample,62671,0,"crash.wav",30

[TimingPoints]
554,352.941176470588,4,2,1,70,1,0

[HitObjects]
320,192,24,128,0,112:0:0:0:0:
192,192,201,128,0,289:0:0:0:0:
448,192,377,128,0,465:0:0:0:0:
64,192,554,128,0,906:0:0:0:30:kick.wav
192,192,554,1,0,0:0:0:0:
320,192,730,128,0,906:0:0:0:0:
448,192,906,128,0,1083:0:0:0:50:click.wav
192,192,1083,128,0,1259:0:0:0:0:
64,192,1259,1,8,0:0:0:85:clap.wav
320,192,1259,1,0,0:0:0:0:
192,192,1436,128,0,1789:0:0:0:0:
448,192,1612,128,0,1789:0:0:0:50:click.wav
64,192,1789,128,0,1965:0:0:0:0:
320,192,1965,1,0,0:0:0:0:
192,192,2142,128,0,2495:0:0:0:0:
320,192,2318,128,0,2495:0:0:0:30:kick.wav
448,192,2318,1,0,0:0:0:50:click.wav
64,192,2495,128,0,2671:0:0:0:0:
192,192,2671,1,8,0:0:0:85:clap.wav
448,192,2671,1,0,0:0:0:0:
320,192,2848,128,0,2936:0:0:0:50:click.wav
320,192,3024,1,0,0:0:0:50:click.wav
192,192,3201,1,0,0:0:0:0:
448,192,3377,1,0,0:0:0:30:kick.wav
64,192,3553,128,0,3906:0:0:0:0:
320,192,3730,128,0,3906:0:0:0:30:kick.wav
448,192,3730,1,0,0:0:0:50:click.wav
192,192,3906,128,0,4083:0:0:0:0:
64,192,4083,1,0,0:0:0:85:clap.wav
448,192,4083,1,0,0:0:0:0:
320,192,4259,128,0,4612:0:0:0:0:
64,192,4436,128,0,4612:0:0:0:50:click.wav
448,192,4612,128,0,4789:0:0:0:0:
192,192,4789,1,0,0:0:0:0:
448,192,4965,128,0,5318:0:0:0:0:
64,192,5142,128,0,5318:0:0:0:30:kick.wav
192,192,5142,1,0,0:0:0:50:click.wav
320,192,5318,128,0,5495:0:0:0:0:
64,192,5495,1,0,0:0:0:85:clap.wav
448,192,5495,1,0,0:0:0:50:click.wav
192,192,5671,128,0,5936:0:0:0:0:
448,192,5848,128,0,6112:0:0:0:50:crash.wav
192,192,6024,128,0,6112:0:0:0:90:hihat.wav
64,192,6201,128,0,6377:0:0:0:50:kick.wav
320,192,6201,1,0,0:0:0:50:finish.wav
448,192,6201,1,0,0:0:0:0:
320,192,6377,128,0,6730:0:0:0:0:
64,192,6553,1,0,0:0:0:50:kick.wav
192,192,6553,128,0,6730:0:0:0:0:
448,192,6730,128,0,6906:0:0:0:90:hihat.wav
64,192,6906,1,0,0:0:0:50:kick.wav
320,192,6906,1,0,0:0:0:0:
448,192,7083,128,0,7436:0:0:0:0:
64,192,7259,128,0,7436:0:0:0:50:kick.wav
192,192,7259,1,0,0:0:0:0:
320,192,7436,128,0,7612:0:0:0:90:hihat.wav
192,192,7612,1,0,0:0:0:50:kick.wav
448,192,7612,1,0,0:0:0:0:
64,192,7789,128,0,8142:0:0:0:0:
320,192,7965,128,0,8142:0:0:0:50:kick.wav
448,192,7965,1,0,0:0:0:0:
192,192,8142,128,0,8318:0:0:0:90:hihat.wav
64,192,8318,1,0,0:0:0:50:kick.wav
320,192,8318,1,0,0:0:0:0:
192,192,8495,128,0,8671:0:0:0:0:
320,192,8671,128,0,8848:0:0:0:50:kick.wav
448,192,8671,1,0,0:0:0:0:
192,192,8848,128,0,9024:0:0:0:90:hihat.wav
64,192,9024,1,0,0:0:0:50:kick.wav
448,192,9024,1,0,0:0:0:35:t3.wav
320,192,9112,1,0,0:0:0:35:t3.wav
192,192,9201,1,0,0:0:0:35:t3.wav
448,192,9289,1,0,0:0:0:35:t3.wav
64,192,9377,1,0,0:0:0:50:kick.wav
192,192,9377,1,0,0:0:0:35:t3.wav
320,192,9465,1,0,0:0:0:35:t3.wav
64,192,9553,1,0,0:0:0:35:t3.wav
320,192,9642,1,0,0:0:0:35:t3.wav
192,192,9730,1,0,0:0:0:50:kick.wav
448,192,9730,1,0,0:0:0:35:t3.wav
64,192,9818,1,0,0:0:0:0:
448,192,9906,1,0,0:0:0:50:t1.wav
192,192,9995,1,0,0:0:0:50:t1.wav
64,192,10083,1,0,0:0:0:50:kick.wav
320,192,10083,1,0,0:0:0:0:
64,192,10259,1,0,0:0:0:50:kick.wav
192,192,10259,1,0,0:0:0:20:finish.wav
448,192,10259,1,0,0:0:0:50:finish2.wav
320,192,10612,128,0,10877:0:0:0:0:
64,192,10789,128,0,11142:0:0:0:0:
320,192,10965,128,0,11142:0:0:0:0:
192,192,11142,128,0,11406:0:0:0:0:
448,192,11318,128,0,11495:0:0:0:0:
64,192,11495,1,0,0:0:0:50:t3.wav
192,192,11495,1,0,0:0:0:0:
320,192,11671,128,0,11848:0:0:0:0:
64,192,11848,128,0,12024:0:0:0:50:kick.wav
192,192,11848,1,0,0:0:0:50:finish2.wav
448,192,11848,1,0,0:0:0:50:crash.wav
320,192,12024,128,0,12201:0:0:0:0:
64,192,12201,1,0,0:0:0:80:snare.wav
192,192,12201,1,0,0:0:0:0:
448,192,12201,128,0,12377:0:0:0:0:
192,192,12377,128,0,12553:0:0:0:90:hihat.wav
320,192,12465,128,0,12553:0:0:0:0:
64,192,12553,1,0,0:0:0:50:kick.wav
448,192,12553,1,0,0:0:0:0:
192,192,12730,128,0,12818:0:0:0:90:hihat.wav
320,192,12818,128,0,12906:0:0:0:0:
64,192,12906,128,0,12995:0:0:0:80:snare.wav
192,192,12906,1,0,0:0:0:0:
448,192,12906,1,0,0:0:0:0:
320,192,12995,128,0,13083:0:0:0:0:
192,192,13083,128,0,13524:0:0:0:90:hihat.wav
64,192,13259,1,0,0:0:0:50:kick.wav
448,192,13259,1,0,0:0:0:0:
448,192,13436,128,0,13612:0:0:0:90:hihat.wav
64,192,13612,1,0,0:0:0:80:snare.wav
192,192,13612,1,0,0:0:0:0:
320,192,13612,128,0,13789:0:0:0:0:
448,192,13789,128,0,14142:0:0:0:90:hihat.wav
64,192,13965,1,0,0:0:0:50:kick.wav
320,192,13965,1,0,0:0:0:0:
192,192,14142,1,0,0:0:0:90:hihat.wav
64,192,14318,128,0,14671:0:0:0:80:snare.wav
320,192,14318,1,0,0:0:0:0:
448,192,14318,1,0,0:0:0:0:
192,192,14495,128,0,14671:0:0:0:90:hihat.wav
320,192,14671,1,0,0:0:0:50:kick.wav
448,192,14671,128,0,14848:0:0:0:0:
192,192,14848,128,0,15024:0:0:0:90:hihat.wav
64,192,15024,128,0,15201:0:0:0:80:snare.wav
320,192,15024,1,0,0:0:0:0:
448,192,15024,1,0,0:0:0:0:
320,192,15201,128,0,15377:0:0:0:90:hihat.wav
192,192,15289,128,0,15377:0:0:0:0:
64,192,15377,1,0,0:0:0:50:kick.wav
448,192,15377,1,0,0:0:0:0:
320,192,15553,128,0,15642:0:0:0:90:hihat.wav
64,192,15642,128,0,15730:0:0:0:0:
320,192,15730,1,0,0:0:0:50:kick.wav
448,192,15730,128,0,15818:0:0:0:80:snare.wav
192,192,15818,128,0,15906:0:0:0:0:
64,192,15906,1,0,0:0:0:50:kick.wav
320,192,15906,128,0,16348:0:0:0:50:crash.wav
448,192,15906,128,0,16348:0:0:0:50:finish2.wav
64,192,16436,1,0,0:0:0:50:kick.wav
192,192,16436,128,0,16701:0:0:0:30:finish2.wav
320,192,16436,128,0,16701:0:0:0:0:
64,192,16789,128,0,17053:0:0:0:50:kick.wav
192,192,16789,128,0,17053:0:0:0:20:finish2.wav
448,192,16789,1,0,0:0:0:0:
64,192,17142,1,0,0:0:0:50:kick.wav
448,192,17142,1,0,0:0:0:50:t2.wav
320,192,17230,1,0,0:0:0:50:t2.wav
64,192,17318,1,0,0:0:0:50:t3.wav
192,192,17318,1,0,0:0:0:60:snare.wav
448,192,17406,1,0,0:0:0:60:snare.wav
64,192,17495,128,0,17848:0:0:0:40:kick.wav
192,192,17495,128,0,17848:0:0:0:50:finish.wav
320,192,17495,1,0,0:0:0:50:crash.wav
320,192,17848,1,0,0:0:0:40:kick.wav
448,192,17848,1,0,0:0:0:0:
64,192,18024,128,0,18112:0:0:0:0:
320,192,18112,128,0,18201:0:0:0:0:
192,192,18201,128,0,18377:0:0:0:40:kick.wav
448,192,18201,1,0,0:0:0:0:
64,192,18377,1,0,0:0:0:0:
192,192,18553,1,0,0:0:0:40:kick.wav
320,192,18553,128,0,18642:0:0:0:0:
192,192,18730,128,0,18818:0:0:0:0:
448,192,18818,128,0,18906:0:0:0:0:
64,192,18906,1,0,0:0:0:40:kick.wav
320,192,18906,1,0,0:0:0:0:
448,192,19083,128,0,19171:0:0:0:0:
192,192,19259,1,0,0:0:0:40:kick.wav
448,192,19259,128,0,19348:0:0:0:0:
64,192,19436,128,0,19612:0:0:0:0:
448,192,19524,128,0,19612:0:0:0:0:
192,192,19612,1,0,0:0:0:40:kick.wav
320,192,19612,1,0,0:0:0:0:
192,192,19789,128,0,19965:0:0:0:0:
64,192,19965,1,0,0:0:0:40:kick.wav
448,192,19965,1,0,0:0:0:0:
64,192,20142,128,0,20318:0:0:0:0:
320,192,20318,128,0,20671:0:0:0:40:kick.wav
448,192,20318,128,0,20671:0:0:0:0:
64,192,20671,1,0,0:0:0:40:kick.wav
192,192,20671,1,0,0:0:0:0:
320,192,20848,128,0,20936:0:0:0:0:
192,192,20936,128,0,21024:0:0:0:0:
64,192,21024,128,0,21201:0:0:0:40:kick.wav
448,192,21024,1,0,0:0:0:0:
320,192,21201,1,0,0:0:0:0:
192,192,21377,128,0,21465:0:0:0:40:kick.wav
448,192,21377,1,0,0:0:0:0:
448,192,21553,128,0,21642:0:0:0:0:
320,192,21642,128,0,21730:0:0:0:0:
64,192,21730,128,0,22083:0:0:0:40:kick.wav
192,192,21730,128,0,22083:0:0:0:0:
320,192,21906,128,0,21995:0:0:0:0:
320,192,22083,1,0,0:0:0:40:kick.wav
448,192,22083,128,0,22171:0:0:0:0:
64,192,22259,128,0,22436:0:0:0:0:
192,192,22348,128,0,22436:0:0:0:0:
320,192,22436,1,0,0:0:0:40:kick.wav
448,192,22436,128,0,22524:0:0:0:0:
448,192,22612,128,0,22701:0:0:0:90:hihat.wav
192,192,22701,1,0,0:0:0:0:
64,192,22789,1,0,0:0:0:40:kick.wav
320,192,22789,128,0,22877:0:0:0:0:
64,192,22965,128,0,23053:0:0:0:40:kick.wav
448,192,22965,1,0,0:0:0:90:hihat.wav
192,192,23053,128,0,23142:0:0:0:40:kick.wav
320,192,23142,128,0,23495:0:0:0:40:kick.wav
448,192,23142,128,0,23495:0:0:0:20:finish2.wav
64,192,23495,1,0,0:0:0:40:kick.wav
192,192,23495,1,0,0:0:0:0:
448,192,23671,128,0,23759:0:0:0:0:
192,192,23759,128,0,23848:0:0:0:0:
64,192,23848,1,0,0:0:0:40:kick.wav
320,192,23848,128,0,24024:0:0:0:0:
448,192,24024,1,0,0:0:0:0:
64,192,24201,128,0,24289:0:0:0:40:kick.wav
320,192,24201,1,0,0:0:0:0:
64,192,24377,128,0,24465:0:0:0:0:
192,192,24465,128,0,24553:0:0:0:0:
320,192,24553,128,0,24906:0:0:0:40:kick.wav
448,192,24553,128,0,24906:0:0:0:0:
64,192,24730,128,0,24818:0:0:0:0:
64,192,24906,1,0,0:0:0:40:kick.wav
192,192,24906,128,0,24995:0:0:0:0:
448,192,25083,128,0,25259:0:0:0:0:
192,192,25171,128,0,25259:0:0:0:0:
64,192,25259,1,0,0:0:0:40:kick.wav
320,192,25259,1,0,0:0:0:0:
64,192,25436,128,0,25612:0:0:0:0:
192,192,25612,1,0,0:0:0:40:kick.wav
320,192,25612,1,0,0:0:0:0:
320,192,25789,128,0,25965:0:0:0:0:
448,192,25877,128,0,25965:0:0:0:0:
64,192,25965,128,0,26318:0:0:0:40:kick.wav
192,192,25965,128,0,26318:0:0:0:0:
448,192,26142,128,0,26230:0:0:0:0:
320,192,26318,128,0,26406:0:0:0:40:kick.wav
448,192,26318,1,0,0:0:0:0:
192,192,26495,128,0,26583:0:0:0:0:
320,192,26583,128,0,26671:0:0:0:0:
64,192,26671,1,0,0:0:0:40:kick.wav
448,192,26671,1,0,0:0:0:0:
320,192,26848,128,0,27024:0:0:0:0:
64,192,27024,128,0,27112:0:0:0:40:kick.wav
192,192,27024,1,0,0:0:0:0:
64,192,27201,128,0,27377:0:0:0:0:
320,192,27289,128,0,27377:0:0:0:0:
192,192,27377,1,0,0:0:0:40:kick.wav
448,192,27377,1,0,0:0:0:70:hihat2.wav
320,192,27553,1,0,0:0:0:40:kick.wav
448,192,27553,1,0,0:0:0:0:
64,192,27730,1,0,0:0:0:40:kick.wav
320,192,27730,1,0,0:0:0:0:
64,192,27906,1,0,0:0:0:40:kick.wav
448,192,27906,1,0,0:0:0:90:hihat.wav
192,192,28083,1,0,0:0:0:50:kick.wav
448,192,28083,1,0,0:0:0:0:
320,192,28171,1,0,0:0:0:50:kick.wav
64,192,28259,1,0,0:0:0:50:kick.wav
192,192,28259,1,0,0:0:0:90:hihat.wav
448,192,28259,1,0,0:0:0:50:snare.wav
320,192,28348,1,0,0:0:0:50:snare.wav
64,192,28436,1,0,0:0:0:50:kick.wav
192,192,28436,1,0,0:0:0:50:t4.wav
320,192,28524,1,0,0:0:0:70:t4.wav
448,192,28612,1,0,0:0:0:70:t3.wav
192,192,28701,1,0,0:0:0:70:t2.wav
64,192,28789,1,0,0:0:0:50:kick.wav
320,192,28789,128,0,29142:0:0:0:50:crash.wav
448,192,28789,1,0,0:0:0:50:finish.wav
192,192,28965,128,0,29053:0:0:0:0:
64,192,29142,1,0,0:0:0:70:snare.wav
192,192,29142,1,0,0:0:0:0:
448,192,29142,1,0,0:0:0:0:
448,192,29318,128,0,29671:0:0:0:90:hihat.wav
64,192,29495,128,0,29671:0:0:0:50:kick.wav
192,192,29495,1,0,0:0:0:0:
320,192,29671,128,0,29759:0:0:0:0:
64,192,29848,1,0,0:0:0:70:snare.wav
320,192,29848,128,0,29936:0:0:0:0:
448,192,29848,1,0,0:0:0:0:
64,192,30024,128,0,30201:0:0:0:90:hihat.wav
192,192,30024,128,0,30112:0:0:0:0:
448,192,30112,128,0,30201:0:0:0:0:
192,192,30201,1,0,0:0:0:50:kick.wav
320,192,30201,128,0,30377:0:0:0:0:
64,192,30377,128,0,30465:0:0:0:90:hihat.wav
64,192,30553,128,0,30730:0:0:0:70:snare.wav
320,192,30553,128,0,30642:0:0:0:0:
448,192,30553,1,0,0:0:0:0:
320,192,30730,128,0,30906:0:0:0:90:hihat.wav
192,192,30818,128,0,30906:0:0:0:0:
64,192,30906,1,0,0:0:0:50:kick.wav
448,192,30906,128,0,31083:0:0:0:0:
192,192,31083,128,0,31259:0:0:0:0:
64,192,31259,128,0,31436:0:0:0:70:snare.wav
320,192,31259,1,0,0:0:0:0:
448,192,31259,1,0,0:0:0:0:
320,192,31436,128,0,31612:0:0:0:90:hihat.wav
192,192,31612,128,0,31965:0:0:0:50:kick.wav
448,192,31612,1,0,0:0:0:0:
320,192,31789,128,0,31877:0:0:0:0:
64,192,31965,128,0,32318:0:0:0:70:snare.wav
320,192,31965,1,0,0:0:0:0:
448,192,31965,1,0,0:0:0:0:
192,192,32142,128,0,32318:0:0:0:90:hihat.wav
320,192,32318,1,0,0:0:0:50:kick.wav
448,192,32318,128,0,32671:0:0:0:0:
64,192,32495,128,0,32583:0:0:0:0:
64,192,32671,1,0,0:0:0:70:snare.wav
192,192,32671,128,0,32759:0:0:0:0:
320,192,32671,1,0,0:0:0:0:
320,192,32848,128,0,32936:0:0:0:90:hihat.wav
448,192,32936,128,0,33024:0:0:0:0:
64,192,33024,1,0,0:0:0:50:kick.wav
192,192,33024,1,0,0:0:0:0:
192,192,33201,128,0,33377:0:0:0:90:hihat.wav
64,192,33377,1,0,0:0:0:70:snare.wav
320,192,33377,1,0,0:0:0:0:
448,192,33377,1,0,0:0:0:0:
320,192,33553,128,0,33730:0:0:0:90:hihat.wav
192,192,33642,128,0,33730:0:0:0:0:
64,192,33730,128,0,33906:0:0:0:50:kick.wav
448,192,33730,1,0,0:0:0:0:
320,192,33906,128,0,34083:0:0:0:0:
64,192,34083,1,0,0:0:0:70:snare.wav
192,192,34083,128,0,34259:0:0:0:0:
448,192,34083,1,0,0:0:0:0:
448,192,34259,128,0,34436:0:0:0:90:hihat.wav
192,192,34436,1,0,0:0:0:50:kick.wav
320,192,34436,128,0,34789:0:0:0:0:
64,192,34612,128,0,34701:0:0:0:0:
64,192,34789,1,0,0:0:0:70:snare.wav
192,192,34789,128,0,35142:0:0:0:0:
448,192,34789,128,0,34965:0:0:0:0:
320,192,34965,1,0,0:0:0:90:hihat.wav
64,192,35142,128,0,35495:0:0:0:50:kick.wav
448,192,35142,128,0,35318:0:0:0:0:
320,192,35318,128,0,35406:0:0:0:0:
192,192,35495,1,0,0:0:0:70:snare.wav
320,192,35495,128,0,35671:0:0:0:0:
448,192,35495,128,0,35848:0:0:0:0:
64,192,35671,128,0,35759:0:0:0:90:hihat.wav
192,192,35759,128,0,35848:0:0:0:0:
64,192,35848,128,0,36024:0:0:0:50:kick.wav
320,192,35848,128,0,36201:0:0:0:0:
64,192,36201,128,0,36377:0:0:0:70:snare.wav
192,192,36201,128,0,36289:0:0:0:0:
448,192,36201,1,0,0:0:0:0:
448,192,36377,128,0,36553:0:0:0:90:hihat.wav
320,192,36465,128,0,36553:0:0:0:0:
64,192,36553,128,0,36730:0:0:0:50:kick.wav
192,192,36553,1,0,0:0:0:0:
320,192,36730,128,0,36818:0:0:0:0:
64,192,36906,1,0,0:0:0:70:snare.wav
192,192,36906,128,0,36995:0:0:0:0:
320,192,36906,1,0,0:0:0:0:
192,192,37083,128,0,37259:0:0:0:90:hihat.wav
448,192,37083,128,0,37171:0:0:0:0:
64,192,37259,128,0,37612:0:0:0:50:kick.wav
448,192,37259,1,0,0:0:0:0:
192,192,37436,1,0,0:0:0:50:kick.wav
320,192,37436,1,0,0:0:0:0:
320,192,37612,1,0,0:0:0:50:kick.wav
448,192,37612,1,0,0:0:0:50:t3.wav
192,192,37701,1,0,0:0:0:50:t3.wav
64,192,37789,1,0,0:0:0:90:hihat.wav
448,192,37789,1,0,0:0:0:70:snare.wav
192,192,37877,1,0,0:0:0:70:snare.wav
320,192,37877,1,0,0:0:0:0:
64,192,37965,1,0,0:0:0:50:kick.wav
448,192,37965,1,0,0:0:0:50:t4.wav
192,192,38142,1,0,0:0:0:50:kick.wav
320,192,38142,1,0,0:0:0:50:t3.wav
64,192,38318,1,0,0:0:0:20:finish2.wav
192,192,38318,1,0,0:0:0:70:snare.wav
448,192,38318,1,0,0:0:0:0:
64,192,38495,1,0,0:0:0:50:kick.wav
320,192,38495,1,0,0:0:0:50:finish.wav
448,192,38495,1,0,0:0:0:50:crash.wav
192,192,38848,1,0,0:0:0:30:finish2.wav
448,192,38848,128,0,39024:0:0:0:0:
192,192,39024,128,0,39201:0:0:0:50:kick.wav
320,192,39024,1,0,0:0:0:0:
64,192,39201,1,0,0:0:0:70:snare.wav
320,192,39201,128,0,39377:0:0:0:0:
64,192,39377,128,0,39553:0:0:0:50:kick.wav
448,192,39377,1,0,0:0:0:0:
192,192,39553,1,0,0:0:0:90:hihat.wav
448,192,39553,128,0,39730:0:0:0:70:snare.wav
64,192,39730,128,0,39906:0:0:0:50:kick.wav
320,192,39730,1,0,0:0:0:70:snare.wav
192,192,39906,1,0,0:0:0:90:hihat.wav
448,192,39906,128,0,39995:0:0:0:80:snare.wav
320,192,39995,1,0,0:0:0:80:snare.wav
64,192,40083,1,0,0:0:0:50:kick.wav
192,192,40083,128,0,40348:0:0:0:50:finish.wav
448,192,40083,1,0,0:0:0:50:crash.wav
448,192,40259,128,0,40524:0:0:0:0:
64,192,40436,128,0,40524:0:0:0:50:kick.wav
192,192,40436,1,0,0:0:0:90:hihat.wav
320,192,40436,128,0,40524:0:0:0:80:snare.wav
320,192,40612,128,0,40789:0:0:0:90:hihat.wav
448,192,40612,128,0,40789:0:0:0:0:
64,192,40789,1,0,0:0:0:50:kick.wav
192,192,40789,1,0,0:0:0:0:
320,192,40965,128,0,41230:0:0:0:0:
64,192,41142,1,0,0:0:0:50:kick.wav
192,192,41142,128,0,41230:0:0:0:90:hihat.wav
448,192,41142,128,0,41230:0:0:0:80:snare.wav
64,192,41318,128,0,41495:0:0:0:90:hihat.wav
192,192,41318,128,0,41495:0:0:0:0:
320,192,41495,1,0,0:0:0:50:kick.wav
448,192,41495,1,0,0:0:0:0:
192,192,41671,128,0,41936:0:0:0:0:
64,192,41848,128,0,41936:0:0:0:50:kick.wav
320,192,41848,128,0,41936:0:0:0:90:hihat.wav
448,192,41848,1,0,0:0:0:80:snare.wav
320,192,42024,128,0,42201:0:0:0:90:hihat.wav
448,192,42024,128,0,42201:0:0:0:0:
64,192,42201,1,0,0:0:0:50:kick.wav
192,192,42201,1,0,0:0:0:0:
448,192,42377,128,0,42642:0:0:0:0:
64,192,42553,128,0,42642:0:0:0:50:kick.wav
192,192,42553,1,0,0:0:0:90:hihat.wav
320,192,42553,128,0,42642:0:0:0:80:snare.wav
64,192,42730,128,0,42906:0:0:0:90:hihat.wav
320,192,42730,128,0,42906:0:0:0:0:
192,192,42906,1,0,0:0:0:50:kick.wav
448,192,42906,1,0,0:0:0:0:
64,192,43083,128,0,43348:0:0:0:0:
192,192,43259,128,0,43348:0:0:0:50:kick.wav
320,192,43259,1,0,0:0:0:90:hihat.wav
448,192,43259,128,0,43348:0:0:0:80:snare.wav
192,192,43436,128,0,43612:0:0:0:90:hihat.wav
448,192,43436,128,0,43612:0:0:0:0:
64,192,43612,1,0,0:0:0:50:kick.wav
320,192,43612,1,0,0:0:0:0:
448,192,43789,128,0,44053:0:0:0:0:
64,192,43965,128,0,44053:0:0:0:50:kick.wav
192,192,43965,128,0,44053:0:0:0:90:hihat.wav
320,192,43965,1,0,0:0:0:80:snare.wav
64,192,44142,128,0,44318:0:0:0:90:hihat.wav
192,192,44142,128,0,44318:0:0:0:0:
320,192,44318,1,0,0:0:0:50:kick.wav
448,192,44318,1,0,0:0:0:0:
64,192,44495,128,0,44759:0:0:0:0:
192,192,44671,1,0,0:0:0:50:kick.wav
320,192,44671,128,0,44759:0:0:0:90:hihat.wav
448,192,44671,128,0,44759:0:0:0:80:snare.wav
320,192,44848,1,0,0:0:0:90:hihat.wav
448,192,44848,1,0,0:0:0:0:
192,192,44936,1,0,0:0:0:90:hihat.wav
64,192,45024,1,0,0:0:0:50:kick.wav
320,192,45024,1,0,0:0:0:0:
64,192,45201,1,0,0:0:0:50:hihat2.wav
192,192,45201,1,0,0:0:0:80:snare.wav
448,192,45201,128,0,45289:0:0:0:0:
192,192,45377,1,0,0:0:0:50:kick.wav
320,192,45377,128,0,45553:0:0:0:90:hihat.wav
64,192,45553,128,0,45642:0:0:0:50:hihat2.wav
192,192,45553,1,0,0:0:0:80:snare.wav
448,192,45553,1,0,0:0:0:0:
320,192,45642,128,0,45730:0:0:0:80:snare.wav
64,192,45730,1,0,0:0:0:50:kick.wav
192,192,45730,128,0,45995:0:0:0:50:finish.wav
448,192,45730,1,0,0:0:0:0:
320,192,45906,128,0,46083:0:0:0:0:
64,192,46083,1,0,0:0:0:50:kick.wav
192,192,46083,128,0,46171:0:0:0:50:hihat2.wav
448,192,46083,128,0,46436:0:0:0:80:snare.wav
192,192,46259,128,0,46436:0:0:0:90:hihat.wav
64,192,46436,1,0,0:0:0:50:kick.wav
320,192,46436,1,0,0:0:0:90:hihat.wav
192,192,46612,128,0,46789:0:0:0:0:
64,192,46789,128,0,47142:0:0:0:50:kick.wav
320,192,46789,128,0,46877:0:0:0:50:hihat2.wav
448,192,46789,1,0,0:0:0:80:snare.wav
320,192,46965,128,0,47142:0:0:0:90:hihat.wav
192,192,47142,1,0,0:0:0:50:kick.wav
448,192,47142,1,0,0:0:0:90:hihat.wav
64,192,47318,128,0,47495:0:0:0:0:
192,192,47495,128,0,47848:0:0:0:50:kick.wav
320,192,47495,128,0,47583:0:0:0:50:hihat2.wav
448,192,47495,1,0,0:0:0:80:snare.wav
320,192,47671,128,0,47848:0:0:0:90:hihat.wav
64,192,47848,1,0,0:0:0:50:kick.wav
448,192,47848,1,0,0:0:0:90:hihat.wav
448,192,48024,128,0,48289:0:0:0:50:hihat2.wav
320,192,48201,128,0,48377:0:0:0:70:t3.wav
64,192,48377,1,0,0:0:0:30:kick.wav
192,192,48377,1,0,0:0:0:50:crash.wav
448,192,48377,1,0,0:0:0:50:finish2.wav
64,192,48730,128,0,48818:0:0:0:0:
64,192,48906,128,0,49259:0:0:0:0:
192,192,49083,128,0,49259:0:0:0:0:
448,192,49259,128,0,49348:0:0:0:50:crash.wav
64,192,49436,128,0,49524:0:0:0:0:
320,192,49612,128,0,49701:0:0:0:50:t4.wav
64,192,49789,128,0,50053:0:0:0:50:kick.wav
192,192,49789,128,0,50053:0:0:0:50:finish2.wav
448,192,49789,128,0,50053:0:0:0:80:snare.wav
64,192,50142,128,0,50230:0:0:0:50:kick.wav
320,192,50142,128,0,50230:0:0:0:20:finish2.wav
448,192,50142,128,0,50230:0:0:0:80:snare.wav
64,192,50318,1,0,0:0:0:50:kick.wav
320,192,50318,1,0,0:0:0:20:finish2.wav
448,192,50318,1,0,0:0:0:80:snare.wav
192,192,50495,128,0,50759:0:0:0:0:
320,192,50671,128,0,51024:0:0:0:0:
192,192,50848,128,0,51201:0:0:0:0:
448,192,51024,128,0,51289:0:0:0:0:
64,192,51201,128,0,51377:0:0:0:0:
192,192,51377,128,0,51642:0:0:0:50:kick.wav
320,192,51377,128,0,51642:0:0:0:50:finish.wav
448,192,51377,128,0,51642:0:0:0:50:crash.wav
64,192,51730,1,0,0:0:0:50:kick.wav
192,192,51730,128,0,51818:0:0:0:90:snare.wav
448,192,51730,1,0,0:0:0:0:
320,192,51818,128,0,51906:0:0:0:0:
64,192,51906,128,0,52083:0:0:0:90:hihat2.wav
448,192,51906,128,0,52083:0:0:0:0:
192,192,52083,1,0,0:0:0:50:kick.wav
320,192,52083,1,0,0:0:0:0:
64,192,52259,128,0,52348:0:0:0:90:hihat2.wav
448,192,52259,1,0,0:0:0:0:
192,192,52436,1,0,0:0:0:50:kick.wav
320,192,52436,128,0,52612:0:0:0:90:snare.wav
448,192,52436,128,0,52612:0:0:0:0:
64,192,52612,1,0,0:0:0:90:hihat2.wav
192,192,52612,128,0,52789:0:0:0:0:
320,192,52789,1,0,0:0:0:50:kick.wav
448,192,52789,1,0,0:0:0:0:
64,192,52965,1,0,0:0:0:90:hihat2.wav
448,192,52965,128,0,53142:0:0:0:0:
64,192,53142,1,0,0:0:0:50:kick.wav
192,192,53142,1,0,0:0:0:90:snare.wav
320,192,53142,1,0,0:0:0:0:
192,192,53318,1,0,0:0:0:90:hihat2.wav
448,192,53318,128,0,53406:0:0:0:0:
64,192,53495,128,0,53671:0:0:0:50:kick.wav
448,192,53495,128,0,53671:0:0:0:0:
192,192,53671,128,0,53848:0:0:0:90:hihat2.wav
320,192,53671,1,0,0:0:0:0:
64,192,53848,1,0,0:0:0:50:kick.wav
320,192,53848,128,0,54024:0:0:0:90:snare.wav
448,192,53848,128,0,54024:0:0:0:0:
64,192,54024,128,0,54201:0:0:0:90:hihat2.wav
192,192,54024,1,0,0:0:0:0:
320,192,54201,128,0,54465:0:0:0:50:kick.wav
448,192,54201,128,0,54465:0:0:0:90:hihat.wav
192,192,54377,1,0,0:0:0:90:hihat2.wav
64,192,54553,1,0,0:0:0:50:kick.wav
320,192,54553,128,0,54642:0:0:0:90:snare.wav
448,192,54553,1,0,0:0:0:0:
192,192,54642,128,0,54730:0:0:0:0:
64,192,54730,128,0,54906:0:0:0:90:hihat2.wav
448,192,54730,128,0,54906:0:0:0:0:
192,192,54906,1,0,0:0:0:50:kick.wav
320,192,54906,1,0,0:0:0:0:
64,192,55083,1,0,0:0:0:90:hihat2.wav
448,192,55083,128,0,55171:0:0:0:0:
64,192,55259,128,0,55436:0:0:0:50:kick.wav
192,192,55259,128,0,55436:0:0:0:90:snare.wav
320,192,55259,1,0,0:0:0:0:
320,192,55436,128,0,55612:0:0:0:90:hihat2.wav
448,192,55436,1,0,0:0:0:0:
64,192,55612,1,0,0:0:0:50:kick.wav
192,192,55612,1,0,0:0:0:0:
64,192,55789,128,0,55965:0:0:0:90:hihat2.wav
320,192,55789,1,0,0:0:0:0:
192,192,55965,128,0,56142:0:0:0:50:kick.wav
320,192,55965,1,0,0:0:0:90:snare.wav
448,192,55965,1,0,0:0:0:0:
448,192,56142,1,0,0:0:0:90:hihat2.wav
64,192,56318,128,0,56406:0:0:0:50:kick.wav
192,192,56318,1,0,0:0:0:0:
320,192,56318,128,0,56406:0:0:0:0:
192,192,56495,128,0,56583:0:0:0:90:hihat2.wav
448,192,56495,128,0,56671:0:0:0:0:
64,192,56671,128,0,56759:0:0:0:50:kick.wav
192,192,56671,128,0,56759:0:0:0:90:snare.wav
320,192,56671,1,0,0:0:0:0:
64,192,56848,128,0,57024:0:0:0:90:hihat2.wav
320,192,56848,128,0,56936:0:0:0:0:
192,192,57024,128,0,57289:0:0:0:50:kick.wav
320,192,57024,128,0,57289:0:0:0:50:finish.wav
448,192,57024,128,0,57289:0:0:0:50:crash.wav
64,192,57377,128,0,57465:0:0:0:50:kick.wav
192,192,57377,1,0,0:0:0:90:snare.wav
448,192,57377,1,0,0:0:0:0:
192,192,57553,128,0,57730:0:0:0:90:hihat2.wav
320,192,57553,128,0,57730:0:0:0:0:
64,192,57730,1,0,0:0:0:50:kick.wav
448,192,57730,1,0,0:0:0:0:
192,192,57906,1,0,0:0:0:90:hihat2.wav
320,192,57906,128,0,57995:0:0:0:0:
64,192,57995,128,0,58083:0:0:0:0:
192,192,58083,128,0,58259:0:0:0:50:kick.wav
320,192,58083,128,0,58259:0:0:0:90:snare.wav
448,192,58083,1,0,0:0:0:0:
64,192,58259,1,0,0:0:0:90:hihat2.wav
448,192,58259,128,0,58436:0:0:0:0:
192,192,58436,1,0,0:0:0:50:kick.wav
320,192,58436,1,0,0:0:0:0:
64,192,58612,1,0,0:0:0:90:hihat2.wav
320,192,58612,128,0,58789:0:0:0:0:
64,192,58789,1,0,0:0:0:50:kick.wav
192,192,58789,1,0,0:0:0:90:snare.wav
448,192,58789,1,0,0:0:0:0:
192,192,58965,128,0,59142:0:0:0:90:hihat2.wav
320,192,58965,1,0,0:0:0:0:
64,192,59142,128,0,59230:0:0:0:50:kick.wav
448,192,59142,1,0,0:0:0:0:
64,192,59318,1,0,0:0:0:90:hihat2.wav
320,192,59318,128,0,59406:0:0:0:0:
192,192,59495,1,0,0:0:0:50:kick.wav
320,192,59495,1,0,0:0:0:90:snare.wav
448,192,59495,128,0,59583:0:0:0:0:
64,192,59671,128,0,59759:0:0:0:90:hihat2.wav
448,192,59671,1,0,0:0:0:0:
64,192,59848,1,0,0:0:0:50:kick.wav
192,192,59848,128,0,60112:0:0:0:90:hihat.wav
320,192,60024,1,0,0:0:0:90:hihat2.wav
64,192,60201,1,0,0:0:0:50:kick.wav
192,192,60201,1,0,0:0:0:90:snare.wav
448,192,60201,128,0,60289:0:0:0:0:
64,192,60377,128,0,60553:0:0:0:90:hihat2.wav
448,192,60377,1,0,0:0:0:0:
192,192,60553,1,0,0:0:0:50:kick.wav
320,192,60553,1,0,0:0:0:0:
64,192,60730,1,0,0:0:0:90:hihat2.wav
448,192,60730,128,0,60906:0:0:0:0:
64,192,60906,1,0,0:0:0:50:kick.wav
192,192,60906,1,0,0:0:0:90:snare.wav
320,192,60906,128,0,61171:0:0:0:0:
64,192,61083,128,0,61259:0:0:0:90:hihat2.wav
192,192,61259,1,0,0:0:0:50:kick.wav
320,192,61259,1,0,0:0:0:50:crash.wav
448,192,61259,1,0,0:0:0:50:finish2.wav
64,192,61436,1,0,0:0:0:50:kick.wav
192,192,61436,1,0,0:0:0:90:hihat.wav
448,192,61436,1,0,0:0:0:90:snare.wav
64,192,61612,1,0,0:0:0:50:kick.wav
192,192,61612,1,0,0:0:0:90:snare.wav
320,192,61612,1,0,0:0:0:0:
320,192,61789,1,0,0:0:0:90:hihat2.wav
448,192,61789,1,0,0:0:0:90:snare.wav
64,192,61877,1,0,0:0:0:90:snare.wav
192,192,61877,1,0,0:0:0:0:
320,192,61965,1,0,0:0:0:50:kick.wav
448,192,61965,128,0,62142:0:0:0:0:
64,192,62142,1,0,0:0:0:90:hihat2.wav
192,192,62142,1,0,0:0:0:90:snare.wav
320,192,62230,1,0,0:0:0:90:snare.wav
448,192,62230,1,0,0:0:0:0:
64,192,62318,128,0,62406:0:0:0:50:kick.wav
192,192,62318,1,0,0:0:0:70:t3.wav
64,192,62495,1,0,0:0:0:50:kick.wav
320,192,62495,128,0,62583:0:0:0:70:t3.wav
192,192,62671,128,0,62936:0:0:0:50:kick.wav
320,192,62671,128,0,62936:0:0:0:30:finish.wav
64,192,63024,128,0,63112:0:0:0:50:kick.wav
192,192,63024,1,0,0:0:0:50:finish2.wav
320,192,63024,1,0,0:0:0:50:finish.wav
448,192,63024,1,0,0:0:0:90:snare.wav
64,192,63201,128,0,63377:0:0:0:90:hihat2.wav
320,192,63201,128,0,63377:0:0:0:0:
192,192,63377,1,0,0:0:0:50:kick.wav
448,192,63377,1,0,0:0:0:0:
192,192,63553,1,0,0:0:0:90:hihat2.wav
320,192,63553,128,0,63642:0:0:0:0:
64,192,63730,128,0,63818:0:0:0:50:kick.wav
320,192,63730,128,0,63906:0:0:0:90:snare.wav
448,192,63730,1,0,0:0:0:0:
64,192,63906,128,0,64083:0:0:0:90:hihat2.wav
192,192,63906,1,0,0:0:0:0:
320,192,64083,1,0,0:0:0:50:kick.wav
448,192,64083,1,0,0:0:0:0:
64,192,64259,128,0,64436:0:0:0:90:hihat2.wav
192,192,64259,1,0,0:0:0:0:
192,192,64436,128,0,64612:0:0:0:50:kick.wav
320,192,64436,1,0,0:0:0:90:snare.wav
448,192,64436,1,0,0:0:0:0:
64,192,64612,1,0,0:0:0:90:hihat2.wav
320,192,64612,128,0,64789:0:0:0:0:
64,192,64789,128,0,64965:0:0:0:50:kick.wav
448,192,64789,128,0,64965:0:0:0:0:
192,192,64965,128,0,65142:0:0:0:90:hihat2.wav
320,192,64965,1,0,0:0:0:0:
64,192,65142,1,0,0:0:0:50:kick.wav
320,192,65142,128,0,65318:0:0:0:90:snare.wav
448,192,65142,1,0,0:0:0:0:
192,192,65318,1,0,0:0:0:90:hihat2.wav
448,192,65318,128,0,65495:0:0:0:0:
64,192,65495,128,0,65583:0:0:0:50:kick.wav
320,192,65495,128,0,65848:0:0:0:90:hihat.wav
64,192,65671,128,0,65936:0:0:0:90:hihat2.wav
192,192,65848,128,0,65936:0:0:0:50:kick.wav
448,192,65848,128,0,66201:0:0:0:90:snare.wav
64,192,66024,128,0,66112:0:0:0:90:hihat2.wav
64,192,66201,128,0,66377:0:0:0:50:kick.wav
320,192,66201,128,0,66553:0:0:0:0:
192,192,66377,1,0,0:0:0:90:hihat2.wav
64,192,66553,128,0,66730:0:0:0:50:kick.wav
192,192,66553,128,0,66906:0:0:0:90:snare.wav
448,192,66553,1,0,0:0:0:0:
448,192,66730,1,0,0:0:0:90:hihat2.wav
64,192,66906,128,0,67083:0:0:0:50:kick.wav
320,192,66906,128,0,67171:0:0:0:0:
192,192,67083,1,0,0:0:0:90:hihat2.wav
64,192,67259,128,0,67524:0:0:0:50:kick.wav
320,192,67259,1,0,0:0:0:90:snare.wav
448,192,67259,128,0,67436:0:0:0:0:
192,192,67436,1,0,0:0:0:90:hihat2.wav
320,192,67612,128,0,67789:0:0:0:50:kick.wav
448,192,67612,128,0,67877:0:0:0:0:
192,192,67789,1,0,0:0:0:90:hihat2.wav
64,192,67965,128,0,68142:0:0:0:50:kick.wav
320,192,67965,128,0,68230:0:0:0:90:snare.wav
448,192,67965,1,0,0:0:0:0:
192,192,68142,1,0,0:0:0:90:hihat2.wav
64,192,68318,1,0,0:0:0:50:kick.wav
192,192,68318,128,0,68671:0:0:0:50:crash.wav
448,192,68318,128,0,68406:0:0:0:50:finish.wav
448,192,68495,128,0,68759:0:0:0:90:hihat2.wav
64,192,68671,128,0,69024:0:0:0:50:kick.wav
320,192,68671,128,0,68759:0:0:0:90:snare.wav
448,192,68848,128,0,68936:0:0:0:90:hihat2.wav
192,192,69024,128,0,69377:0:0:0:50:kick.wav
448,192,69024,128,0,69201:0:0:0:0:
320,192,69201,1,0,0:0:0:90:hihat2.wav
64,192,69377,1,0,0:0:0:50:kick.wav
320,192,69377,128,0,69553:0:0:0:90:snare.wav
448,192,69377,128,0,69730:0:0:0:0:
64,192,69553,1,0,0:0:0:90:hihat2.wav
192,192,69730,128,0,69906:0:0:0:50:kick.wav
320,192,69730,128,0,69906:0:0:0:0:
448,192,69906,1,0,0:0:0:90:hihat2.wav
64,192,70083,1,0,0:0:0:50:kick.wav
192,192,70083,1,0,0:0:0:90:snare.wav
320,192,70083,128,0,70259:0:0:0:0:
64,192,70259,1,0,0:0:0:90:hihat2.wav
192,192,70436,128,0,70612:0:0:0:50:kick.wav
448,192,70436,128,0,70789:0:0:0:0:
320,192,70612,1,0,0:0:0:90:hihat2.wav
64,192,70789,128,0,70965:0:0:0:50:kick.wav
192,192,70789,1,0,0:0:0:90:snare.wav
320,192,70789,128,0,71142:0:0:0:0:
448,192,70965,128,0,71142:0:0:0:90:hihat2.wav
64,192,71142,128,0,71406:0:0:0:50:kick.wav
192,192,71142,128,0,71406:0:0:0:90:hihat.wav
320,192,71318,128,0,71495:0:0:0:90:hihat2.wav
64,192,71495,1,0,0:0:0:50:kick.wav
192,192,71495,1,0,0:0:0:90:snare.wav
448,192,71495,1,0,0:0:0:0:
64,192,71671,128,0,71848:0:0:0:90:hihat2.wav
320,192,71848,128,0,72112:0:0:0:50:kick.wav
448,192,71848,128,0,72112:0:0:0:0:
192,192,72024,128,0,72201:0:0:0:90:hihat2.wav
64,192,72201,1,0,0:0:0:50:kick.wav
320,192,72201,1,0,0:0:0:90:snare.wav
448,192,72201,1,0,0:0:0:0:
192,192,72377,128,0,72465:0:0:0:90:hihat2.wav
320,192,72377,128,0,72465:0:0:0:0:
64,192,72553,1,0,0:0:0:50:kick.wav
320,192,72553,1,0,0:0:0:50:finish2.wav
448,192,72553,1,0,0:0:0:50:crash.wav
64,192,72730,1,0,0:0:0:50:kick.wav
192,192,72730,1,0,0:0:0:90:snare.wav
320,192,72818,1,0,0:0:0:50:kick.wav
448,192,72818,1,0,0:0:0:70:t4.wav
64,192,72906,1,0,0:0:0:50:kick.wav
192,192,72906,1,0,0:0:0:0:
320,192,73083,1,0,0:0:0:50:kick.wav
448,192,73083,1,0,0:0:0:70:snare.wav
64,192,73171,1,0,0:0:0:70:snare.wav
192,192,73171,1,0,0:0:0:0:
320,192,73259,1,0,0:0:0:100:t4.wav
448,192,73259,128,0,73877:0:0:0:0:
64,192,73436,1,0,0:0:0:50:kick.wav
320,192,73436,1,0,0:0:0:100:t3.wav
64,192,73612,1,0,0:0:0:40:kick.wav
192,192,73612,1,0,0:0:0:100:t2.wav
192,192,73789,1,0,0:0:0:30:kick.wav
320,192,73789,1,0,0:0:0:100:t1.wav
64,192,73965,1,0,0:0:0:50:kick.wav
320,192,73965,1,0,0:0:0:50:finish2.wav
448,192,73965,1,0,0:0:0:50:crash.wav
64,192,74318,128,0,74583:0:0:0:0:
64,192,74671,1,0,0:0:0:90:hihat.wav
320,192,74671,1,0,0:0:0:0:
448,192,75024,128,0,75289:0:0:0:0:
192,192,75201,128,0,75377:0:0:0:0:
64,192,75377,1,0,0:0:0:50:kick.wav
448,192,75377,1,0,0:0:0:50:crash.wav
192,192,75553,128,0,75818:0:0:0:0:
448,192,75730,128,0,75995:0:0:0:0:
192,192,75906,128,0,76083:0:0:0:0:
64,192,76083,128,0,76171:0:0:0:50:kick.wav
448,192,76083,1,0,0:0:0:0:
64,192,76259,128,0,76436:0:0:0:0:
320,192,76436,128,0,76789:0:0:0:50:hihat2.wav
64,192,76789,128,0,76965:0:0:0:50:kick.wav
192,192,76789,1,0,0:0:0:50:finish2.wav
448,192,76789,1,0,0:0:0:50:crash.wav
320,192,76965,128,0,77142:0:0:0:0:
64,192,77142,1,0,0:0:0:80:snare.wav
192,192,77142,1,0,0:0:0:0:
448,192,77142,128,0,77318:0:0:0:0:
64,192,77318,128,0,77495:0:0:0:90:hihat.wav
192,192,77406,128,0,77495:0:0:0:0:
320,192,77495,1,0,0:0:0:50:kick.wav
448,192,77495,1,0,0:0:0:0:
64,192,77671,128,0,77759:0:0:0:90:hihat.wav
320,192,77759,128,0,77848:0:0:0:0:
64,192,77848,1,0,0:0:0:80:snare.wav
192,192,77848,128,0,77936:0:0:0:0:
448,192,77848,1,0,0:0:0:0:
320,192,77936,128,0,78024:0:0:0:0:
64,192,78024,128,0,78465:0:0:0:90:hihat.wav
320,192,78201,1,0,0:0:0:50:kick.wav
448,192,78201,1,0,0:0:0:0:
320,192,78377,128,0,78553:0:0:0:90:hihat.wav
64,192,78553,1,0,0:0:0:80:snare.wav
192,192,78553,1,0,0:0:0:0:
448,192,78553,128,0,78730:0:0:0:0:
64,192,78730,128,0,79083:0:0:0:90:hihat.wav
320,192,78906,1,0,0:0:0:50:kick.wav
448,192,78906,1,0,0:0:0:0:
192,192,79083,1,0,0:0:0:90:hihat.wav
64,192,79259,128,0,79612:0:0:0:80:snare.wav
320,192,79259,1,0,0:0:0:0:
448,192,79259,1,0,0:0:0:0:
192,192,79436,128,0,79612:0:0:0:90:hihat.wav
320,192,79612,1,0,0:0:0:50:kick.wav
448,192,79612,128,0,79789:0:0:0:0:
192,192,79789,128,0,79965:0:0:0:90:hihat.wav
64,192,79965,128,0,80142:0:0:0:80:snare.wav
320,192,79965,1,0,0:0:0:0:
448,192,79965,1,0,0:0:0:0:
448,192,80142,128,0,80318:0:0:0:90:hihat.wav
320,192,80230,128,0,80318:0:0:0:0:
64,192,80318,1,0,0:0:0:50:kick.wav
192,192,80318,1,0,0:0:0:0:
448,192,80495,128,0,80583:0:0:0:90:hihat.wav
192,192,80583,128,0,80671:0:0:0:0:
64,192,80671,1,0,0:0:0:80:snare.wav
320,192,80671,128,0,80759:0:0:0:0:
448,192,80671,1,0,0:0:0:0:
192,192,80759,128,0,80848:0:0:0:0:
448,192,80848,128,0,81289:0:0:0:90:hihat.wav
64,192,81024,1,0,0:0:0:50:kick.wav
320,192,81024,1,0,0:0:0:0:
192,192,81201,128,0,81377:0:0:0:90:hihat.wav
64,192,81377,128,0,81553:0:0:0:80:snare.wav
320,192,81377,1,0,0:0:0:0:
448,192,81377,1,0,0:0:0:0:
320,192,81553,128,0,81818:0:0:0:90:hihat.wav
64,192,81730,1,0,0:0:0:50:kick.wav
192,192,81730,1,0,0:0:0:0:
64,192,81906,1,0,0:0:0:90:hihat.wav
320,192,81906,1,0,0:0:0:80:snare.wav
448,192,81906,1,0,0:0:0:0:
192,192,82083,128,0,82171:0:0:0:50:kick.wav
320,192,82083,1,0,0:0:0:0:
64,192,82259,1,0,0:0:0:90:hihat.wav
192,192,82259,1,0,0:0:0:80:snare.wav
448,192,82259,128,0,82348:0:0:0:0:
320,192,82348,1,0,0:0:0:80:snare.wav
64,192,82436,128,0,82612:0:0:0:50:kick.wav
192,192,82436,1,0,0:0:0:50:finish2.wav
448,192,82436,1,0,0:0:0:0:
448,192,82612,128,0,82789:0:0:0:90:hihat.wav
64,192,82789,1,0,0:0:0:80:snare.wav
192,192,82789,1,0,0:0:0:0:
320,192,82789,128,0,82965:0:0:0:0:
64,192,82965,128,0,83142:0:0:0:90:hihat.wav
192,192,83053,128,0,83142:0:0:0:0:
320,192,83142,1,0,0:0:0:50:kick.wav
448,192,83142,128,0,83318:0:0:0:0:
64,192,83318,128,0,83406:0:0:0:90:hihat.wav
448,192,83406,128,0,83495:0:0:0:0:
64,192,83495,1,0,0:0:0:80:snare.wav
192,192,83495,128,0,83583:0:0:0:0:
320,192,83495,1,0,0:0:0:0:
448,192,83583,128,0,83671:0:0:0:0:
320,192,83671,128,0,84112:0:0:0:90:hihat.wav
64,192,83848,1,0,0:0:0:50:kick.wav
192,192,83848,1,0,0:0:0:0:
192,192,84024,128,0,84201:0:0:0:90:hihat.wav
64,192,84201,1,0,0:0:0:80:snare.wav
320,192,84201,1,0,0:0:0:0:
448,192,84201,128,0,84377:0:0:0:0:
64,192,84377,128,0,84730:0:0:0:90:hihat.wav
192,192,84553,1,0,0:0:0:50:kick.wav
448,192,84553,1,0,0:0:0:0:
320,192,84730,1,0,0:0:0:90:hihat.wav
64,192,84906,128,0,85259:0:0:0:80:snare.wav
192,192,84906,1,0,0:0:0:0:
448,192,84906,1,0,0:0:0:0:
320,192,85083,128,0,85259:0:0:0:90:hihat.wav
192,192,85259,1,0,0:0:0:50:kick.wav
448,192,85259,128,0,85436:0:0:0:0:
64,192,85436,128,0,85612:0:0:0:90:hihat.wav
192,192,85612,128,0,85789:0:0:0:80:snare.wav
320,192,85612,1,0,0:0:0:0:
448,192,85612,1,0,0:0:0:0:
448,192,85789,128,0,85965:0:0:0:90:hihat.wav
320,192,85877,128,0,85965:0:0:0:0:
64,192,85965,128,0,86142:0:0:0:50:kick.wav
192,192,85965,1,0,0:0:0:0:
320,192,86142,1,0,0:0:0:90:hihat.wav
448,192,86142,128,0,86230:0:0:0:80:snare.wav
64,192,86230,1,0,0:0:0:80:snare.wav
192,192,86230,128,0,86318:0:0:0:0:
320,192,86318,128,0,86406:0:0:0:50:kick.wav
448,192,86318,1,0,0:0:0:50:t3.wav
64,192,86406,128,0,86495:0:0:0:50:kick.wav
192,192,86495,128,0,86583:0:0:0:50:kick.wav
320,192,86495,128,0,86848:0:0:0:50:crash.wav
448,192,86495,128,0,86848:0:0:0:50:t2.wav
64,192,86848,128,0,87024:0:0:0:50:kick.wav
192,192,86848,1,0,0:0:0:0:
192,192,87024,1,0,0:0:0:90:hihat.wav
320,192,87024,1,0,0:0:0:80:snare.wav
448,192,87024,1,0,0:0:0:0:
64,192,87201,128,0,87553:0:0:0:50:kick.wav
320,192,87201,128,0,87289:0:0:0:40:finish2.wav
448,192,87201,128,0,87553:0:0:0:0:
192,192,87553,1,0,0:0:0:50:kick.wav
320,192,87553,1,0,0:0:0:0:
64,192,87730,128,0,87818:0:0:0:50:kick.wav
192,192,87730,128,0,87818:0:0:0:40:finish2.wav
448,192,87730,128,0,87818:0:0:0:80:snare.wav
64,192,87906,128,0,88083:0:0:0:50:kick.wav
320,192,87906,128,0,88083:0:0:0:20:finish2.wav
448,192,87906,128,0,88083:0:0:0:80:snare.wav
