osu file format v14

[General]
AudioFilename: audio.ogg
AudioLeadIn: 0
PreviewTime: 50407
Countdown: 0
SampleSet: Soft
StackLeniency: 0.7
Mode: 0
LetterboxInBreaks: 0
WidescreenStoryboard: 1

[Editor]
DistanceSpacing: 1.2
BeatDivisor: 4
GridSize: 32
TimelineZoom: 1.7

[Metadata]
Title:Shukufuku (TV Size)
TitleUnicode:祝福 (TV Size)
Artist:YOASOBI
ArtistUnicode:YOASOBI
Creator:-karUpA-
Version:pnky's Hard
Source:機動戦士ガンダム 水星の魔女
Tags:ゆりかごの星 -Yua CClemon pnky the blessing ayase ikura mobile suit gundam the witch from mercury kidou senshi gundam suisei no majo g_witch anime opening japanese electronic pop jpop j-pop
BeatmapID:3832418
BeatmapSetID:1862467

[Difficulty]
HPDrainRate:4
CircleSize:4.2
OverallDifficulty:7
ApproachRate:8
SliderMultiplier:1.42
SliderTickRate:1

[Events]
//Background and Video events
0,0,"BGZ.jpg",0,0
Video,-145,"mobilevid.mp4"
//Break Periods
//Storyboard Layer 0 (Background)
//Storyboard Layer 1 (Fail)
//Storyboard Layer 2 (Pass)
//Storyboard Layer 3 (Foreground)
//Storyboard Layer 4 (Overlay)
//Storyboard Sound Samples

[TimingPoints]
555,352.941176470588,4,2,1,50,1,0
6202,-111.111111111111,4,2,1,60,0,0
11849,-100,4,2,1,75,0,0
16702,-100,4,2,1,5,0,0
16790,-100,4,2,1,75,0,0
17496,-125,4,2,1,60,0,0
28790,-111.111111111111,4,2,1,70,0,0
31525,-111.111111111111,4,2,1,5,0,0
31613,-111.111111111111,4,2,1,70,0,0
48554,-142.857142857143,4,2,1,60,0,0
49790,-99.9999999999999,4,2,1,70,0,0
50496,-99.9999999999999,4,2,2,40,0,0
51378,-95.2380952380952,4,2,6,85,0,0
51731,-95.2380952380952,4,2,7,85,0,0
52084,-95.2380952380952,4,2,1,85,0,0
52260,-95.2380952380952,4,2,6,85,0,0
52790,-95.2380952380952,4,2,1,85,0,0
52966,-95.2380952380952,4,2,5,85,0,0
53143,-95.2380952380952,4,2,1,85,0,0
53319,-95.2380952380952,4,2,5,85,0,0
53672,-95.2380952380952,4,2,3,85,0,0
53849,-95.2380952380952,4,2,4,85,0,0
54025,-95.2380952380952,4,2,3,85,0,0
54202,-95.2380952380952,4,2,5,85,0,0
54554,-95.2380952380952,4,2,8,85,0,0
54643,-95.2380952380952,4,2,1,85,0,0
54731,-95.2380952380952,4,2,8,85,0,0
54907,-95.2380952380952,4,2,1,85,0,0
55084,-95.2380952380952,4,2,4,85,0,0
55613,-95.2380952380952,4,2,1,85,0,0
55790,-95.2380952380952,4,2,9,85,0,0
55966,-95.2380952380952,4,2,3,85,0,0
56496,-95.2380952380952,4,2,4,85,0,0
56672,-95.2380952380952,4,2,3,85,0,0
56849,-95.2380952380952,4,2,10,85,0,0
57025,-95.2380952380952,4,2,6,85,0,0
57290,-95.2380952380952,4,2,6,5,0,0
57378,-95.2380952380952,4,2,7,85,0,0
57731,-95.2380952380952,4,2,1,85,0,0
57907,-95.2380952380952,4,2,6,85,0,0
58172,-95.2380952380952,4,2,1,85,0,0
58260,-95.2380952380952,4,2,6,85,0,0
58437,-95.2380952380952,4,2,1,85,0,0
58613,-95.2380952380952,4,2,10,85,0,0
58790,-95.2380952380952,4,2,1,85,0,0
58966,-95.2380952380952,4,2,11,85,0,0
59143,-95.2380952380952,4,2,12,85,0,0
59319,-95.2380952380952,4,2,11,85,0,0
59496,-95.2380952380952,4,2,12,85,0,0
59672,-95.2380952380952,4,2,4,85,0,0
59849,-95.2380952380952,4,2,13,85,0,0
60025,-95.2380952380952,4,2,1,85,0,0
60202,-95.2380952380952,4,2,4,85,0,0
60378,-95.2380952380952,4,2,12,85,0,0
60554,-95.2380952380952,4,2,1,85,0,0
60731,-95.2380952380952,4,2,12,85,0,0
60907,-95.2380952380952,4,2,9,85,0,0
61084,-95.2380952380952,4,2,15,85,0,0
61260,-95.2380952380952,4,2,1,85,0,0
61437,-95.2380952380952,4,2,16,85,0,0
61790,-95.2380952380952,4,2,99,85,0,0
61878,-95.2380952380952,4,2,1,85,0,0
61966,-95.2380952380952,4,2,98,85,0,0
62143,-95.2380952380952,4,2,97,85,0,0
62231,-95.2380952380952,4,2,1,85,0,0
62319,-95.2380952380952,4,2,98,85,0,0
62496,-95.2380952380952,4,2,10,85,0,0
62584,-95.2380952380952,4,2,1,85,0,0
62672,-95.2380952380952,4,2,6,85,0,0
62937,-95.2380952380952,4,2,6,5,0,0
63025,-95.2380952380952,4,2,7,85,0,0
63378,-95.2380952380952,4,2,1,85,0,0
63554,-95.2380952380952,4,2,6,85,0,0
63907,-95.2380952380952,4,2,10,85,0,0
64084,-95.2380952380952,4,2,1,85,0,0
64260,-95.2380952380952,4,2,10,85,0,0
64613,-95.2380952380952,4,2,6,85,0,0
64790,-95.2380952380952,4,2,10,85,0,0
64966,-95.2380952380952,4,2,3,85,0,0
65143,-95.2380952380952,4,2,4,85,0,0
65319,-95.2380952380952,4,2,3,85,0,0
65496,-95.2380952380952,4,2,10,85,0,0
65849,-95.2380952380952,4,2,20,85,0,0
66202,-95.2380952380952,4,2,10,85,0,0
66554,-95.2380952380952,4,2,21,85,0,0
66907,-95.2380952380952,4,2,22,85,0,0
67260,-95.2380952380952,4,2,6,85,0,0
67613,-95.2380952380952,4,2,10,85,0,0
67966,-95.2380952380952,4,2,3,85,0,0
68231,-95.2380952380952,4,2,3,5,0,0
68319,-95.2380952380952,4,2,9,85,0,0
68672,-95.2380952380952,4,2,6,85,0,0
69025,-95.2380952380952,4,2,9,85,0,0
69378,-95.2380952380952,4,2,6,85,0,0
69731,-95.2380952380952,4,2,21,85,0,0
70084,-95.2380952380952,4,2,3,85,0,0
70437,-95.2380952380952,4,2,4,85,0,0
70790,-95.2380952380952,4,2,3,85,0,0
71143,-95.2380952380952,4,2,10,85,0,0
71849,-95.2380952380952,4,2,22,85,0,0
72202,-95.2380952380952,4,2,1,85,0,0
72378,-95.2380952380952,4,2,6,85,0,0
72731,-95.2380952380952,4,2,1,85,0,0
73260,-95.2380952380952,4,2,80,85,0,0
73349,-95.2380952380952,4,2,1,85,0,0
73966,-117.647058823529,4,2,9,75,0,0
74054,-117.647058823529,4,2,1,75,0,0
76790,-100,4,2,1,75,0,0

[Colours]
Combo1 : 255,128,192
Combo2 : 0,255,128
Combo3 : 255,255,128
Combo4 : 128,255,255

[HitObjects]
69,81,6202,6,0,P|103:89|138:94,1,63.8999980499268,6|2,1:2|0:0,0:0:0:0:
202,61,6554,1,2,1:2:0:0:
202,61,6731,2,0,P|260:46|332:36,1,127.799996099854,2|2,0:0|0:0,0:0:0:0:
397,78,7260,1,2,1:2:0:0:
397,78,7437,1,2,0:0:0:0:
490,199,7790,2,0,P|479:233|471:269,2,63.8999980499268,2|2|2,0:0|1:2|0:0,0:0:0:0:
415,178,8319,2,0,B|354:179|358:233|293:230,1,127.799996099854,0|2,1:2|1:2,0:0:0:0:
237,186,8849,1,2,0:0:0:0:
173,238,9025,5,2,1:2:0:0:
173,238,9202,2,0,L|189:305,1,63.8999980499268,2|2,0:0|1:2,0:0:0:0:
131,360,9554,2,0,P|55:336|56:286,1,127.799996099854,2|2,0:0|0:0,0:0:0:0:
22,224,10084,1,2,1:2:0:0:
22,224,10260,1,2,1:2:0:0:
490,160,11496,1,8,3:0:0:0:
354,57,11849,6,0,P|361:87|368:131,1,71,6|2,1:2|0:0,0:0:0:0:
412,199,12202,1,10,0:0:0:0:
350,255,12378,1,2,0:0:0:0:
350,255,12466,1,2,0:0:0:0:
350,255,12554,2,0,P|315:232|270:234,1,71,2|2,1:2|0:0,0:0:0:0:
215,277,12907,1,10,0:0:0:0:
125,254,13084,6,0,L|109:111,1,142,2|0,0:0|0:0,0:0:0:0:
127,32,13613,1,10,0:0:0:0:
212,39,13790,2,0,B|294:33|277:90|358:86,1,142,2|0,0:0|0:0,0:0:0:0:
417,45,14319,2,0,P|450:13|476:9,1,71,10|2,0:0|0:0,0:0:0:0:
417,129,14672,6,0,P|424:158|433:207,1,71,2|2,1:2|0:0,0:0:0:0:
498,251,15025,1,10,0:0:0:0:
435,308,15202,1,2,0:0:0:0:
435,308,15290,1,2,0:0:0:0:
435,308,15378,2,0,P|395:299|355:293,1,71,2|2,1:2|0:0,0:0:0:0:
328,274,15643,1,2,0:0:0:0:
328,274,15731,1,10,0:0:0:0:
243,318,15907,6,0,P|173:330|90:341,1,142,6|0,1:2|0:0,0:0:0:0:
122,255,16437,2,0,P|166:205|156:161,1,106.5,2|0,1:2|0:0,0:0:0:0:
171,128,16790,1,2,1:2:0:0:
20,47,17143,2,0,L|30:98,3,35.5,8|8|4|4,3:0|3:0|3:0|3:0,0:0:0:0:
19,121,17496,6,0,P|12:176|6:243,1,113.6,6|0,1:2|1:2,0:0:0:0:
48,300,18025,1,2,0:0:0:0:
48,300,18202,1,2,1:2:0:0:
179,366,18554,2,0,P|212:358|248:353,1,56.8,0|2,1:2|0:0,0:0:0:0:
298,316,18907,2,0,P|354:332|424:349,2,113.6,2|2|2,1:2|1:2|1:2,0:0:0:0:
213,194,19966,2,0,P|203:144|210:131,1,56.8,2|0,1:2|0:0,0:0:0:0:
272,112,20319,6,0,P|330:126|396:139,1,113.6,2|0,1:2|1:2,0:0:0:0:
439,88,20849,2,0,B|455:58|487:47|487:47|468:67|463:96,1,113.6,2|0,0:0|0:0,0:0:0:0:
497,156,21378,1,0,1:2:0:0:
403,270,21731,6,0,P|341:258|289:250,1,113.6,0|0,1:2|1:2,0:0:0:0:
236,199,22260,1,2,0:0:0:0:
173,238,22437,2,0,P|180:269|189:323,1,85.2,2|2,1:2|0:0,0:0:0:0:
168,352,22790,1,0,1:2:0:0:
98,328,22966,2,0,P|85:325|70:324,2,28.4,2|0|2,1:2|1:2|1:2,0:0:0:0:
53,186,23496,6,0,P|37:124|23:77,2,113.6,2|2|2,1:2|1:2|1:2,0:0:0:0:
182,115,24554,2,0,P|198:53|212:6,2,113.6,2|2|2,1:2|1:2|1:2,0:0:0:0:
273,237,25613,1,2,1:2:0:0:
273,237,25966,2,0,B|357:219|352:291|443:273,1,170.4,2|2,1:2|0:0,0:0:0:0:
489,225,26672,1,2,1:2:0:0:
413,103,27025,1,2,1:2:0:0:
413,103,27202,6,0,P|386:115|357:124,1,56.8,2|0,0:0|1:2,0:0:0:0:
288,157,27554,1,2,1:2:0:0:
231,108,27731,1,2,1:2:0:0:
231,108,27907,1,2,1:2:0:0:
160,145,28084,2,0,L|169:180,3,28.4,0|0|6|4,1:2|1:2|3:0|3:0,0:0:0:0:
148,208,28437,2,0,L|157:243,3,28.4,2|0|0|0,1:2|1:2|1:2|1:2,0:0:0:0:
133,274,28790,6,0,P|66:265|-6:260,1,127.799996099854,6|8,1:2|0:0,0:0:0:0:
24,346,29319,1,2,0:0:0:0:
24,346,29496,2,0,P|87:350|151:359,1,127.799996099854,2|8,1:2|0:0,0:0:0:0:
226,321,30025,1,2,0:0:0:0:
226,321,30202,5,2,1:2:0:0:
278,163,30554,2,0,P|269:122|265:93,1,63.8999980499268,10|0,0:0|0:0,0:0:0:0:
215,33,30907,2,0,P|256:24|285:20,1,63.8999980499268,2|0,1:2|0:0,0:0:0:0:
339,70,31260,2,0,P|400:83|443:89,1,95.8499970748902,10|0,0:0|0:0,0:0:0:0:
463,117,31613,6,0,B|476:125|493:130|493:130|515:159|513:203|478:223,1,127.799996099854,2|8,1:2|0:0,0:0:0:0:
467,297,32143,1,2,0:0:0:0:
387,320,32319,2,0,P|392:232|396:181,1,127.799996099854,2|8,1:2|0:0,0:0:0:0:
257,285,33025,6,0,P|219:320|195:326,1,63.8999980499268,0|0,1:2|0:0,0:0:0:0:
186,243,33378,2,0,P|136:227|119:209,1,63.8999980499268,8|0,0:0|0:0,0:0:0:0:
188,162,33731,2,0,B|174:132|174:132|178:102,1,63.8999980499268,2|0,1:2|0:0,0:0:0:0:
261,90,34084,2,0,B|274:119|274:119|270:149,1,63.8999980499268,10|0,2:2|0:0,0:0:0:0:
354,179,34437,6,0,B|417:168|415:212|500:204,2,127.799996099854,2|10|2,1:2|0:0|1:2,0:0:0:0:
292,234,35319,1,0,0:0:0:0:
292,234,35496,2,0,P|261:242|230:249,1,63.8999980499268,10|0,0:0|0:0,0:0:0:0:
155,301,35849,6,0,P|96:287|24:276,1,127.799996099854,2|10,1:2|0:0,0:0:0:0:
125,140,36554,2,0,P|184:126|256:115,1,127.799996099854,2|8,1:2|0:0,0:0:0:0:
323,156,37084,1,2,0:0:0:0:
387,94,37260,6,0,P|379:62|374:29,2,63.8999980499268,2|0|0,1:2|1:2|1:2,0:0:0:0:
467,141,37790,1,10,0:0:0:0:
467,141,37878,1,8,0:0:0:0:
467,141,37966,2,0,P|460:173|454:207,1,63.8999980499268,2|0,1:2|1:2,0:0:0:0:
504,270,38319,1,8,0:0:0:0:
438,331,38496,6,0,P|368:317|304:306,1,127.799996099854,4|10,1:2|0:0,0:0:0:0:
252,257,39025,1,10,3:0:0:0:
252,257,39202,1,6,3:3:0:0:
189,311,39378,1,2,1:2:0:0:
189,311,39554,1,10,0:0:0:0:
109,284,39731,2,0,L|121:209,1,63.8999980499268,2|10,1:2|0:0,0:0:0:0:
91,191,39996,1,8,0:0:0:0:
91,191,40084,6,0,L|79:116,1,63.8999980499268,6|2,1:2|0:0,0:0:0:0:
19,71,40437,1,10,0:0:0:0:
79,14,40613,2,0,B|146:5|138:55|202:50,1,127.799996099854,2|2,0:0|0:0,0:0:0:0:
268,103,41143,1,10,0:0:0:0:
268,103,41319,6,0,P|330:85|404:74,1,127.799996099854,2|2,0:0|0:0,0:0:0:0:
383,161,41849,1,10,0:0:0:0:
383,161,42025,2,0,P|351:166|320:174,1,63.8999980499268,2|0,0:0|1:2,0:0:0:0:
263,235,42378,2,0,P|232:226|200:221,2,63.8999980499268,2|10|2,0:0|0:0|0:0,0:0:0:0:
402,325,43084,6,0,P|408:287|416:257,1,63.8999980499268,2|10,0:0|0:0,0:0:0:0:
470,201,43437,1,2,0:0:0:0:
316,137,43790,2,0,P|310:99|302:69,1,63.8999980499268,2|10,0:0|0:0,0:0:0:0:
248,13,44143,1,2,0:0:0:0:
139,139,44496,6,0,P|101:145|71:153,1,63.8999980499268,2|10,0:0|0:0,0:0:0:0:
15,207,44849,1,2,0:0:0:0:
134,322,45202,1,10,0:0:0:0:
204,278,45378,1,10,3:0:0:0:
275,346,45554,1,10,0:0:0:0:
275,346,45643,1,8,0:0:0:0:
275,346,45731,6,0,P|313:334|345:329,1,63.8999980499268,6|2,1:2|0:0,0:0:0:0:
412,366,46084,1,10,0:0:0:0:
470,307,46260,2,0,P|454:235|443:172,1,127.799996099854,2|2,0:0|0:0,0:0:0:0:
507,126,46790,1,10,0:0:0:0:
442,74,46966,6,0,P|422:102|386:112,1,63.8999980499268,2|0,0:0|1:2,0:0:0:0:
320,147,47319,2,0,P|285:138|250:131,1,63.8999980499268,2|10,0:0|0:0,0:0:0:0:
186,89,47672,2,0,P|123:147|68:147,1,127.799996099854,2|2,0:0|0:0,0:0:0:0:
16,109,48202,1,10,0:0:0:0:
16,109,48378,5,2,1:2:0:0:
34,243,48731,2,0,P|22:267|17:292,2,49.6999984832764,2|2|0,0:0|0:0|0:0,0:0:0:0:
115,242,49260,2,0,P|93:197|83:148,1,99.3999969665528,2|2,0:0|0:0,0:0:0:0:
17,87,49790,6,0,P|89:61|162:54,1,142,10|8,0:0|0:0,0:0:0:0:
228,115,50319,1,8,0:0:0:0:
228,115,51378,6,0,B|303:98|308:144|377:127,1,149.099995449829,6|10,1:2|0:0,0:0:0:0:
448,176,51907,2,0,P|446:222|421:244,1,74.5499977249146,2|0,0:0|1:2,0:0:0:0:
387,323,52260,1,2,0:0:0:0:
387,323,52437,1,10,0:0:0:0:
298,284,52613,6,0,P|222:273|149:265,1,149.099995449829,2|2,0:0|0:0,0:0:0:0:
69,305,53143,1,8,0:0:0:0:
17,238,53319,1,2,0:0:0:0:
17,238,53496,2,0,P|19:195|43:171,1,74.5499977249146,2|2,1:2|0:0,0:0:0:0:
38,83,53849,2,0,P|76:63|109:72,1,74.5499977249146,10|2,0:0|0:0,0:0:0:0:
184,126,54202,6,0,B|264:124|250:171|327:173,1,149.099995449829,2|10,1:2|0:0,0:0:0:0:
359,206,54643,1,2,0:0:0:0:
359,206,54731,2,0,P|398:193|436:186,1,74.5499977249146,2|0,0:0|1:2,0:0:0:0:
485,116,55084,1,2,0:0:0:0:
485,116,55260,1,10,0:0:0:0:
427,47,55437,2,0,P|388:34|350:27,1,74.5499977249146,2|0,0:0|1:2,0:0:0:0:
277,70,55790,5,2,0:0:0:0:
277,70,55966,1,10,0:0:0:0:
109,7,56319,2,0,P|119:44|130:85,1,74.5499977249146,2|2,1:2|0:0,0:0:0:0:
42,103,56672,2,0,P|32:66|22:31,1,74.5499977249146,10|2,0:0|0:0,0:0:0:0:
107,166,57025,6,0,P|99:227|92:306,1,111.824996587372,6|0,1:2|0:0,0:0:0:0:
90,321,57378,1,10,0:0:0:0:
163,366,57554,2,0,P|193:335|245:334,1,74.5499977249146,2|0,0:0|1:2,0:0:0:0:
265,250,57907,1,2,0:0:0:0:
355,306,58084,1,10,0:0:0:0:
355,306,58172,1,2,0:0:0:0:
355,306,58260,6,0,P|432:326|517:339,1,149.099995449829,2|2,0:0|0:0,0:0:0:0:
478,249,58790,1,8,0:0:0:0:
398,219,58966,1,2,0:0:0:0:
398,219,59143,2,0,P|378:181|373:142,1,74.5499977249146,2|2,1:2|0:0,0:0:0:0:
291,111,59496,2,0,P|256:125|215:127,1,74.5499977249146,10|2,0:0|0:0,0:0:0:0:
160,49,59849,6,0,P|237:43|309:14,1,149.099995449829,2|10,1:2|0:0,0:0:0:0:
393,24,60378,2,0,P|433:25|468:53,1,74.5499977249146,2|0,0:0|1:2,0:0:0:0:
512,122,60731,1,2,0:0:0:0:
512,122,60907,1,10,0:0:0:0:
442,178,61084,6,0,P|433:218|427:263,1,74.5499977249146,2|4,0:0|1:2,0:0:0:0:
361,310,61437,1,10,0:0:0:0:
282,267,61613,1,10,0:0:0:0:
206,315,61790,2,0,P|209:327|214:353,2,37.2749988624573,10|8|10,3:0|3:0|3:0,0:0:0:0:
130,270,62143,1,6,3:0:0:0:
130,270,62231,1,4,3:0:0:0:
130,270,62319,1,6,3:0:0:0:
149,182,62496,1,2,1:2:0:0:
73,126,62672,6,0,B|54:56|54:56|71:81|93:90,1,111.824996587372,6|0,1:2|0:0,0:0:0:0:
127,68,63025,2,0,P|214:52|294:42,1,149.099995449829,14|0,0:0|1:2,0:0:0:0:
354,3,63554,1,2,0:0:0:0:
425,65,63731,1,10,0:0:0:0:
425,65,63907,6,0,P|409:134|396:228,1,149.099995449829,2|2,0:0|0:0,0:0:0:0:
319,257,64437,2,0,P|313:220|305:183,1,74.5499977249146,10|2,0:0|0:0,0:0:0:0:
217,202,64790,2,0,P|225:238|230:275,1,74.5499977249146,2|2,1:2|0:0,0:0:0:0:
293,346,65143,1,10,0:0:0:0:
293,346,65319,1,2,0:0:0:0:
202,381,65496,6,0,P|126:369|50:361,2,149.099995449829,2|10|2,1:2|0:0|1:2,0:0:0:0:
293,346,66378,1,0,0:0:0:0:
293,346,66554,2,0,P|331:337|375:330,1,74.5499977249146,10|0,0:0|0:0,0:0:0:0:
457,364,66907,6,0,P|491:320|454:235,1,149.099995449829,2|10,1:2|0:0,0:0:0:0:
395,185,67437,1,0,0:0:0:0:
395,185,67613,2,0,P|357:194|313:201,1,74.5499977249146,2|0,1:2|0:0,0:0:0:0:
240,161,67966,2,0,P|184:154|118:141,1,111.824996587372,10|0,0:0|0:0,0:0:0:0:
90,114,68319,6,0,P|79:68|99:41,1,74.5499977249146,6|0,1:2|0:0,0:0:0:0:
174,10,68672,2,0,B|253:-3|243:50|327:39,1,149.099995449829,10|2,0:0|1:2,0:0:0:0:
394,95,69202,1,0,0:0:0:0:
394,95,69378,2,0,P|427:71|474:67,1,74.5499977249146,10|0,0:0|0:0,0:0:0:0:
461,162,69731,6,0,P|455:198|449:241,1,74.5499977249146,2|0,1:2|0:0,0:0:0:0:
361,253,70084,2,0,P|366:216|372:179,1,74.5499977249146,10|0,0:0|0:0,0:0:0:0:
283,193,70437,2,0,P|277:229|271:272,1,74.5499977249146,2|0,1:2|0:0,0:0:0:0:
182,278,70790,2,0,P|187:241|193:204,1,74.5499977249146,10|0,0:0|0:0,0:0:0:0:
127,132,71143,6,0,P|63:168|64:246,1,149.099995449829,2|8,1:2|0:0,0:0:0:0:
46,329,71672,1,0,0:0:0:0:
46,329,71849,2,0,P|118:310|203:295,1,149.099995449829,2|8,1:2|0:0,0:0:0:0:
273,259,72378,1,2,0:0:0:0:
351,324,72554,5,2,1:2:0:0:
351,324,72731,1,8,0:0:0:0:
426,263,72907,2,0,P|417:221|409:181,1,74.5499977249146,8|8,0:0|3:0,0:0:0:0:
435,153,73172,1,8,3:0:0:0:
435,153,73260,1,10,3:0:0:0:
377,84,73437,1,4,3:0:0:0:
303,134,73613,2,0,P|261:143|221:151,1,74.5499977249146,0|0,1:2|1:2,0:0:0:0:
165,203,73966,6,0,P|85:192|26:184,2,120.70000230217,6|2|2,1:2|0:0|0:0,0:0:0:0:
275,297,75025,2,0,P|307:288|339:282,1,60.3500011510849,2|0,0:0|0:0,0:0:0:0:
394,224,75378,2,0,P|417:267|402:336,1,120.70000230217,4|2,1:2|0:0,0:0:0:0:
327,369,75907,1,2,0:0:0:0:
327,369,76084,1,2,1:2:0:0:
166,314,76437,1,2,0:0:0:0:
166,314,76790,6,0,P|155:273|147:231,1,71,6|2,1:2|0:0,0:0:0:0:
203,179,77143,1,10,0:0:0:0:
136,142,77319,1,2,0:0:0:0:
136,142,77407,1,2,0:0:0:0:
136,142,77496,2,0,P|108:172|69:176,1,71,2|2,1:2|0:0,0:0:0:0:
15,121,77849,1,10,0:0:0:0:
54,37,78025,6,0,P|122:47|202:61,1,142,2|0,0:0|0:0,0:0:0:0:
261,119,78554,1,10,0:0:0:0:
261,119,78731,2,0,P|330:106|401:96,1,142,2|0,0:0|0:0,0:0:0:0:
392,181,79260,2,0,P|356:186|321:192,1,71,10|2,0:0|0:0,0:0:0:0:
243,241,79613,6,0,P|226:278|243:309,1,71,2|2,1:2|0:0,0:0:0:0:
301,359,79966,1,10,0:0:0:0:
379,318,80143,1,2,0:0:0:0:
379,318,80231,1,2,0:0:0:0:
379,318,80319,2,0,P|414:309|459:303,1,71,2|2,1:2|0:0,0:0:0:0:
470,268,80584,1,2,0:0:0:0:
470,268,80672,1,10,0:0:0:0:
419,190,80849,6,0,P|402:99|395:45,1,142,2|0,0:0|0:0,0:0:0:0:
316,17,81378,2,0,P|280:27|267:65,1,71,10|2,0:0|0:0,0:0:0:0:
206,116,81731,1,0,1:2:0:0:
206,116,81907,1,10,0:0:0:0:
127,81,82084,2,0,P|92:76|52:73,1,71,10|10,0:0|0:0,0:0:0:0:
25,101,82349,1,8,0:0:0:0:
25,101,82437,6,0,P|20:136|17:176,1,71,6|2,1:2|0:0,0:0:0:0:
50,250,82790,1,10,0:0:0:0:
128,210,82966,1,2,0:0:0:0:
128,210,83054,1,2,0:0:0:0:
128,210,83143,2,0,P|161:188|221:192,1,71,2|2,1:2|0:0,0:0:0:0:
269,243,83496,1,10,0:0:0:0:
269,243,83672,6,0,P|344:259|421:268,1,142,2|0,0:0|0:0,0:0:0:0:
461,199,84202,1,10,0:0:0:0:
438,117,84378,2,0,P|367:107|298:92,1,142,2|0,0:0|0:0,0:0:0:0:
218,62,84907,2,0,P|209:38|231:-2,1,71,10|2,0:0|0:0,0:0:0:0:
230,145,85260,6,0,P|197:154|148:166,1,71,2|2,1:2|0:0,0:0:0:0:
91,113,85613,1,10,0:0:0:0:
29,171,85790,1,2,0:0:0:0:
29,171,85878,1,2,0:0:0:0:
29,171,85966,2,0,P|39:210|46:249,1,71,2|10,1:2|0:0,0:0:0:0:
83,267,86231,1,10,0:0:0:0:
83,267,86319,1,10,0:0:0:0:
72,359,86496,6,0,P|144:342|230:326,1,142,6|0,1:2|1:2,0:0:0:0:
277,264,87025,1,10,0:0:0:0:
277,264,87202,2,0,P|317:309|399:311,1,142,6|8,1:2|0:2,0:0:0:0:
456,244,87731,1,10,0:2:0:0:
456,244,87907,1,10,0:2:0:0:
