osu file format v14

[General]
AudioFilename: audio.ogg
AudioLeadIn: 0
PreviewTime: 50407
Countdown: 0
SampleSet: Soft
StackLeniency: 0.7
Mode: 0
LetterboxInBreaks: 0
WidescreenStoryboard: 1

[Editor]
DistanceSpacing: 0.3
BeatDivisor: 4
GridSize: 32
TimelineZoom: 1.7

[Metadata]
Title:Shukufuku (TV Size)
TitleUnicode:祝福 (TV Size)
Artist:YOASOBI
ArtistUnicode:YOASOBI
Creator:-karUpA-
Version:Yua's Insane
Source:機動戦士ガンダム 水星の魔女
Tags:ゆりかごの星 -Yua CClemon pnky the blessing ayase ikura mobile suit gundam the witch from mercury kidou senshi gundam suisei no majo g_witch anime opening japanese electronic pop jpop j-pop
BeatmapID:3829735
BeatmapSetID:1862467

[Difficulty]
HPDrainRate:5
CircleSize:4
OverallDifficulty:7.4
ApproachRate:9
SliderMultiplier:1.7
SliderTickRate:1

[Events]
//Background and Video events
0,0,"BGZ.jpg",0,0
Video,-145,"mobilevid.mp4"
//Break Periods
//Storyboard Layer 0 (Background)
//Storyboard Layer 1 (Fail)
//Storyboard Layer 2 (Pass)
//Storyboard Layer 3 (Foreground)
//Storyboard Layer 4 (Overlay)
//Storyboard Sound Samples

[TimingPoints]
555,352.941176470588,4,2,1,50,1,0
555,-166.666666666667,4,2,1,50,0,0
6202,-100,4,2,1,60,0,0
11760,-111.111111111111,4,2,1,60,0,0
11849,-100,4,2,1,75,0,0
16702,-100,4,2,1,5,0,0
16790,-100,4,2,1,75,0,0
17054,-100,4,2,1,5,0,0
17143,-100,4,2,1,75,0,0
17496,-125,4,2,1,60,0,0
24466,-125,4,2,1,5,0,0
24554,-125,4,2,1,60,0,0
28790,-111.111111111111,4,2,1,70,0,0
31525,-111.111111111111,4,2,1,5,0,0
31613,-111.111111111111,4,2,1,70,0,0
34702,-111.111111111111,4,2,1,5,0,0
34790,-125,4,2,1,70,0,0
48731,-166.666666666667,4,2,1,60,0,0
49790,-166.666666666667,4,2,1,70,0,0
50363,-166.666666666667,4,2,1,5,0,0
50496,-111.111111111111,4,2,2,40,0,0
51378,-100,4,2,6,85,0,1
51731,-100,4,2,7,85,0,1
52084,-100,4,2,1,85,0,1
52260,-100,4,2,6,85,0,1
52790,-100,4,2,1,85,0,1
52878,-100,4,2,1,5,0,1
52966,-100,4,2,5,85,0,1
53143,-100,4,2,1,85,0,1
53319,-100,4,2,5,85,0,1
53672,-100,4,2,3,85,0,1
53849,-100,4,2,4,85,0,1
54025,-100,4,2,3,85,0,1
54202,-100,4,2,5,85,0,1
54554,-100,4,2,8,85,0,1
54819,-100,4,2,1,85,0,1
54907,-100,4,2,1,85,0,1
55084,-100,4,2,4,85,0,1
55613,-100,4,2,1,85,0,1
55790,-100,4,2,9,85,0,1
55966,-100,4,2,3,85,0,1
56496,-100,4,2,4,85,0,1
56672,-100,4,2,3,85,0,1
56849,-100,4,2,10,85,0,1
57025,-100,4,2,6,85,0,1
57378,-100,4,2,7,85,0,1
57731,-100,4,2,1,85,0,1
57907,-100,4,2,6,85,0,1
58172,-100,4,2,1,85,0,1
58260,-100,4,2,6,85,0,1
58437,-100,4,2,1,85,0,1
58613,-100,4,2,10,85,0,1
58790,-100,4,2,1,85,0,1
58966,-100,4,2,11,85,0,1
59143,-100,4,2,12,85,0,1
59319,-100,4,2,11,85,0,1
59496,-100,4,2,12,85,0,1
59672,-100,4,2,4,85,0,1
59849,-100,4,2,13,85,0,1
60025,-100,4,2,1,85,0,1
60202,-100,4,2,4,85,0,1
60378,-100,4,2,12,85,0,1
60554,-100,4,2,1,85,0,1
60731,-100,4,2,12,85,0,1
60907,-100,4,2,9,85,0,1
61084,-100,4,2,15,85,0,1
61260,-100,4,2,1,85,0,1
61349,-100,4,2,1,5,0,1
61437,-100,4,2,16,85,0,1
61790,-100,4,2,99,85,0,1
61878,-100,4,2,1,85,0,1
61966,-100,4,2,98,85,0,1
62143,-100,4,2,97,85,0,1
62231,-100,4,2,1,85,0,1
62319,-100,4,2,98,85,0,1
62496,-100,4,2,10,85,0,1
62584,-100,4,2,1,85,0,1
62672,-166.666666666667,4,2,6,85,0,1
62937,-100,4,2,6,5,0,1
63025,-83.3333333333333,4,2,7,85,0,1
63378,-100,4,2,1,85,0,1
63554,-100,4,2,6,85,0,1
63907,-100,4,2,10,85,0,1
64084,-100,4,2,1,85,0,1
64260,-100,4,2,10,85,0,1
64613,-100,4,2,6,85,0,1
64790,-100,4,2,10,85,0,1
64966,-100,4,2,3,85,0,1
65143,-100,4,2,4,85,0,1
65319,-100,4,2,3,85,0,1
65496,-100,4,2,10,85,0,1
65849,-100,4,2,20,85,0,1
66202,-100,4,2,10,85,0,1
66554,-100,4,2,21,85,0,1
66907,-100,4,2,22,85,0,1
67260,-100,4,2,6,85,0,1
67613,-100,4,2,10,85,0,1
67966,-100,4,2,3,85,0,1
68319,-100,4,2,9,85,0,1
68672,-100,4,2,6,85,0,1
69025,-100,4,2,9,85,0,1
69378,-100,4,2,6,85,0,1
69731,-100,4,2,21,85,0,1
70084,-100,4,2,3,85,0,1
70437,-100,4,2,4,85,0,1
70790,-100,4,2,3,85,0,1
71143,-100,4,2,10,85,0,1
71849,-100,4,2,22,85,0,1
72202,-100,4,2,1,85,0,1
72378,-100,4,2,6,85,0,1
72731,-100,4,2,1,85,0,1
73260,-100,4,2,80,85,0,1
73349,-100,4,2,1,85,0,1
73966,-250,4,2,9,75,0,0
74054,-250,4,2,1,75,0,0
76790,-100,4,2,1,75,0,0
81819,-100,4,2,1,5,0,0
81907,-100,4,2,1,75,0,0

[Colours]
Combo1 : 255,128,192
Combo2 : 0,255,128
Combo3 : 255,255,128
Combo4 : 128,255,255

[HitObjects]
8,312,555,6,0,L|179:273,1,152.999995330811,2|2,1:2|0:0,0:0:0:0:
208,343,1260,2,0,P|265:322|276:227,1,152.999995330811,8|2,0:0|0:0,0:0:0:0:
307,162,1966,6,0,P|339:178|354:202,1,50.9999984436036,0|2,0:0|0:0,0:0:0:0:
416,229,2319,2,0,P|418:264|404:289,1,50.9999984436036,2|2,1:2|0:0,0:0:0:0:
440,354,2672,2,0,P|492:353|499:296,1,101.999996887207,8|2,0:0|0:0,0:0:0:0:
506,311,3378,6,0,L|524:241,1,50.9999984436036,0|2,1:2|0:0,0:0:0:0:
488,182,3731,2,0,L|475:132,1,50.9999984436036,2|2,1:2|0:0,0:0:0:0:
500,51,4084,2,0,B|480:46|474:43|474:43|390:70,1,101.999996887207,8|2,0:0|0:0,0:0:0:0:
326,117,4613,2,0,B|306:122|300:125|300:125|228:102,1,101.999996887207,2|2,0:0|0:0,0:0:0:0:
133,61,5143,2,0,L|145:121,1,50.9999984436036,2|2,1:2|0:0,0:0:0:0:
101,185,5496,1,8,0:0:0:0:
26,130,5672,1,2,0:0:0:0:
19,256,5849,1,2,0:0:0:0:
130,196,6025,1,2,0:0:0:0:
147,326,6202,6,0,P|175:284|208:264,1,85,6|2,1:2|0:0,0:0:0:0:
353,344,6554,2,0,L|266:360,1,85,2|2,1:2|0:0,0:0:0:0:
193,234,6907,1,0,1:2:0:0:
340,170,7084,6,0,B|362:195|366:196|366:196|353:252,2,85,2|2|2,0:0|1:2|0:0,0:0:0:0:
247,104,7613,1,0,1:2:0:0:
279,221,7790,2,0,B|246:227|243:230|243:230|201:191,2,85,2|2|2,0:0|1:2|0:0,0:0:0:0:
382,173,8319,1,0,1:2:0:0:
266,142,8496,2,0,B|276:110|275:106|275:106|330:89,2,85,2|2|2,0:0|1:2|0:0,0:0:0:0:
167,66,9025,5,2,1:2:0:0:
45,26,9202,2,0,L|69:118,1,85,2|2,0:0|1:2,0:0:0:0:
152,222,9554,2,0,L|176:130,1,85,2|0,0:0|1:2,0:0:0:0:
50,230,9907,1,2,0:0:0:0:
249,186,10084,1,2,1:2:0:0:
190,370,10260,1,2,1:2:0:0:
256,192,10437,12,8,11496,3:0:0:0:
512,156,11849,5,6,1:2:0:0:
417,266,12025,1,2,0:0:0:0:
332,120,12202,2,0,L|352:207,1,85,10|2,0:0|0:0,0:0:0:0:
346,221,12466,1,2,0:0:0:0:
346,221,12554,2,0,B|332:268,1,42.5,2|2,1:2|0:0,0:0:0:0:
213,349,12731,5,2,0:0:0:0:
171,343,12819,1,2,0:0:0:0:
136,319,12907,1,10,0:0:0:0:
116,282,12995,1,2,0:0:0:0:
116,241,13084,2,0,B|91:136|153:191|114:71,1,170,2|0,0:0|0:0,0:0:0:0:
198,12,13613,2,0,P|239:45|283:42,1,85,10|2,0:0|0:0,0:0:0:0:
380,91,13966,2,0,P|347:132|350:176,1,85,0|0,1:2|0:0,0:0:0:0:
484,293,14319,1,10,0:0:0:0:
422,156,14496,1,2,0:0:0:0:
298,238,14672,5,2,1:2:0:0:
463,285,14849,1,2,0:0:0:0:
299,330,15025,2,0,B|279:305|279:305|299:217,1,85,10|2,0:0|0:0,0:0:0:0:
298,238,15290,1,2,0:0:0:0:
298,238,15378,2,0,L|283:173,1,42.5,2|2,1:2|0:0,0:0:0:0:
286,30,15554,5,2,0:0:0:0:
244,29,15642,1,2,0:0:0:0:
207,50,15730,1,10,0:0:0:0:
188,87,15818,1,2,0:0:0:0:
191,130,15907,2,0,B|288:108|288:108|318:137|382:124,1,170,6|0,1:2|0:0,0:0:0:0:
439,15,16437,6,0,P|379:5|343:72,1,127.5,2|0,1:2|0:0,0:0:0:0:
342,53,16790,2,0,B|350:83|373:108|373:108|361:200,1,127.5,2|0,1:2|0:0,0:0:0:0:
364,171,17143,2,0,L|373:222,1,42.5,8|8,3:0|3:0,0:0:0:0:
456,166,17319,2,0,L|448:124,1,42.5,4|4,3:0|3:0,0:0:0:0:
512,249,17496,6,0,P|483:271|432:272,1,68,6|0,1:2|0:0,0:0:0:0:
410,345,17849,2,0,P|376:330|350:287,1,68,0|2,1:2|0:0,0:0:0:0:
275,304,18202,2,0,P|270:267|295:223,1,68,2|0,1:2|0:0,0:0:0:0:
371,212,18554,1,0,1:2:0:0:
304,129,18731,1,2,0:0:0:0:
304,129,18819,1,2,0:0:0:0:
304,129,18907,6,0,B|279:128|256:110|256:110|151:130,2,136,2|2|2,1:2|1:2|1:2,0:0:0:0:
375,74,19790,1,0,0:0:0:0:
375,74,19966,2,0,P|337:48|299:57,1,68,2|0,1:2|0:0,0:0:0:0:
238,0,20319,2,0,B|160:8|197:55|100:52,1,136,2|0,1:2|1:2,0:0:0:0:
30,32,20849,1,2,0:0:0:0:
30,32,21025,2,0,L|49:115,1,68,0|0,1:2|0:0,0:0:0:0:
94,172,21378,2,0,L|75:255,1,68,0|0,1:2|1:2,0:0:0:0:
78,238,21643,1,0,1:2:0:0:
78,238,21731,6,0,P|110:240|152:278,1,68,0|0,1:2|0:0,0:0:0:0:
181,331,22084,2,0,B|213:322|213:322|237:285,1,68,0|2,1:2|0:0,0:0:0:0:
299,240,22437,2,0,B|331:249|331:249|348:271|348:271|408:271,2,102,2|2|2,1:2|0:0|1:2,0:0:0:0:
289,235,23054,1,0,1:2:0:0:
289,235,23143,6,0,L|315:156,1,68,2|0,1:2|0:0,0:0:0:0:
333,91,23496,2,0,L|251:107,1,68,2|0,1:2|0:0,0:0:0:0:
187,125,23849,2,0,L|242:187,1,68,2|0,1:2|0:0,0:0:0:0:
289,235,24202,2,0,B|333:215|338:207|338:207|407:232,1,102,2|0,1:2|0:0,0:0:0:0:
380,222,24554,6,0,P|443:229|471:148,1,136,2|2,1:2|1:2,0:0:0:0:
441,110,25084,1,0,0:0:0:0:
441,110,25260,2,0,P|407:114|378:145,1,68,2|0,1:2|0:0,0:0:0:0:
318,187,25613,2,0,P|304:218|316:259,1,68,2|0,1:2|0:0,0:0:0:0:
387,308,25966,6,0,B|304:303|346:350|238:339,1,136,2|0,1:2|1:2,0:0:0:0:
185,291,26496,1,2,0:0:0:0:
185,291,26672,2,0,P|204:316|218:360,1,68,2|0,1:2|0:0,0:0:0:0:
130,354,27025,1,2,1:2:0:0:
73,293,27202,2,0,L|107:149,1,136,2|2,0:0|1:2,0:0:0:0:
177,30,27731,5,2,1:2:0:0:
34,93,27907,1,2,1:2:0:0:
203,155,28084,1,0,1:2:0:0:
227,148,28172,1,0,1:2:0:0:
252,141,28260,1,6,3:0:0:0:
276,134,28348,1,4,3:0:0:0:
301,127,28437,2,0,L|287:184,3,34,2|0|0|0,1:2|1:2|1:2|1:2,0:0:0:0:
310,194,28790,6,0,L|331:288,1,76.4999976654053,6|0,1:2|0:0,0:0:0:0:
406,359,29143,1,8,0:0:0:0:
431,251,29319,1,2,0:0:0:0:
314,344,29496,2,0,P|276:332|254:295,1,76.4999976654053,2|0,1:2|0:0,0:0:0:0:
183,250,29849,2,0,L|91:273,1,76.4999976654053,8|2,0:0|0:0,0:0:0:0:
91,273,30113,1,2,0:0:0:0:
91,273,30202,6,0,B|84:253|70:236|70:236|83:177,1,76.4999976654053,2|0,1:2|0:0,0:0:0:0:
207,128,30554,2,0,P|188:158|136:164,1,76.4999976654053,10|0,0:0|0:0,0:0:0:0:
55,96,30907,2,0,B|67:88|86:75|86:75|138:101,1,76.4999976654053,2|0,1:2|0:0,0:0:0:0:
230,145,31260,2,0,P|256:77|310:36,1,114.749996498108,10|0,0:0|0:0,0:0:0:0:
285,49,31613,6,0,B|320:55|344:38|344:38|379:56|379:56|456:41,1,152.999995330811,2|8,1:2|0:0,0:0:0:0:
510,120,32143,1,2,0:0:0:0:
412,171,32319,2,0,L|389:89,1,76.4999976654053,2|0,1:2|0:0,0:0:0:0:
483,231,32672,2,0,L|462:304,1,76.4999976654053,8|0,0:0|1:2,0:0:0:0:
460,326,32937,1,0,1:2:0:0:
460,326,33025,6,0,B|423:347|423:347|364:336,1,76.4999976654053,0|0,1:2|0:0,0:0:0:0:
324,283,33378,1,8,0:0:0:0:
256,335,33554,1,0,1:2:0:0:
256,335,33643,1,0,1:2:0:0:
256,335,33731,2,0,L|179:349,1,76.4999976654053,2|0,1:2|0:0,0:0:0:0:
241,250,34084,2,0,L|164:264,1,76.4999976654053,10|0,0:0|0:0,0:0:0:0:
74,306,34437,6,0,B|67:282|59:272|59:272|91:241|87:176,1,114.749996498108,2|0,1:2|0:0,0:0:0:0:
87,201,34790,2,0,L|65:116,1,68,10|0,0:0|0:0,0:0:0:0:
14,18,35143,2,0,P|50:25|82:57,1,68,2|0,1:2|0:0,0:0:0:0:
170,101,35496,2,0,P|206:94|238:62,1,68,10|0,0:0|0:0,0:0:0:0:
332,11,35849,2,0,B|325:42|306:59|306:59|337:152,2,136,2|10|2,1:2|0:0|1:2,0:0:0:0:
435,81,36731,1,0,0:0:0:0:
435,81,36907,2,0,L|411:177,1,68,8|2,0:0|0:0,0:0:0:0:
381,305,37260,5,2,1:2:0:0:
297,172,37437,1,0,1:2:0:0:
463,257,37613,1,0,1:2:0:0:
302,321,37790,1,10,0:0:0:0:
302,321,37878,1,8,0:0:0:0:
302,321,37966,2,0,P|256:317|229:291,1,68,2|0,1:2|1:2,0:0:0:0:
160,190,38319,1,8,0:0:0:0:
85,359,38496,2,0,B|69:348|54:347|54:347|175:323,1,136,4|10,1:2|0:0,0:0:0:0:
280,278,39025,6,0,L|262:343,1,68,10|6,3:0|3:3,0:0:0:0:
160,190,39378,1,2,1:2:0:0:
191,301,39554,1,10,0:0:0:0:
269,128,39731,1,2,1:2:0:0:
75,216,39907,1,10,0:0:0:0:
75,216,39996,1,8,0:0:0:0:
75,216,40084,5,6,1:2:0:0:
236,214,40260,1,2,0:0:0:0:
117,282,40437,1,10,0:0:0:0:
74,132,40613,2,0,P|99:96|140:82,1,68,2|0,0:0|1:2,0:0:0:0:
258,35,40966,5,2,0:0:0:0:
151,156,41143,1,10,0:0:0:0:
273,25,41319,2,0,L|366:43,1,68,2|0,0:0|1:2,0:0:0:0:
500,99,41672,5,2,0:0:0:0:
315,109,41849,1,10,0:0:0:0:
458,27,42025,2,0,P|425:58|416:96,1,68,2|0,0:0|1:2,0:0:0:0:
459,250,42378,5,2,0:0:0:0:
500,99,42554,1,10,0:0:0:0:
358,211,42731,2,0,L|374:288,1,68,2|0,0:0|1:2,0:0:0:0:
311,122,43084,5,2,0:0:0:0:
207,234,43260,1,10,0:0:0:0:
371,277,43437,2,0,P|408:264|432:229,1,68,2|0,0:0|1:2,0:0:0:0:
310,327,43790,5,2,0:0:0:0:
240,165,43966,1,10,0:0:0:0:
318,342,44143,2,0,L|228:327,1,68,2|0,0:0|1:2,0:0:0:0:
96,276,44496,5,2,0:0:0:0:
166,361,44672,2,0,P|173:321|204:276,1,68,10|2,0:0|0:0,0:0:0:0:
306,215,45025,5,0,1:2:0:0:
151,164,45202,1,10,0:0:0:0:
344,82,45378,1,10,3:0:0:0:
147,23,45554,1,10,0:0:0:0:
147,23,45643,1,8,0:0:0:0:
147,23,45731,5,6,1:2:0:0:
58,144,45907,1,2,0:0:0:0:
205,97,46084,1,10,0:0:0:0:
54,70,46260,2,0,B|49:83|41:98|41:98|53:152,1,68,2|0,0:0|1:2,0:0:0:0:
159,236,46613,5,2,0:0:0:0:
205,97,46790,1,10,0:0:0:0:
78,205,46966,2,0,L|-5:215,1,68,2|0,0:0|1:2,0:0:0:0:
204,306,47319,5,2,0:0:0:0:
146,154,47496,1,10,0:0:0:0:
212,322,47672,2,0,P|239:338|288:326,1,68,2|0,0:0|1:2,0:0:0:0:
385,169,48025,5,2,0:0:0:0:
437,356,48202,1,10,0:0:0:0:
253,232,48378,1,2,1:2:0:0:
247,221,48731,5,2,0:0:0:0:
168,155,48907,2,0,L|118:165,1,50.9999984436036,2|0,0:0|0:0,0:0:0:0:
301,111,49260,1,2,0:0:0:0:
215,87,49437,1,2,0:0:0:0:
277,27,49613,1,2,0:0:0:0:
168,155,49790,1,10,0:0:0:0:
155,167,50143,5,8,0:0:0:0:
385,103,50319,2,0,L|402:107,1,12.7499996109009,8|0,0:0|0:0,0:0:0:0:
492,156,51378,6,0,B|463:174|463:174|317:157,1,170,6|10,1:2|0:0,0:0:0:0:
180,100,51907,2,0,L|201:182,1,85,2|0,0:0|1:2,0:0:0:0:
270,350,52260,1,2,0:0:0:0:
354,217,52437,1,10,0:0:0:0:
192,314,52613,2,0,B|122:301|122:301|95:325|46:323,1,127.5,2|0,0:0|0:0,0:0:0:0:
70,322,52966,2,0,B|64:302|55:283|55:283|74:215,1,85,2|8,0:0|0:0,0:0:0:0:
106,78,53319,5,2,0:0:0:0:
176,221,53496,1,2,1:2:0:0:
34,135,53672,1,2,0:0:0:0:
215,87,53849,1,10,0:0:0:0:
26,9,54025,1,2,0:0:0:0:
232,101,54202,2,0,B|288:106|288:106|331:76|331:76|364:72|412:98,1,170,2|10,1:2|0:0,0:0:0:0:
491,201,54731,1,2,0:0:0:0:
491,201,54819,1,2,0:0:0:0:
491,201,54907,6,0,P|442:187|425:142,1,85,0|2,1:2|0:0,0:0:0:0:
470,34,55260,1,10,0:0:0:0:
350,167,55437,2,0,B|342:190|325:214|325:214|349:336,1,170,2|2,0:0|0:0,0:0:0:0:
221,363,55966,2,0,B|197:358|180:340|180:340|159:353|132:350,1,85,10|0,0:0|0:0,0:0:0:0:
8,204,56319,5,2,1:2:0:0:
140,277,56496,1,2,0:0:0:0:
4,188,56672,1,10,0:0:0:0:
0,352,56849,1,2,0:0:0:0:
0,170,57025,6,0,B|57:159|57:159|85:168|104:180|104:180|131:175|184:159,1,170,6|10,1:2|0:0,0:0:0:0:
237,47,57554,2,0,B|202:144|275:107|232:230,1,170,2|2,0:0|0:0,0:0:0:0:
300,349,58084,1,10,0:0:0:0:
300,349,58172,1,2,0:0:0:0:
300,349,58260,2,0,P|343:273|441:267,1,170,2|2,0:0|0:0,0:0:0:0:
481,367,58790,2,0,L|392:348,1,85,8|2,0:0|0:0,0:0:0:0:
240,267,59143,5,2,1:2:0:0:
309,357,59319,1,2,0:0:0:0:
393,190,59496,1,10,0:0:0:0:
324,280,59672,1,2,0:0:0:0:
258,122,59849,6,0,B|321:113|321:113|344:86|344:86|416:77,1,170,2|10,1:2|0:0,0:0:0:0:
239,44,60378,2,0,P|195:68|177:106,1,85,2|0,0:0|1:2,0:0:0:0:
114,233,60731,1,2,0:0:0:0:
52,87,60907,1,10,0:0:0:0:
199,194,61084,2,0,B|217:225|217:225|197:269|197:269|213:300|213:336,1,127.5,2|0,0:0|0:0,0:0:0:0:
213,331,61437,5,10,0:0:0:0:
386,264,61613,1,10,0:0:0:0:
317,368,61790,1,10,3:0:0:0:
317,368,61878,1,8,3:0:0:0:
317,368,61966,2,0,P|291:326|304:278,1,85,10|6,3:0|3:0,0:0:0:0:
310,266,62231,1,4,3:0:0:0:
310,266,62319,2,0,L|367:277,1,42.5,6|0,3:0|0:0,0:0:0:0:
445,179,62496,2,0,L|388:190,1,42.5,2|0,1:2|1:2,0:0:0:0:
301,138,62672,6,0,P|309:105|345:67,1,76.4999976654053,6|0,1:2|0:0,0:0:0:0:
352,66,63025,6,0,P|295:71|259:24,1,101.999996887207,14|2,0:0|0:0,0:0:0:0:
119,12,63378,5,0,1:2:0:0:
196,146,63554,1,2,0:0:0:0:
61,91,63731,1,10,0:0:0:0:
31,235,63907,2,0,L|122:208,1,85,2|0,0:0|1:2,0:0:0:0:
269,275,64260,5,2,0:0:0:0:
191,135,64437,1,10,0:0:0:0:
133,303,64613,1,2,0:0:0:0:
266,200,64790,2,0,P|316:212|339:244,1,85,2|2,1:2|0:0,0:0:0:0:
422,355,65143,2,0,P|434:305|466:282,1,85,10|2,0:0|0:0,0:0:0:0:
507,172,65496,6,0,B|488:167|469:154|469:154|338:177,2,170,2|10|2,1:2|0:0|1:2,0:0:0:0:
489,41,66378,1,0,0:0:0:0:
378,90,66554,2,0,L|274:108,1,85,10|0,0:0|0:0,0:0:0:0:
166,39,66907,5,2,1:2:0:0:
166,39,67260,2,0,P|211:78|215:126,1,85,10|0,0:0|0:0,0:0:0:0:
105,196,67613,2,0,P|116:137|155:110,1,85,2|0,1:2|0:0,0:0:0:0:
271,171,67966,2,0,P|214:190|171:169,1,85,10|0,0:0|0:0,0:0:0:0:
36,136,68319,2,0,B|11:177|11:177|45:324,1,170,6|10,1:2|0:0,0:0:0:0:
166,222,68849,5,0,0:0:0:0:
225,362,69025,2,0,B|200:371|200:371|168:358|121:352,1,85,2|0,1:2|0:0,0:0:0:0:
346,270,69378,2,0,L|323:358,1,85,10|0,0:0|0:0,0:0:0:0:
239,140,69731,1,2,1:2:0:0:
239,140,70084,6,0,B|285:143|285:143|338:97,1,85,10|0,0:0|0:0,0:0:0:0:
423,41,70437,2,0,P|460:54|489:106,1,85,2|0,1:2|0:0,0:0:0:0:
430,212,70790,2,0,L|406:112,1,85,10|0,0:0|0:0,0:0:0:0:
472,286,71143,6,0,B|416:310|375:274|375:274|330:271|301:305,1,170,2|8,1:2|0:0,0:0:0:0:
203,359,71672,1,0,0:0:0:0:
150,244,71849,2,0,P|162:202|196:162,1,85,2|0,1:2|0:0,0:0:0:0:
28,93,72202,2,0,P|53:126|64:167,1,85,8|2,0:0|0:0,0:0:0:0:
75,332,72554,5,2,1:2:0:0:
0,207,72731,1,8,0:0:0:0:
171,263,72907,1,8,0:0:0:0:
195,102,73084,1,8,3:0:0:0:
195,102,73172,1,8,3:0:0:0:
195,102,73260,5,10,3:0:0:0:
275,69,73437,1,4,3:0:0:0:
215,14,73613,1,0,1:2:0:0:
215,14,73790,1,0,1:2:0:0:
275,68,73966,6,0,P|398:60|413:182,1,272,6|4,1:2|1:2,0:0:0:0:
413,182,76084,1,0,1:2:0:0:
413,182,76790,5,6,1:2:0:0:
497,65,76966,1,2,0:0:0:0:
356,119,77143,2,0,P|312:99|299:49,1,85,10|2,0:0|0:0,0:0:0:0:
319,42,77407,1,2,0:0:0:0:
319,42,77496,2,0,L|247:56,1,42.5,2|2,1:2|0:0,0:0:0:0:
125,13,77672,5,2,0:0:0:0:
98,44,77760,1,2,0:0:0:0:
100,85,77848,1,10,0:0:0:0:
131,113,77936,1,2,0:0:0:0:
173,111,78025,2,0,P|114:114|74:220,1,170,2|0,0:0|0:0,0:0:0:0:
117,350,78554,2,0,L|16:332,1,85,10|2,0:0|0:0,0:0:0:0:
251,264,78907,2,0,L|167:278,1,85,0|0,1:2|0:0,0:0:0:0:
321,324,79260,1,10,0:0:0:0:
425,182,79437,1,2,0:0:0:0:
254,152,79613,5,2,1:2:0:0:
405,280,79790,1,2,0:0:0:0:
434,107,79966,2,0,P|383:119|355:158,1,85,10|2,0:0|0:0,0:0:0:0:
346,166,80231,1,2,0:0:0:0:
346,166,80319,2,0,L|361:220,1,42.5,2|2,1:2|0:0,0:0:0:0:
283,50,80496,1,2,0:0:0:0:
241,59,80584,1,2,0:0:0:0:
199,68,80672,1,10,0:0:0:0:
158,77,80760,1,2,0:0:0:0:
116,86,80849,6,0,P|107:135|206:143,1,170,2|0,0:0|0:0,0:0:0:0:
42,60,81378,1,10,0:0:0:0:
20,229,81554,2,0,B|34:270|29:314|29:314|53:328|66:349,1,127.5,2|0,0:0|0:0,0:0:0:0:
73,353,81907,5,10,0:0:0:0:
262,287,82084,1,10,0:0:0:0:
105,233,82260,1,10,0:0:0:0:
105,233,82349,1,8,0:0:0:0:
105,233,82437,5,6,1:2:0:0:
180,344,82613,1,2,0:0:0:0:
237,190,82790,2,0,B|247:209|257:219|257:219|251:293,1,85,10|2,0:0|0:0,0:0:0:0:
244,288,83054,1,2,0:0:0:0:
244,288,83143,2,0,P|272:288|299:318,1,42.5,2|2,1:2|0:0,0:0:0:0:
402,362,83319,1,2,0:0:0:0:
443,364,83407,1,2,0:0:0:0:
480,343,83495,1,10,0:0:0:0:
499,305,83583,1,2,0:0:0:0:
494,264,83672,6,0,B|461:237|402:260|402:260|380:227|329:225,1,170,2|0,0:0|0:0,0:0:0:0:
230,111,84202,2,0,P|276:123|300:162,1,85,10|2,0:0|0:0,0:0:0:0:
199,304,84554,2,0,L|175:217,1,85,0|0,1:2|0:0,0:0:0:0:
78,63,84907,1,10,0:0:0:0:
5,213,85084,1,2,0:0:0:0:
168,135,85260,5,2,1:2:0:0:
0,90,85437,1,2,0:0:0:0:
176,222,85613,2,0,B|214:232|214:232|278:218,1,85,10|2,0:0|0:0,0:0:0:0:
283,213,85878,1,2,0:0:0:0:
283,213,85966,2,0,L|272:156,1,42.5,2|2,1:2|0:2,0:0:0:0:
342,51,86143,1,10,0:0:0:0:
383,59,86231,1,10,0:0:0:0:
425,67,86319,1,10,0:0:0:0:
467,75,86407,1,2,0:0:0:0:
508,83,86496,6,0,B|497:116|482:138|482:138|496:167|496:167|496:203|486:260,1,170,6|0,1:2|1:2,0:0:0:0:
410,374,87025,1,10,0:0:0:0:
312,312,87202,2,0,B|430:289|430:289|451:316|507:323,1,170,6|8,1:2|0:2,0:0:0:0:
464,179,87731,1,10,0:2:0:0:
312,312,87907,1,10,0:2:0:0:
