osu file format v14

[General]
AudioFilename: audio.ogg
AudioLeadIn: 0
PreviewTime: 50407
Countdown: 0
SampleSet: Soft
StackLeniency: 0.7
Mode: 0
LetterboxInBreaks: 0
WidescreenStoryboard: 1

[Editor]
DistanceSpacing: 1
BeatDivisor: 4
GridSize: 32
TimelineZoom: 1.7

[Metadata]
Title:Shukufuku (TV Size)
TitleUnicode:祝福 (TV Size)
Artist:YOASOBI
ArtistUnicode:YOASOBI
Creator:-karUpA-
Version:Normal
Source:機動戦士ガンダム 水星の魔女
Tags:ゆりかごの星 -Yua CClemon pnky the blessing ayase ikura mobile suit gundam the witch from mercury kidou senshi gundam suisei no majo g_witch anime opening japanese electronic pop jpop j-pop
BeatmapID:3829738
BeatmapSetID:1862467

[Difficulty]
HPDrainRate:3
CircleSize:3.3
OverallDifficulty:4
ApproachRate:5
SliderMultiplier:1.2
SliderTickRate:1

[Events]
//Background and Video events
0,0,"BGZ.jpg",0,0
Video,-145,"mobilevid.mp4"
//Break Periods
//Storyboard Layer 0 (Background)
//Storyboard Layer 1 (Fail)
//Storyboard Layer 2 (Pass)
//Storyboard Layer 3 (Foreground)
//Storyboard Layer 4 (Overlay)
//Storyboard Sound Samples

[TimingPoints]
555,352.941176470588,4,2,1,50,1,0
6202,-111.111111111111,4,2,1,60,0,0
11760,-111.111111111111,4,2,1,5,0,0
11849,-100,4,2,1,75,0,0
16702,-100,4,2,1,5,0,0
16790,-100,4,2,1,75,0,0
17054,-100,4,2,1,5,0,0
17143,-100,4,2,1,75,0,0
17496,-111.111111111111,4,2,1,60,0,0
28790,-111.111111111111,4,2,1,70,0,0
34702,-111.111111111111,4,2,1,5,0,0
34790,-111.111111111111,4,2,1,70,0,0
48731,-111.111111111111,4,2,1,70,0,0
49790,-111.111111111111,4,2,1,70,0,0
50496,-111.111111111111,4,2,2,40,0,0
50672,-111.111111111111,4,2,3,40,0,0
50849,-111.111111111111,4,2,4,40,0,0
51025,-111.111111111111,4,2,3,40,0,0
51202,-111.111111111111,4,2,5,40,0,0
51378,-100,4,2,6,85,0,0
51731,-100,4,2,7,85,0,0
51996,-100,4,2,1,85,0,0
52084,-100,4,2,1,85,0,0
52260,-100,4,2,6,85,0,0
52790,-100,4,2,1,85,0,0
52966,-100,4,2,5,85,0,0
53143,-100,4,2,1,85,0,0
53319,-100,4,2,5,85,0,0
53672,-100,4,2,3,85,0,0
53849,-100,4,2,4,85,0,0
54025,-100,4,2,3,85,0,0
54113,-100,4,2,1,85,0,0
54202,-100,4,2,5,85,0,0
54466,-100,4,2,5,5,0,0
54554,-100,4,2,8,85,0,0
54643,-100,4,2,1,85,0,0
54731,-100,4,2,8,85,0,0
54907,-100,4,2,1,85,0,0
55084,-100,4,2,4,85,0,0
55613,-100,4,2,1,85,0,0
55790,-100,4,2,9,85,0,0
55966,-100,4,2,3,85,0,0
56496,-100,4,2,4,85,0,0
56672,-100,4,2,3,85,0,0
56849,-100,4,2,10,85,0,0
57025,-100,4,2,6,85,0,0
57290,-100,4,2,6,5,0,0
57378,-100,4,2,7,85,0,0
57731,-100,4,2,1,85,0,0
57907,-100,4,2,6,85,0,0
57996,-100,4,2,1,85,0,0
58084,-100,4,2,6,85,0,0
58437,-100,4,2,1,85,0,0
58613,-100,4,2,10,85,0,0
58790,-100,4,2,1,85,0,0
58966,-100,4,2,11,85,0,0
59143,-100,4,2,12,85,0,0
59319,-100,4,2,11,85,0,0
59496,-100,4,2,12,85,0,0
59672,-100,4,2,4,85,0,0
59760,-100,4,2,1,85,0,0
59849,-100,4,2,13,85,0,0
60025,-100,4,2,1,85,0,0
60202,-100,4,2,4,85,0,0
60378,-100,4,2,12,85,0,0
60554,-100,4,2,1,85,0,0
60731,-100,4,2,12,85,0,0
60907,-100,4,2,9,85,0,0
61084,-100,4,2,15,85,0,0
61260,-100,4,2,1,85,0,0
61437,-100,4,2,16,85,0,0
61790,-100,4,2,99,85,0,0
61878,-100,4,2,1,85,0,0
61966,-100,4,2,98,85,0,0
62143,-100,4,2,97,85,0,0
62231,-100,4,2,1,85,0,0
62319,-100,4,2,98,85,0,0
62496,-100,4,2,10,85,0,0
62584,-100,4,2,1,85,0,0
62672,-100,4,2,6,85,0,0
62937,-100,4,2,6,5,0,0
63025,-100,4,2,7,85,0,0
63378,-100,4,2,1,85,0,0
63554,-100,4,2,6,85,0,0
63907,-100,4,2,10,85,0,0
64084,-100,4,2,1,85,0,0
64260,-100,4,2,10,85,0,0
64613,-100,4,2,6,85,0,0
64790,-100,4,2,10,85,0,0
64966,-100,4,2,3,85,0,0
65143,-100,4,2,4,85,0,0
65319,-100,4,2,3,85,0,0
65496,-100,4,2,10,85,0,0
65849,-100,4,2,20,85,0,0
66202,-100,4,2,10,85,0,0
66554,-100,4,2,21,85,0,0
66907,-100,4,2,22,85,0,0
67260,-100,4,2,6,85,0,0
67613,-100,4,2,10,85,0,0
67966,-100,4,2,3,85,0,0
68319,-100,4,2,9,85,0,0
68672,-100,4,2,6,85,0,0
69025,-100,4,2,9,85,0,0
69378,-100,4,2,6,85,0,0
69731,-100,4,2,21,85,0,0
70084,-100,4,2,3,85,0,0
70437,-100,4,2,4,85,0,0
70790,-100,4,2,3,85,0,0
71143,-100,4,2,10,85,0,0
71849,-100,4,2,22,85,0,0
72202,-100,4,2,1,85,0,0
72378,-100,4,2,6,85,0,0
72731,-100,4,2,1,85,0,0
73260,-100,4,2,80,85,0,0
73349,-100,4,2,1,85,0,0
73966,-111.111111111111,4,2,9,75,0,0
74054,-111.111111111111,4,2,1,75,0,0
76790,-100,4,2,1,75,0,0

[Colours]
Combo1 : 255,128,192
Combo2 : 0,255,128
Combo3 : 255,255,128
Combo4 : 128,255,255

[HitObjects]
56,88,6202,6,0,L|186:113,1,107.999996704102,6|2,1:2|1:2,0:0:0:0:
200,146,6731,2,0,P|228:193|208:259,1,107.999996704102,2|2,0:0|0:0,0:0:0:0:
183,284,7260,1,2,1:2:0:0:
268,349,7613,2,0,P|307:308|366:306,1,107.999996704102,0|2,1:2|1:2,0:0:0:0:
399,270,8143,2,0,L|390:151,1,107.999996704102,2|2,0:0|0:0,0:0:0:0:
357,119,8672,1,2,1:2:0:0:
438,48,9025,6,0,L|420:-12,2,53.9999983520508,2|2|2,1:2|0:0|1:2,0:0:0:0:
477,85,9554,2,0,L|454:202,1,107.999996704102,2|2,0:0|0:0,0:0:0:0:
481,239,10084,1,2,1:2:0:0:
481,239,10260,1,2,1:2:0:0:
112,322,11496,5,8,3:0:0:0:
31,233,11849,2,0,L|16:151,1,60,6|2,1:2|0:0,0:0:0:0:
53,123,12202,2,0,P|103:105|175:132,1,120,10|2,0:0|1:2,0:0:0:0:
209,163,12731,2,0,P|247:180|273:176,1,60,2|10,0:0|0:0,0:0:0:0:
312,142,13084,2,0,L|290:271,1,120,2|0,0:0|0:0,0:0:0:0:
255,308,13613,1,10,0:0:0:0:
255,308,13790,2,0,P|191:283|138:298,1,120,2|0,0:0|0:0,0:0:0:0:
99,253,14319,1,10,0:0:0:0:
153,146,14672,6,0,P|203:129|220:136,1,60,2|2,1:2|0:0,0:0:0:0:
257,97,15025,2,0,P|278:123|367:122,1,120,10|2,0:0|1:2,0:0:0:0:
413,101,15554,1,2,0:0:0:0:
485,196,15907,2,0,L|465:319,1,120,6|0,1:2|0:0,0:0:0:0:
430,370,16437,1,2,1:2:0:0:
323,314,16790,1,2,1:2:0:0:
366,102,17496,6,0,P|338:60|271:52,1,107.999996704102,6|0,1:2|1:2,0:0:0:0:
243,85,18025,1,2,0:0:0:0:
243,85,18202,2,0,L|137:107,1,107.999996704102,2|0,1:2|1:2,0:0:0:0:
196,197,18907,2,0,L|300:232,2,107.999996704102,2|2|2,1:2|1:2|1:2,0:0:0:0:
106,258,19966,1,2,1:2:0:0:
21,191,20319,2,0,P|3:154|36:82,1,107.999996704102,2|0,1:2|1:2,0:0:0:0:
57,51,20849,2,0,L|170:71,1,107.999996704102,2|0,0:0|0:0,0:0:0:0:
215,54,21378,1,0,1:2:0:0:
309,106,21731,6,0,L|300:174,1,53.9999983520508,0|0,1:2|0:0,0:0:0:0:
288,211,22084,1,0,1:2:0:0:
369,281,22437,2,0,P|409:254|454:256,2,80.9999975280763,2|2|2,1:2|0:0|1:2,0:0:0:0:
327,316,23143,2,0,P|258:337|219:314,1,107.999996704102,2|2,1:2|1:2,0:0:0:0:
143,256,23849,2,0,L|131:134,1,107.999996704102,2|2,1:2|1:2,0:0:0:0:
207,70,24554,6,0,P|260:101|303:94,2,107.999996704102,2|2|2,1:2|1:2|1:2,0:0:0:0:
110,20,25613,1,2,1:2:0:0:
25,86,25966,2,0,P|37:137|29:212,1,107.999996704102,2|0,1:2|1:2,0:0:0:0:
18,244,26496,1,2,0:0:0:0:
18,244,26672,2,0,P|42:208|114:214,1,107.999996704102,2|2,1:2|1:2,0:0:0:0:
140,244,27202,5,2,0:0:0:0:
243,274,27554,1,2,1:2:0:0:
243,274,27731,2,0,L|309:261,1,53.9999983520508,2|2,1:2|1:2,0:0:0:0:
330,222,28084,2,0,L|382:232,2,53.9999983520508,0|6|2,1:2|3:0|0:0,0:0:0:0:
250,148,28790,6,0,P|213:108|234:48,1,107.999996704102,6|8,1:2|0:0,0:0:0:0:
271,36,29319,1,2,0:0:0:0:
271,36,29496,2,0,L|384:58,1,107.999996704102,2|8,1:2|0:0,0:0:0:0:
449,137,30202,2,0,P|432:181|421:248,2,107.999996704102,2|10|2,1:2|0:0|1:2,0:0:0:0:
377,56,31260,1,10,0:0:0:0:
272,84,31613,6,0,P|185:103|164:90,1,107.999996704102,2|8,1:2|0:0,0:0:0:0:
119,89,32143,1,2,0:0:0:0:
119,89,32319,2,0,L|143:213,1,107.999996704102,2|8,1:2|0:0,0:0:0:0:
77,283,33025,2,0,L|17:307,2,53.9999983520508,0|0|8,1:2|0:0|0:0,0:0:0:0:
119,316,33554,1,0,1:2:0:0:
119,316,33731,2,0,P|167:344|225:334,1,107.999996704102,2|10,1:2|0:0,0:0:0:0:
304,273,34437,6,0,P|370:280|407:323,2,107.999996704102,2|10|2,1:2|0:0|1:2,0:0:0:0:
211,216,35496,1,10,0:0:0:0:
272,127,35849,2,0,P|270:78|263:48,1,53.9999983520508,2|0,1:2|0:0,0:0:0:0:
240,27,36202,1,10,0:0:0:0:
136,56,36554,2,0,P|47:66|23:88,1,107.999996704102,2|8,1:2|0:0,0:0:0:0:
49,127,37084,1,2,0:0:0:0:
49,127,37260,6,0,L|31:238,1,107.999996704102,2|0,1:2|1:2,0:0:0:0:
49,285,37790,1,10,0:0:0:0:
49,285,37966,1,2,1:2:0:0:
123,362,38319,1,8,0:0:0:0:
123,362,38496,2,0,P|173:333|228:342,1,107.999996704102,4|10,1:2|0:0,0:0:0:0:
265,308,39025,2,0,P|311:309|330:303,1,53.9999983520508,10|6,3:0|3:3,0:0:0:0:
369,289,39378,2,0,P|347:237|350:169,1,107.999996704102,2|2,1:2|1:2,0:0:0:0:
390,87,40084,6,0,P|448:99|454:101,2,53.9999983520508,6|2|10,1:2|0:0|0:0,0:0:0:0:
349,51,40613,2,0,P|297:33|228:56,1,107.999996704102,2|2,0:0|0:0,0:0:0:0:
206,80,41143,1,10,0:0:0:0:
206,80,41319,1,2,0:0:0:0:
104,44,41672,2,0,P|70:49|50:63,1,53.9999983520508,2|10,0:0|0:0,0:0:0:0:
16,98,42025,2,0,P|-1:140|10:216,1,107.999996704102,2|2,0:0|0:0,0:0:0:0:
38,242,42554,1,10,0:0:0:0:
38,242,42731,1,2,0:0:0:0:
136,198,43084,6,0,L|120:140,2,53.9999983520508,2|10|2,0:0|0:0|0:0,0:0:0:0:
231,248,43790,2,0,P|262:267|288:267,1,53.9999983520508,2|10,0:0|0:0,0:0:0:0:
331,254,44143,1,2,0:0:0:0:
405,175,44496,2,0,L|393:111,1,53.9999983520508,2|10,0:0|0:0,0:0:0:0:
361,79,44849,2,0,L|247:106,1,107.999996704102,2|10,0:0|0:0,0:0:0:0:
221,145,45378,1,10,3:0:0:0:
120,106,45731,6,0,L|104:51,2,53.9999983520508,6|2|10,1:2|0:0|0:0,0:0:0:0:
77,139,46260,2,0,L|59:263,1,107.999996704102,2|2,0:0|0:0,0:0:0:0:
37,294,46790,1,10,0:0:0:0:
37,294,46966,1,2,0:0:0:0:
132,345,47319,2,0,P|175:329|196:329,1,53.9999983520508,2|10,0:0|0:0,0:0:0:0:
220,289,47672,2,0,P|251:243|246:170,1,107.999996704102,2|2,0:0|0:0,0:0:0:0:
207,163,48202,1,10,0:0:0:0:
207,163,48378,1,2,1:2:0:0:
286,89,48731,5,0,0:0:0:0:
286,89,48907,2,0,P|324:94|364:165,1,107.999996704102
309,240,49613,1,0,0:0:0:0:
309,240,49790,1,10,0:0:0:0:
223,184,50143,5,8,0:0:0:0:
223,184,50319,1,8,0:0:0:0:
41,355,51378,6,0,P|76:318|164:331,1,120,6|10,1:2|0:0,0:0:0:0:
190,281,51907,2,0,P|232:321|290:319,1,120,2|2,0:0|0:0,0:0:0:0:
339,284,52437,1,10,0:0:0:0:
339,284,52613,2,0,P|317:225|326:159,1,120,2|2,0:0|0:0,0:0:0:0:
364,125,53143,1,8,0:0:0:0:
259,66,53496,2,0,P|267:30|284:0,2,60,2|2|10,1:2|0:0|0:0,0:0:0:0:
217,109,54025,1,2,0:0:0:0:
217,109,54202,6,0,B|171:113|171:113|149:135|149:135|94:155,1,120,2|10,1:2|0:0,0:0:0:0:
65,191,54731,1,2,0:0:0:0:
129,292,55084,2,0,P|183:274|197:273,1,60,2|10,0:0|0:0,0:0:0:0:
237,304,55437,2,0,P|271:315|366:316,1,120,2|2,0:0|0:0,0:0:0:0:
401,280,55966,1,10,0:0:0:0:
468,181,56319,2,0,L|453:108,1,60,2|2,1:2|0:0,0:0:0:0:
412,80,56672,2,0,L|353:67,1,60,10|2,0:0|0:0,0:0:0:0:
299,94,57025,6,0,L|276:230,1,120,6|10,1:2|0:0,0:0:0:0:
231,249,57554,1,2,0:0:0:0:
113,274,57907,1,2,0:0:0:0:
113,274,58084,2,0,P|68:256|54:248,2,60,10|2|0,0:0|0:0|1:2,0:0:0:0:
150,226,58613,2,0,P|160:168|175:99,1,120,2|2,0:0|0:0,0:0:0:0:
200,54,59143,2,0,L|262:66,1,60,2|2,1:2|0:0,0:0:0:0:
307,100,59496,2,0,L|369:112,1,60,10|2,0:0|0:0,0:0:0:0:
416,143,59849,6,0,P|430:191|399:267,1,120,2|10,1:2|0:0,0:0:0:0:
353,280,60378,1,2,0:0:0:0:
236,315,60731,2,0,L|163:301,1,60,2|10,0:0|0:0,0:0:0:0:
117,313,61084,2,0,P|70:274|70:204,1,120,2|10,0:0|0:0,0:0:0:0:
42,162,61613,1,10,0:0:0:0:
141,89,61966,2,0,P|186:77|203:74,2,60,10|6|6,3:0|3:0|3:0,0:0:0:0:
93,51,62496,1,2,1:2:0:0:
93,51,62672,6,0,P|44:61|-10:126,1,120,6|14,1:2|0:0,0:0:0:0:
33,156,63202,2,0,L|37:285,1,120,2|2,0:0|0:0,0:0:0:0:
68,333,63731,1,10,0:0:0:0:
68,333,63907,1,2,0:0:0:0:
174,278,64260,2,0,P|216:289|241:295,1,60,2|10,0:0|0:0,0:0:0:0:
278,339,64613,1,2,0:0:0:0:
278,339,64790,2,0,L|399:321,1,120,2|10,1:2|0:0,0:0:0:0:
462,220,65496,6,0,P|486:172|462:101,2,120,2|10|2,1:2|0:0|1:2,0:0:0:0:
345,191,66554,1,10,0:0:0:0:
229,222,66907,1,2,1:2:0:0:
183,111,67260,1,10,0:0:0:0:
284,46,67613,2,0,P|334:72|402:62,1,120,2|10,1:2|0:0,0:0:0:0:
500,124,68319,6,0,P|473:165|469:242,1,120,6|10,1:2|0:0,0:0:0:0:
497,286,68849,1,0,0:0:0:0:
497,286,69025,2,0,P|446:280|377:313,1,120,2|10,1:2|0:0,0:0:0:0:
267,335,69731,1,2,1:2:0:0:
175,257,70084,2,0,P|149:194|175:139,1,120,10|2,0:0|1:2,0:0:0:0:
213,110,70613,1,0,0:0:0:0:
213,110,70790,2,0,L|201:38,1,60,10|0,0:0|0:0,0:0:0:0:
154,15,71143,6,0,P|100:19|41:61,1,120,2|8,1:2|0:0,0:0:0:0:
96,163,71849,2,0,P|88:222|41:280,1,120,2|8,1:2|0:0,0:0:0:0:
78,325,72378,1,2,0:0:0:0:
78,325,72554,2,0,P|130:342|199:373,1,120,2|8,1:2|0:0,0:0:0:0:
246,341,73084,1,8,3:0:0:0:
246,341,73260,1,10,3:0:0:0:
347,276,73613,1,0,1:2:0:0:
289,184,73966,5,6,1:2:0:0:
289,184,75378,2,0,P|225:136|98:180,1,215.999993408203,4|0,1:2|1:2,0:0:0:0:
304,305,76790,6,0,L|390:288,1,60,6|2,1:2|0:0,0:0:0:0:
416,265,77143,2,0,L|440:140,1,120,10|2,0:0|1:2,0:0:0:0:
410,93,77672,1,2,0:0:0:0:
290,104,78025,2,0,P|207:122|161:93,1,120,2|0,0:0|0:0,0:0:0:0:
127,76,78554,1,10,0:0:0:0:
127,76,78731,2,0,L|151:208,1,120,2|0,0:0|0:0,0:0:0:0:
102,233,79260,1,10,0:0:0:0:
191,312,79613,6,0,P|235:294|260:294,1,60,2|2,1:2|0:0,0:0:0:0:
296,259,79966,2,0,P|275:210|281:129,1,120,10|2,0:0|1:2,0:0:0:0:
317,100,80496,1,2,0:0:0:0:
432,132,80849,2,0,L|405:270,1,120,2|0,0:0|0:0,0:0:0:0:
437,302,81378,1,10,0:0:0:0:
437,302,81554,2,0,L|301:328,1,120,2|10,0:0|0:0,0:0:0:0:
267,356,82084,2,0,L|196:340,1,60,10|10,0:0|0:0,0:0:0:0:
170,296,82437,6,0,L|85:317,2,60,6|2|10,1:2|0:0|0:0,0:0:0:0:
256,211,83143,1,2,1:2:0:0:
256,211,83319,2,0,L|276:147,1,60,2|10,0:0|0:0,0:0:0:0:
249,98,83672,2,0,P|196:80|124:108,1,120,2|0,0:0|0:0,0:0:0:0:
81,122,84202,1,10,0:0:0:0:
81,122,84378,2,0,L|102:252,1,120,2|0,0:0|0:0,0:0:0:0:
65,289,84907,1,10,0:0:0:0:
162,358,85260,6,0,P|201:367|229:356,1,60,2|2,1:2|0:0,0:0:0:0:
272,333,85613,2,0,P|292:289|260:199,1,120,10|2,0:0|1:2,0:0:0:0:
237,175,86143,2,0,L|249:106,1,60,10|10,0:0|0:0,0:0:0:0:
293,77,86496,1,6,1:2:0:0:
435,186,87025,1,10,0:0:0:0:
435,186,87202,2,0,L|415:308,1,120,6|8,1:2|0:2,0:0:0:0:
375,349,87731,1,10,0:2:0:0:
375,349,87907,1,10,0:2:0:0:
