osu file format v14

[General]
AudioFilename: audio.ogg
AudioLeadIn: 0
PreviewTime: 50407
Countdown: 0
SampleSet: Soft
StackLeniency: 0.7
Mode: 0
LetterboxInBreaks: 0
WidescreenStoryboard: 1

[Editor]
DistanceSpacing: 1
BeatDivisor: 4
GridSize: 32
TimelineZoom: 1.7

[Metadata]
Title:Shukufuku (TV Size)
TitleUnicode:祝福 (TV Size)
Artist:YOASOBI
ArtistUnicode:YOASOBI
Creator:-karUpA-
Version:Happiness
Source:機動戦士ガンダム 水星の魔女
Tags:ゆりかごの星 -Yua CClemon pnky the blessing ayase ikura mobile suit gundam the witch from mercury kidou senshi gundam suisei no majo g_witch anime opening japanese electronic pop jpop j-pop
BeatmapID:3829736
BeatmapSetID:1862467

[Difficulty]
HPDrainRate:5.5
CircleSize:4
OverallDifficulty:8.5
ApproachRate:9
SliderMultiplier:1.7
SliderTickRate:1

[Events]
//Background and Video events
0,0,"BGZ.jpg",0,0
Video,-145,"mobilevid.mp4"
//Break Periods
//Storyboard Layer 0 (Background)
//Storyboard Layer 1 (Fail)
//Storyboard Layer 2 (Pass)
//Storyboard Layer 3 (Foreground)
//Storyboard Layer 4 (Overlay)
//Storyboard Sound Samples

[TimingPoints]
555,352.941176470588,4,2,1,50,1,0
555,-200,4,2,1,50,0,0
6202,-111.111111111111,4,2,1,60,0,0
11760,-111.111111111111,4,2,1,5,0,0
11849,-100,4,2,1,75,0,0
16702,-100,4,2,1,5,0,0
16790,-100,4,2,1,75,0,0
17054,-100,4,2,1,5,0,0
17143,-100,4,2,1,75,0,0
17496,-125,4,2,1,60,0,0
28790,-111.111111111111,4,2,1,70,0,0
34702,-111.111111111111,4,2,1,5,0,0
34790,-111.111111111111,4,2,1,70,0,0
48731,-111.111111111111,4,2,1,70,0,0
49790,-111.111111111111,4,2,1,70,0,0
50496,-111.111111111111,4,2,2,40,0,0
50672,-111.111111111111,4,2,3,40,0,0
50849,-111.111111111111,4,2,4,40,0,0
51025,-111.111111111111,4,2,3,40,0,0
51202,-111.111111111111,4,2,5,40,0,0
51378,-100,4,2,6,85,0,1
51731,-100,4,2,7,85,0,1
51996,-100,4,2,1,85,0,1
52084,-100,4,2,1,85,0,1
52260,-100,4,2,6,85,0,1
52790,-100,4,2,1,85,0,1
52966,-100,4,2,5,85,0,1
53143,-100,4,2,1,85,0,1
53319,-100,4,2,5,85,0,1
53672,-100,4,2,3,85,0,1
53849,-100,4,2,4,85,0,1
54025,-100,4,2,3,85,0,1
54113,-100,4,2,1,85,0,1
54202,-100,4,2,5,85,0,1
54466,-100,4,2,5,5,0,1
54554,-100,4,2,8,85,0,1
54643,-100,4,2,1,85,0,1
54731,-100,4,2,8,85,0,1
54907,-100,4,2,1,85,0,1
55084,-100,4,2,4,85,0,1
55613,-100,4,2,1,85,0,1
55790,-100,4,2,9,85,0,1
55966,-100,4,2,3,85,0,1
56496,-100,4,2,4,85,0,1
56672,-100,4,2,3,85,0,1
56849,-100,4,2,10,85,0,1
57025,-100,4,2,6,85,0,1
57290,-100,4,2,6,5,0,1
57378,-100,4,2,7,85,0,1
57731,-100,4,2,1,85,0,1
57907,-100,4,2,6,85,0,1
57996,-100,4,2,1,85,0,1
58084,-100,4,2,6,85,0,1
58437,-100,4,2,1,85,0,1
58613,-100,4,2,10,85,0,1
58790,-100,4,2,1,85,0,1
58966,-100,4,2,11,85,0,1
59143,-100,4,2,12,85,0,1
59319,-100,4,2,11,85,0,1
59496,-100,4,2,12,85,0,1
59672,-100,4,2,4,85,0,1
59760,-100,4,2,1,85,0,1
59849,-100,4,2,13,85,0,1
60025,-100,4,2,1,85,0,1
60202,-100,4,2,4,85,0,1
60378,-100,4,2,12,85,0,1
60554,-100,4,2,1,85,0,1
60731,-100,4,2,12,85,0,1
60907,-100,4,2,9,85,0,1
61084,-100,4,2,15,85,0,1
61260,-100,4,2,1,85,0,1
61437,-100,4,2,16,85,0,1
61790,-100,4,2,99,85,0,1
61878,-100,4,2,1,85,0,1
61966,-100,4,2,98,85,0,1
62143,-100,4,2,97,85,0,1
62231,-100,4,2,1,85,0,1
62319,-100,4,2,98,85,0,1
62496,-100,4,2,10,85,0,1
62584,-100,4,2,1,85,0,1
62672,-100,4,2,6,85,0,1
62937,-100,4,2,6,5,0,1
63025,-76.9230769230769,4,2,7,85,0,1
63378,-100,4,2,1,85,0,1
63554,-100,4,2,6,85,0,1
63907,-100,4,2,10,85,0,1
64084,-100,4,2,1,85,0,1
64260,-100,4,2,10,85,0,1
64613,-100,4,2,6,85,0,1
64790,-100,4,2,10,85,0,1
64966,-100,4,2,3,85,0,1
65143,-100,4,2,4,85,0,1
65319,-100,4,2,3,85,0,1
65496,-100,4,2,10,85,0,1
65760,-100,4,2,10,5,0,1
65849,-100,4,2,20,85,0,1
66202,-100,4,2,10,85,0,1
66554,-100,4,2,21,85,0,1
66907,-100,4,2,22,85,0,1
67260,-100,4,2,6,85,0,1
67613,-100,4,2,10,85,0,1
67966,-100,4,2,3,85,0,1
68319,-100,4,2,9,85,0,1
68672,-100,4,2,6,85,0,1
69025,-100,4,2,9,85,0,1
69378,-100,4,2,6,85,0,1
69731,-100,4,2,21,85,0,1
70084,-100,4,2,3,85,0,1
70437,-100,4,2,4,85,0,1
70790,-100,4,2,3,85,0,1
71143,-100,4,2,10,85,0,1
71849,-100,4,2,22,85,0,1
72202,-100,4,2,1,85,0,1
72378,-100,4,2,6,85,0,1
72731,-100,4,2,1,85,0,1
73260,-100,4,2,80,85,0,1
73349,-100,4,2,1,85,0,1
73966,-333.333333333333,4,2,9,75,0,0
74054,-333.333333333333,4,2,1,75,0,0
76790,-100,4,2,1,75,0,0

[Colours]
Combo1 : 255,128,192
Combo2 : 0,255,128
Combo3 : 255,255,128
Combo4 : 128,255,255

[HitObjects]
380,41,555,6,0,P|443:72|455:100,1,85,2|2,1:2|0:0,0:0:0:0:
412,160,1084,2,0,P|453:172|470:177,1,42.5,2|8,0:0|0:0,0:0:0:0:
339,201,1437,2,0,P|318:206|298:212,1,42.5,2|2,0:0|0:0,0:0:0:0:
218,152,1790,2,0,P|181:109|183:78,1,85,2|2,0:0|0:0,0:0:0:0:
333,19,2319,1,2,1:2:0:0:
309,91,2496,2,0,P|298:127|291:145,1,42.5,2|8,0:0|0:0,0:0:0:0:
399,202,2849,5,2,0:0:0:0:
451,147,3025,1,2,0:0:0:0:
418,78,3202,1,2,0:0:0:0:
383,210,3378,6,0,P|397:250|401:269,1,42.5,0|2,1:2|0:0,0:0:0:0:
294,202,3731,2,0,P|300:181|308:161,1,42.5,2|2,1:2|0:0,0:0:0:0:
221,247,4084,2,0,P|178:267|130:248,1,85,8|2,0:0|0:0,0:0:0:0:
35,199,4613,2,0,P|47:232|51:249,1,42.5,2|0,0:0|0:0,0:0:0:0:
104,153,4966,1,2,0:0:0:0:
104,153,5143,1,2,1:2:0:0:
36,68,5319,2,0,P|41:47|49:27,1,42.5,2|8,0:0|0:0,0:0:0:0:
182,100,5672,5,2,0:0:0:0:
253,139,5849,1,2,0:0:0:0:
257,55,6025,1,2,0:0:0:0:
29,35,6202,6,0,P|51:73|54:118,1,76.4999976654053,6|2,1:2|0:0,0:0:0:0:
0,175,6554,1,2,1:2:0:0:
154,205,6731,2,0,P|193:189|231:187,1,76.4999976654053,2|0,0:0|1:2,0:0:0:0:
176,344,7084,5,2,0:0:0:0:
246,305,7260,1,2,1:2:0:0:
176,344,7437,2,0,P|134:327|87:334,1,76.4999976654053,2|0,0:0|1:2,0:0:0:0:
266,224,7790,5,2,0:0:0:0:
246,305,7966,1,2,1:2:0:0:
266,224,8143,2,0,P|303:224|338:208,1,76.4999976654053,2|0,0:0|1:2,0:0:0:0:
430,270,8496,5,2,0:0:0:0:
379,345,8672,1,2,1:2:0:0:
507,306,8849,1,2,0:0:0:0:
383,197,9025,6,0,P|396:246|407:277,1,76.4999976654053,2|2,1:2|0:0,0:0:0:0:
506,146,9378,1,2,1:2:0:0:
506,146,9554,2,0,P|460:137|429:125,1,76.4999976654053,2|0,0:0|1:2,0:0:0:0:
485,44,9907,1,2,0:0:0:0:
485,44,9996,1,2,0:0:0:0:
485,44,10084,1,2,1:2:0:0:
383,197,10260,1,2,1:2:0:0:
349,183,11496,6,0,P|358:232|421:234,1,114.749996498108,8|0,3:0|0:0,0:0:0:0:
497,197,11849,6,0,P|484:266|481:286,1,85,6|2,1:2|0:0,0:0:0:0:
304,247,12202,2,0,P|310:205|319:163,1,85,10|2,0:0|0:0,0:0:0:0:
319,163,12466,1,2,0:0:0:0:
319,163,12554,1,2,1:2:0:0:
363,318,12731,1,2,0:0:0:0:
363,318,12819,1,2,0:0:0:0:
363,318,12907,1,10,0:0:0:0:
195,272,13084,6,0,B|110:295|158:354|66:376,1,170,2|0,0:0|0:0,0:0:0:0:
195,272,13613,1,10,0:0:0:0:
125,210,13790,2,0,P|97:175|129:55,1,170,2|0,0:0|0:0,0:0:0:0:
260,109,14319,1,10,0:0:0:0:
327,15,14496,1,2,0:0:0:0:
176,119,14672,5,2,1:2:0:0:
322,195,14849,1,2,0:0:0:0:
176,119,15025,2,0,P|128:137|11:116,1,170,10|2,0:0|1:2,0:0:0:0:
177,224,15554,1,2,0:0:0:0:
177,224,15643,1,2,0:0:0:0:
177,224,15731,1,10,0:0:0:0:
34,374,15907,6,0,B|53:277|-5:314|17:203,1,170,6|0,1:2|0:0,0:0:0:0:
88,33,16437,6,0,P|123:97|209:109,1,127.5,2|0,1:2|0:0,0:0:0:0:
252,126,16790,6,0,B|319:137|296:187|366:207,1,127.5,2|0,1:2|0:0,0:0:0:0:
394,265,17143,5,8,3:0:0:0:
392,273,17231,1,8,3:0:0:0:
390,281,17319,1,4,3:0:0:0:
388,289,17407,1,4,3:0:0:0:
387,297,17496,2,0,P|317:243|260:260,1,136,6|0,1:2|1:2,0:0:0:0:
203,373,18025,1,2,0:0:0:0:
136,339,18202,2,0,P|92:358|65:362,1,68,2|0,1:2|0:0,0:0:0:0:
186,257,18554,2,0,P|219:264|249:279,1,68,0|2,1:2|0:0,0:0:0:0:
249,279,18819,5,2,0:0:0:0:
249,279,18907,1,2,1:2:0:0:
364,217,19084,1,0,0:0:0:0:
352,352,19260,2,0,P|344:319|334:287,1,68,2|0,1:2|1:2,0:0:0:0:
334,287,19525,5,0,1:2:0:0:
334,287,19613,1,2,1:2:0:0:
436,322,19790,1,0,0:0:0:0:
479,238,19966,1,2,1:2:0:0:
325,138,20143,5,0,0:0:0:0:
395,100,20319,2,0,P|421:129|520:133,1,136,2|0,1:2|1:2,0:0:0:0:
349,17,20849,1,2,0:0:0:0:
349,17,21025,2,0,P|301:27|200:52,1,136,0|0,1:2|1:2,0:0:0:0:
154,111,21554,5,0,1:2:0:0:
154,111,21643,1,0,1:2:0:0:
154,111,21731,1,0,1:2:0:0:
241,162,21907,1,0,0:0:0:0:
105,239,22084,1,0,1:2:0:0:
164,315,22260,1,2,0:0:0:0:
105,239,22437,2,0,P|60:255|25:256,1,68,2|0,1:2|0:0,0:0:0:0:
40,256,22702,1,2,0:0:0:0:
40,256,22790,1,0,1:2:0:0:
115,142,22966,6,0,L|103:99,1,34,2|0,1:2|1:2,0:0:0:0:
157,38,23143,2,0,L|134:175,1,136,2|2,1:2|1:2,0:0:0:0:
276,231,23672,1,0,0:0:0:0:
212,277,23849,2,0,P|160:292|140:319,1,68,2|0,1:2|0:0,0:0:0:0:
281,311,24202,2,0,P|308:330|341:334,1,68,2|0,1:2|0:0,0:0:0:0:
431,273,24554,6,0,P|411:211|411:131,2,136,2|2|2,1:2|1:2|1:2,0:0:0:0:
372,201,25437,1,0,0:0:0:0:
498,124,25613,1,2,1:2:0:0:
464,46,25790,5,0,1:2:0:0:
464,46,25878,1,0,1:2:0:0:
464,46,25966,2,0,B|417:54|417:54|381:38|381:38|325:57,1,136,2|0,1:2|1:2,0:0:0:0:
256,29,26496,1,2,0:0:0:0:
329,138,26672,2,0,P|356:188|347:270,1,136,2|2,1:2|1:2,0:0:0:0:
392,335,27202,1,2,0:0:0:0:
268,259,27378,5,0,1:2:0:0:
229,383,27554,1,2,1:2:0:0:
268,259,27731,1,2,1:2:0:0:
229,383,27907,1,2,1:2:0:0:
80,332,28084,5,0,1:2:0:0:
80,332,28172,1,0,1:2:0:0:
80,332,28260,1,6,3:0:0:0:
80,332,28349,1,4,3:0:0:0:
80,332,28437,2,0,L|71:286,1,34,2|0,1:2|1:2,0:0:0:0:
158,187,28613,2,0,L|151:220,1,34,0|0,1:2|1:2,0:0:0:0:
14,98,28790,6,0,P|61:116|161:42,1,152.999995330811,6|8,1:2|0:0,0:0:0:0:
81,3,29319,1,2,0:0:0:0:
158,187,29496,2,0,P|125:225|110:338,1,152.999995330811,2|8,1:2|0:0,0:0:0:0:
106,323,30025,1,2,0:0:0:0:
261,243,30202,6,0,P|298:264|331:266,1,76.4999976654053,2|0,1:2|0:0,0:0:0:0:
292,117,30554,1,10,0:0:0:0:
348,48,30731,1,0,1:2:0:0:
348,48,30819,1,0,1:2:0:0:
348,48,30907,1,2,1:2:0:0:
383,185,31084,1,0,0:0:0:0:
491,135,31260,1,10,0:0:0:0:
383,185,31437,1,0,0:0:0:0:
491,135,31613,6,0,P|512:176|498:303,1,152.999995330811,2|8,1:2|0:0,0:0:0:0:
350,359,32143,1,2,0:0:0:0:
434,384,32319,2,0,P|421:318|412:232,1,152.999995330811,2|8,1:2|0:0,0:0:0:0:
277,291,32849,5,0,1:2:0:0:
277,291,32937,1,0,1:2:0:0:
277,291,33025,2,0,P|221:265|195:263,1,76.4999976654053,0|0,1:2|0:0,0:0:0:0:
45,319,33378,1,8,0:0:0:0:
122,358,33554,1,0,1:2:0:0:
122,358,33643,1,0,1:2:0:0:
122,358,33731,2,0,P|136:298|113:200,1,152.999995330811,2|10,1:2|0:0,0:0:0:0:
26,107,34260,5,0,0:0:0:0:
26,107,34437,2,0,P|86:94|166:74,1,114.749996498108,2|0,1:2|0:0,0:0:0:0:
154,62,34790,2,0,P|204:81|227:88,1,76.4999976654053,10|0,0:0|0:0,0:0:0:0:
379,73,35143,2,0,P|364:37|353:1,1,76.4999976654053,2|0,1:2|0:0,0:0:0:0:
292,174,35496,2,0,P|280:210|266:245,1,76.4999976654053,10|0,0:0|0:0,0:0:0:0:
353,372,35849,6,0,P|396:306|488:316,2,152.999995330811,2|10|2,1:2|0:0|1:2,0:0:0:0:
266,245,36731,1,0,0:0:0:0:
372,181,36907,2,0,P|379:232|388:264,1,76.4999976654053,8|2,0:0|0:0,0:0:0:0:
385,256,37172,5,2,0:0:0:0:
385,256,37260,1,2,1:2:0:0:
477,145,37437,1,0,1:2:0:0:
286,104,37613,1,0,1:2:0:0:
286,104,37702,1,8,0:0:0:0:
286,104,37790,1,10,0:0:0:0:
286,104,37878,1,8,0:0:0:0:
286,104,37966,1,2,1:2:0:0:
371,61,38143,1,0,1:2:0:0:
262,224,38319,1,8,0:0:0:0:
111,131,38496,6,0,P|140:173|137:295,1,152.999995330811,4|10,1:2|0:0,0:0:0:0:
111,131,39025,1,10,3:0:0:0:
246,201,39202,1,6,3:3:0:0:
341,59,39378,1,2,1:2:0:0:
157,5,39554,1,10,0:0:0:0:
245,105,39731,1,2,1:2:0:0:
36,177,39907,5,10,0:0:0:0:
36,177,39996,1,8,0:0:0:0:
36,177,40084,1,6,1:2:0:0:
107,222,40260,1,2,0:0:0:0:
177,266,40437,1,10,0:0:0:0:
296,176,40613,2,0,P|281:131|283:97,1,76.4999976654053,2|0,0:0|1:2,0:0:0:0:
461,63,40966,5,2,0:0:0:0:
388,24,41143,1,10,0:0:0:0:
461,63,41319,2,0,P|477:128|491:148,1,76.4999976654053,2|0,0:0|1:2,0:0:0:0:
349,256,41672,5,2,0:0:0:0:
422,217,41849,1,10,0:0:0:0:
349,256,42025,2,0,P|333:321|319:341,1,76.4999976654053,2|0,0:0|1:2,0:0:0:0:
436,311,42378,5,2,0:0:0:0:
300,178,42554,1,10,0:0:0:0:
446,97,42731,2,0,P|417:160|413:199,1,76.4999976654053,2|0,0:0|1:2,0:0:0:0:
270,44,43084,6,0,P|332:32|361:21,1,76.4999976654053,2|10,0:0|0:0,0:0:0:0:
286,216,43437,2,0,P|258:190|219:178,1,76.4999976654053,2|0,0:0|1:2,0:0:0:0:
286,216,43790,5,2,0:0:0:0:
182,308,43966,1,10,0:0:0:0:
245,381,44143,1,2,0:0:0:0:
78,322,44319,5,0,1:2:0:0:
159,210,44496,1,2,0:0:0:0:
159,210,44584,1,2,0:0:0:0:
159,210,44672,1,10,0:0:0:0:
78,171,44849,2,0,P|37:199|1:206,1,76.4999976654053,2|0,0:0|1:2,0:0:0:0:
46,65,45202,5,10,0:0:0:0:
208,142,45378,1,10,3:0:0:0:
103,268,45554,1,10,0:0:0:0:
103,268,45643,1,8,0:0:0:0:
103,268,45731,5,6,1:2:0:0:
74,179,45907,1,2,0:0:0:0:
52,93,46084,1,10,0:0:0:0:
211,31,46260,5,2,0:0:0:0:
211,31,46349,1,2,0:0:0:0:
211,31,46437,1,0,1:2:0:0:
139,88,46613,1,2,0:0:0:0:
241,183,46790,1,10,0:0:0:0:
329,115,46966,2,0,P|316:70|316:39,1,76.4999976654053,2|0,0:0|1:2,0:0:0:0:
442,134,47319,5,2,0:0:0:0:
474,206,47496,1,10,0:0:0:0:
442,134,47672,2,0,P|456:86|453:53,1,76.4999976654053,2|0,0:0|1:2,0:0:0:0:
313,243,48025,6,0,L|354:257,1,38.2499988327027,2|2,0:0|0:0,0:0:0:0:
438,310,48202,2,0,L|397:324,1,38.2499988327027,10|2,0:0|0:0,0:0:0:0:
274,379,48378,1,2,1:2:0:0:
274,379,49790,6,0,P|301:306|280:200,1,152.999995330811,10|8,0:0|0:0,0:0:0:0:
107,116,50319,1,8,0:0:0:0:
207,26,50496,5,2,0:0:0:0:
233,103,50672,1,2,0:0:0:0:
328,180,50849,5,2,0:0:0:0:
297,251,51025,1,2,0:0:0:0:
328,180,51202,1,2,0:0:0:0:
203,273,51378,6,0,P|120:294|101:370,1,170,6|10,1:2|0:0,0:0:0:0:
214,162,51907,1,2,0:0:0:0:
214,162,51996,1,2,0:0:0:0:
214,162,52084,1,0,1:2:0:0:
112,96,52260,1,2,0:0:0:0:
237,280,52437,1,10,0:0:0:0:
124,350,52613,6,0,P|144:292|143:256,1,85,2|0,0:0|1:2,0:0:0:0:
335,203,52966,2,0,P|338:245|355:284,1,85,2|8,0:0|0:0,0:0:0:0:
214,162,53319,1,2,0:0:0:0:
318,85,53496,1,2,1:2:0:0:
214,162,53672,1,2,0:0:0:0:
336,306,53849,1,10,0:0:0:0:
492,184,54025,5,2,0:0:0:0:
492,184,54113,1,2,0:0:0:0:
492,184,54202,2,0,B|425:188|462:120|363:127,1,127.5,2|0,1:2|0:0,0:0:0:0:
360,113,54554,2,0,L|368:154,1,42.5,10|2,0:0|0:0,0:0:0:0:
421,355,54731,2,0,P|491:321|525:316,1,85,2|0,0:0|1:2,0:0:0:0:
295,237,55084,1,2,0:0:0:0:
323,377,55260,1,10,0:0:0:0:
295,237,55437,6,0,P|238:255|121:216,1,170,2|2,0:0|0:0,0:0:0:0:
253,38,55966,2,0,P|319:66|343:68,1,85,10|0,0:0|0:0,0:0:0:0:
253,38,56319,1,2,1:2:0:0:
113,8,56496,1,2,0:0:0:0:
231,178,56672,1,10,0:0:0:0:
29,281,56849,1,2,0:0:0:0:
121,340,57025,6,0,P|137:277|114:192,1,127.5,6|0,1:2|0:0,0:0:0:0:
108,208,57378,1,10,0:0:0:0:
261,355,57554,2,0,P|309:334|357:334,1,85,2|0,0:0|1:2,0:0:0:0:
449,379,57907,1,2,0:0:0:0:
449,379,57996,1,2,0:0:0:0:
449,379,58084,1,10,0:0:0:0:
295,244,58260,6,0,P|284:187|268:154,1,85,2|0,0:0|1:2,0:0:0:0:
478,166,58613,2,0,P|438:181|396:187,1,85,2|8,0:0|0:0,0:0:0:0:
295,244,58966,1,2,0:0:0:0:
188,128,59143,1,2,1:2:0:0:
348,55,59319,1,2,0:0:0:0:
188,128,59496,1,10,0:0:0:0:
326,274,59672,6,0,L|317:216,1,42.5,2|2,0:0|0:0,0:0:0:0:
294,145,59849,2,0,L|271:333,1,170,2|10,1:2|0:0,0:0:0:0:
100,368,60378,2,0,P|54:341|51:225,1,170,2|2,0:0|0:0,0:0:0:0:
151,293,60907,1,10,0:0:0:0:
21,348,61084,1,2,0:0:0:0:
216,378,61260,5,4,1:2:0:0:
106,219,61437,1,10,0:0:0:0:
269,115,61613,1,10,0:0:0:0:
320,268,61790,5,10,3:0:0:0:
296,263,61878,1,8,3:0:0:0:
275,258,61966,1,10,3:0:0:0:
74,91,62143,5,6,3:0:0:0:
79,112,62231,1,4,3:0:0:0:
84,133,62319,1,6,3:0:0:0:
15,351,62496,1,2,1:2:0:0:
215,201,62672,6,0,P|251:137|247:50,1,127.5,6|0,1:2|0:0,0:0:0:0:
187,18,63025,6,0,B|302:-4|273:116|408:91,1,220.999989883423,14|0,0:0|1:2,0:0:0:0:
246,229,63554,1,2,0:0:0:0:
395,322,63731,1,10,0:0:0:0:
454,171,63907,1,2,0:0:0:0:
395,322,64084,1,0,1:2:0:0:
166,264,64260,5,2,0:0:0:0:
257,243,64437,1,10,0:0:0:0:
346,218,64613,1,2,0:0:0:0:
254,62,64790,5,2,1:2:0:0:
432,159,64966,1,2,0:0:0:0:
318,309,65143,1,10,0:0:0:0:
433,260,65319,1,2,0:0:0:0:
265,379,65496,6,0,P|192:357|130:352,1,127.5,2|0,1:2|0:0,0:0:0:0:
141,352,65849,2,0,P|133:297|117:252,1,85,10|0,0:0|0:0,0:0:0:0:
305,118,66202,2,0,P|310:160|321:200,1,85,2|0,1:2|0:0,0:0:0:0:
209,84,66554,1,10,0:0:0:0:
404,236,66731,2,0,P|393:265|384:300,1,42.5,0|0,1:2|1:2,0:0:0:0:
296,283,66907,6,0,P|359:219|464:229,2,170,2|10|2,1:2|0:0|1:2,0:0:0:0:
357,367,67790,1,0,0:0:0:0:
187,224,67966,1,10,0:0:0:0:
308,136,68143,5,0,1:2:0:0:
308,136,68231,1,0,1:2:0:0:
308,136,68319,2,0,P|287:196|273:248,1,85,6|0,1:2|0:0,0:0:0:0:
124,47,68672,2,0,P|162:29|201:13,1,85,10|0,0:0|0:0,0:0:0:0:
96,228,69025,2,0,P|57:210|19:191,1,85,2|0,1:2|0:0,0:0:0:0:
147,148,69378,1,10,0:0:0:0:
40,371,69554,5,0,1:2:0:0:
40,371,69643,1,0,1:2:0:0:
40,371,69731,2,0,P|84:336|211:354,1,170,2|10,1:2|0:0,0:0:0:0:
359,227,70260,1,0,1:2:0:0:
359,227,70349,1,0,1:2:0:0:
359,227,70437,2,0,P|296:239|262:232,1,85,2|0,1:2|0:0,0:0:0:0:
401,384,70790,2,0,P|464:372|498:379,1,85,10|0,0:0|0:0,0:0:0:0:
338,217,71143,6,0,P|329:159|384:65,1,170,2|8,1:2|0:0,0:0:0:0:
228,244,71849,1,2,1:2:0:0:
332,325,72025,1,0,0:0:0:0:
455,201,72202,1,8,0:0:0:0:
309,98,72378,1,2,0:0:0:0:
378,19,72554,5,2,1:2:0:0:
317,224,72731,1,8,0:0:0:0:
378,19,72907,1,8,0:0:0:0:
503,103,73084,5,8,3:0:0:0:
482,108,73172,1,8,3:0:0:0:
461,114,73260,1,10,3:0:0:0:
272,47,73437,5,4,3:0:0:0:
294,136,73613,1,0,1:2:0:0:
317,224,73790,1,0,1:2:0:0:
211,314,73966,6,0,P|178:277|35:281,1,178.499994552612,6|0,1:2|0:0,0:0:0:0:
128,141,75378,6,0,P|173:175|217:181,1,101.999996887207,4|0,1:2|1:2,0:0:0:0:
460,57,76790,6,0,P|420:74|379:77,1,85,6|2,1:2|0:0,0:0:0:0:
226,7,77143,2,0,P|280:65|288:169,1,170,10|2,0:0|1:2,0:0:0:0:
144,175,77672,1,2,0:0:0:0:
144,175,77760,1,2,0:0:0:0:
144,175,77849,1,10,0:0:0:0:
180,370,78025,6,0,P|197:287|217:205,1,170,2|0,0:0|0:0,0:0:0:0:
254,50,78554,1,10,0:0:0:0:
113,167,78731,2,0,P|51:176|-19:91,1,170,2|0,0:0|0:0,0:0:0:0:
113,167,79260,1,10,0:0:0:0:
10,262,79437,6,0,L|22:310,1,42.5,2|0,0:0|0:0,0:0:0:0:
34,382,79613,2,0,P|45:330|61:274,1,85,2|2,1:2|0:0,0:0:0:0:
208,191,79966,2,0,B|255:169|302:207|302:207|301:254|350:285,1,170,10|2,0:0|1:2,0:0:0:0:
451,216,80496,1,2,0:0:0:0:
451,216,80584,1,2,0:0:0:0:
451,216,80672,1,10,0:0:0:0:
408,9,80849,6,0,P|386:62|372:189,1,170,2|0,0:0|0:0,0:0:0:0:
472,118,81378,1,10,0:0:0:0:
302,249,81554,2,0,P|265:201|154:214,1,170,2|10,0:0|0:0,0:0:0:0:
251,343,82084,1,10,0:0:0:0:
67,275,82260,5,10,0:0:0:0:
67,275,82349,1,8,0:0:0:0:
67,275,82437,1,6,1:2:0:0:
141,348,82613,1,2,0:0:0:0:
45,275,82790,2,0,P|30:218|16:192,1,85,10|2,0:0|0:0,0:0:0:0:
17,195,83054,1,2,0:0:0:0:
17,195,83143,1,2,1:2:0:0:
198,71,83319,1,2,0:0:0:0:
198,71,83407,1,2,0:0:0:0:
198,71,83496,1,10,0:0:0:0:
111,25,83672,6,0,B|110:69|101:88|101:88|121:123|121:123|106:162|105:202,1,170,2|0,0:0|0:0,0:0:0:0:
32,135,84202,1,10,0:0:0:0:
172,273,84378,2,0,P|203:212|305:199,1,170,2|0,0:0|0:0,0:0:0:0:
289,358,84907,5,10,0:0:0:0:
368,324,85084,1,2,0:0:0:0:
289,358,85260,2,0,P|251:337|194:333,1,85,2|2,1:2|0:0,0:0:0:0:
243,160,85613,2,0,P|279:180|321:186,1,85,10|2,0:0|0:0,0:0:0:0:
321,186,85878,1,2,0:0:0:0:
321,186,85966,1,2,1:2:0:0:
226,52,86143,5,10,0:0:0:0:
186,35,86231,1,10,0:0:0:0:
144,43,86319,1,10,0:0:0:0:
115,74,86407,1,0,0:0:0:0:
112,116,86496,2,0,P|138:181|136:289,1,170,6|0,1:2|1:2,0:0:0:0:
327,363,87025,5,10,0:0:0:0:
270,310,87202,2,0,B|183:288|220:387|108:363,1,170,6|8,1:2|0:2,0:0:0:0:
270,310,87731,1,10,0:2:0:0:
123,152,87907,1,10,0:2:0:0:
