osu file format v14

[General]
AudioFilename: audio.mp3
AudioLeadIn: 0
PreviewTime: 105497
Countdown: 0
SampleSet: Soft
StackLeniency: 0.7
Mode: 0
LetterboxInBreaks: 0
WidescreenStoryboard: 1

[Editor]
DistanceSpacing: 1.3
BeatDivisor: 4
GridSize: 32
TimelineZoom: 1.3

[Metadata]
Title:Sangenshoku
TitleUnicode:三原色
Artist:YOASOBI
ArtistUnicode:YOASOBI
Creator:BaAR_Vendel
Version:Normal
Source:
Tags:japanese pop jpop j-pop ayase ikura 幾田りら ikuta lilas rgb the book 2 ahamo short ver. version houshou hari paradogi
BeatmapID:3255677
BeatmapSetID:1519502

[Difficulty]
HPDrainRate:3
CircleSize:3
OverallDifficulty:4
ApproachRate:5.5
SliderMultiplier:1.3
SliderTickRate:1

[Events]
//Background and Video events
0,0,"YOASOBI.jpg",0,0
//Break Periods
2,89384,95759
//Storyboard Layer 0 (Background)
//Storyboard Layer 1 (Fail)
//Storyboard Layer 2 (Pass)
//Storyboard Layer 3 (Foreground)
//Storyboard Layer 4 (Overlay)
//Storyboard Sound Samples

[TimingPoints]
-1553,468.75,4,2,1,55,1,0
7822,-100,4,2,1,80,0,0
20009,-100,4,2,1,60,0,0
20947,-100,4,2,1,70,0,0
28447,-100,4,2,2,60,0,0
35712,-100,4,2,1,60,0,0
35947,-100,4,2,2,60,0,0
42392,-100,4,2,1,50,0,0
43212,-100,4,2,2,50,0,0
43447,-100,4,2,1,80,0,0
50712,-100,4,2,2,80,0,0
50947,-100,4,2,1,80,0,0
55986,-100,4,2,1,60,0,0
56337,-100,4,2,1,80,0,0
56572,-100,4,2,2,60,0,0
58447,-100,4,2,1,60,0,0
59267,-100,4,2,1,55,0,0
60322,-100,4,2,1,90,0,1
60556,-100,4,2,1,80,0,1
75087,-100,4,2,2,80,0,0
75322,-100,4,2,1,90,0,1
75556,-100,4,2,1,80,0,1
87509,-100,4,2,1,60,0,0
88329,-100,4,2,1,50,0,0
88447,-100,4,2,1,40,0,0
89150,-100,4,2,2,40,0,0
89384,468.75,4,2,2,60,1,0
96063,-100,4,2,2,5,0,0
96180,-100,4,2,2,60,0,0
96884,-100,4,2,1,60,0,0
99344,-100,4,2,1,5,0,0
99462,-100,4,2,1,60,0,0
99813,-100,4,2,1,5,0,0
99930,-100,4,2,1,60,0,0
102509,-100,4,2,1,50,0,0
102977,-100,4,2,1,55,0,0
103446,-100,4,2,1,65,0,0
103915,-100,4,2,1,75,0,0
104384,-100,4,2,1,85,0,0
105087,-100,4,2,1,95,0,0
105555,-100,4,2,1,60,0,0
106259,-100,4,2,1,90,0,1
106493,-100,4,2,1,85,0,1
118680,-100,4,2,1,70,0,1
118915,-100,4,2,1,80,0,1
119149,-100,4,2,1,90,0,1
121024,-100,4,2,2,90,0,0
121259,-100,4,2,1,95,0,1
121493,-100,4,2,1,85,0,1
136024,-100,4,2,2,85,0,1
136259,-100,4,2,1,85,0,1
138134,-100,4,2,1,70,0,1
138485,-100,4,2,1,60,0,1
138719,-100,4,2,1,5,0,1
138837,-100,4,2,1,85,0,1
139188,-100,4,2,1,5,0,1
139305,-100,4,2,1,85,0,1
141180,-100,4,2,1,55,0,0

[Colours]
Combo1 : 64,64,255
Combo2 : 255,64,64
Combo3 : 64,255,64
Combo4 : 227,227,227

[HitObjects]
118,77,87,53,0,0:0:0:0:
172,142,322,2,0,P|234:146|289:87,2,130,8|0|0,1:1|1:2|1:2,0:0:0:0:
118,77,1493,2,0,P|81:72|39:84,1,65,8|8,0:1|1:1,0:0:0:0:
7,240,2197,2,0,P|12:311|21:373,2,130,8|0|0,1:1|1:2|1:2,0:0:0:0:
90,227,3368,2,0,P|126:231|169:220,1,65,8|8,0:1|1:1,0:0:0:0:
301,149,4072,22,0,P|363:145|418:204,2,130,8|0|0,1:1|1:2|1:2,0:0:0:0:
241,208,5243,2,0,P|236:238|239:282,1,65,8|8,0:1|1:1,0:0:0:0:
375,370,5947,2,0,P|436:374|485:313,2,130,8|0|0,1:1|1:2|1:2,0:0:0:0:
294,343,7118,2,0,P|258:348|216:355,1,65,2|2,0:0|0:2,0:0:0:0:
146,367,7587,1,2,0:0:0:0:
69,330,7822,38,0,P|41:285|67:210,1,130,4|2,1:1|1:2,0:0:0:0:
142,191,8525,1,10,0:2:0:0:
191,122,8759,2,0,P|186:69|178:12,1,97.5,2|10,1:2|0:2,0:0:0:0:
306,17,9462,1,10,0:2:0:0:
371,70,9697,2,0,P|440:60|464:30,2,97.5,2|10|10,1:2|0:2|0:2,0:0:0:0:
292,101,10634,2,0,P|309:156|310:178,1,65,2|0,1:2|0:0,0:0:0:0:
277,241,11103,1,2,1:2:0:0:
199,273,11337,1,8,0:2:0:0:
117,250,11572,38,0,P|69:205|67:139,1,130,2|2,1:2|1:2,0:0:0:0:
11,79,12275,1,10,0:2:0:0:
64,14,12509,2,0,P|129:28|170:32,1,97.5,2|10,1:2|0:2,0:0:0:0:
282,64,13212,1,10,0:2:0:0:
352,110,13447,2,0,P|365:175|367:226,2,97.5,2|10|10,1:2|0:2|0:2,0:0:0:0:
359,25,14384,2,0,P|403:13|428:18,1,65,2|2,1:2|0:3,0:0:0:0:
502,42,14853,1,2,1:3:0:0:
481,123,15087,1,2,0:3:0:0:
458,204,15322,22,0,P|445:269|442:341,1,130,6|2,1:2|1:2,0:0:0:0:
370,378,16025,1,10,0:2:0:0:
285,372,16259,2,0,P|223:347|210:296,1,97.5,2|10,1:2|0:2,0:0:0:0:
202,195,16962,1,10,0:2:0:0:
144,132,17197,2,0,P|156:66|204:43,2,97.5,2|10|10,1:2|0:2|0:2,0:0:0:0:
82,289,18368,2,0,P|82:331|94:364,1,65,2|2,0:2|1:2,0:0:0:0:
172,372,18837,1,10,0:2:0:0:
248,334,19072,38,0,P|325:341|403:348,1,130,2|2,1:2|1:2,0:0:0:0:
461,332,19775,1,10,0:2:0:0:
506,260,20009,2,0,P|515:215|489:154,1,97.5,2|2,1:2|1:2,0:0:0:0:
436,56,20712,1,2,1:2:0:0:
356,85,20947,38,0,P|297:71|221:54,1,130,4|0,1:1|1:2,0:0:0:0:
155,14,21650,1,10,3:2:0:0:
92,70,21884,2,0,P|86:115|90:153,1,65,2|2,1:2|3:2,0:0:0:0:
36,202,22353,2,0,P|42:247|38:285,1,65,0|10,1:2|3:2,0:0:0:0:
1,341,22822,2,0,P|50:298|123:315,1,130,2|0,1:2|1:2,0:0:0:0:
179,354,23525,1,10,3:2:0:0:
259,378,23759,2,0,P|316:368|337:346,1,65,2|2,1:2|3:2,0:0:0:0:
358,289,24228,1,0,1:2:0:0:
207,212,24697,22,0,P|128:204|87:142,1,130,2|0,1:2|1:2,0:0:0:0:
100,85,25400,1,10,3:2:0:0:
146,14,25634,2,0,P|177:6|209:10,1,65,2|2,1:2|3:2,0:0:0:0:
275,63,26103,2,0,P|307:67|338:59,1,65,2|10,1:2|3:2,0:0:0:0:
413,20,26572,2,0,P|425:89|436:174,1,130,2|0,1:2|1:2,0:0:0:0:
429,233,27275,1,10,3:2:0:0:
489,292,27509,2,0,P|494:327|478:356,1,65,2|8,1:2|3:1,0:0:0:0:
400,376,27978,2,0,P|367:371|335:365,1,65,8|0,1:1|3:2,0:0:0:0:
251,363,28447,38,0,P|302:328|304:265,1,130,10|0,1:2|1:2,0:0:0:0:
271,187,29150,1,0,0:0:0:0:
191,158,29384,2,0,P|195:123|202:81,2,65,2|2|0,1:2|0:2|1:2,0:0:0:0:
62,267,30322,2,0,P|37:325|58:381,2,97.5,2|0|0,1:2|0:0|0:0,0:0:0:0:
123,325,31259,2,0,P|188:315|206:310,2,65,2|2|0,1:2|0:2|1:2,0:0:0:0:
247,210,32197,38,0,P|310:217|379:229,1,130,2|0,1:2|1:2,0:0:0:0:
454,259,32900,1,0,0:0:0:0:
508,194,33134,2,0,P|513:164|511:127,2,65,2|2|0,1:2|0:2|1:2,0:0:0:0:
348,135,34072,2,0,P|330:79|341:19,2,97.5,2|0|0,1:2|0:0|0:0,0:0:0:0:
304,207,35009,2,0,P|277:203|243:180,2,65,2|2|0,1:2|0:2|1:2,0:0:0:0:
388,207,35712,1,2,0:3:0:0:
454,259,35947,22,0,P|466:320|426:374,1,130,10|8,1:2|1:2,0:0:0:0:
348,343,36650,1,0,0:0:0:0:
266,365,36884,2,0,P|239:372|199:365,2,65,2|2|8,1:2|0:2|1:2,0:0:0:0:
289,283,37587,1,2,0:2:0:0:
230,222,37822,2,0,P|224:172|225:108,2,97.5,2|0|0,1:2|0:0|0:0,0:0:0:0:
147,242,38759,2,0,P|106:242|62:233,2,65,2|2|8,1:2|0:2|1:2,0:0:0:0:
14,136,39697,38,0,P|81:124|146:106,2,130,2|8|2,1:2|1:2|1:2,0:0:0:0:
1,219,40868,1,2,0:2:0:0:
82,238,41103,2,0,P|123:246|155:257,1,65,8|0,1:2|0:0,0:0:0:0:
217,297,41572,1,2,1:2:0:0:
354,198,42040,1,0,1:2:0:0:
200,129,42509,1,2,1:3:0:0:
200,129,43447,38,0,P|266:116|326:89,1,130,6|0,1:2|1:2,0:0:0:0:
397,50,44150,1,10,0:2:0:0:
479,65,44384,2,0,P|495:113|472:176,1,97.5,2|10,1:2|0:2,0:0:0:0:
403,255,45087,1,10,0:2:0:0:
321,270,45322,2,0,P|310:339|334:374,2,97.5,2|10|10,1:2|0:2|0:2,0:0:0:0:
262,209,46259,2,0,P|230:215|207:237,1,65,2|0,1:2|0:0,0:0:0:0:
177,316,46728,1,0,1:2:0:0:
9,296,47197,22,0,P|10:218|8:138,1,130,2|0,1:2|1:2,0:0:0:0:
3,81,47900,1,8,0:2:0:0:
66,25,48134,2,0,P|113:20|145:38,1,65,2|0,1:2|0:0,0:0:0:0:
196,77,48603,2,0,P|227:85|258:78,1,65,2|8,1:2|0:2,0:0:0:0:
334,39,49072,2,0,P|401:29|449:93,2,130,2|0|2,1:2|1:2|1:2,0:0:0:0:
258,77,50243,1,8,0:1:0:0:
289,155,50478,1,8,1:1:0:0:
194,295,50947,38,0,P|109:286|44:274,1,130,6|0,1:2|1:2,0:0:0:0:
14,210,51650,1,10,0:2:0:0:
69,146,51884,2,0,P|82:93|92:38,1,97.5,2|10,1:2|0:2,0:0:0:0:
216,50,52587,1,10,0:2:0:0:
272,112,52821,2,0,P|322:120|361:99,2,97.5,2|10|10,1:2|0:2|0:2,0:0:0:0:
189,129,53759,2,0,P|165:162|166:198,1,65,2|0,1:2|0:0,0:0:0:0:
197,262,54228,1,0,1:2:0:0:
359,305,54697,38,0,P|358:227|362:182,1,97.5,2|10,1:2|0:2,0:0:0:0:
360,80,55400,1,10,0:2:0:0:
423,23,55634,2,0,P|467:-1|525:9,2,97.5,2|10|10,1:2|0:2|0:2,0:0:0:0:
441,107,56572,22,0,P|434:171|432:182,2,65,10|10|0,1:2|0:2|1:2,0:0:0:0:
360,80,57275,1,10,0:2:0:0:
289,126,57509,2,0,P|238:115|214:101,1,65,10|0,1:2|0:0,0:0:0:0:
149,144,57978,2,0,P|133:94|133:66,1,65,10|10,1:2|0:2,0:0:0:0:
173,7,58447,2,0,P|119:47|45:34,2,130,0|0|2,1:2|1:2|1:3,0:0:0:0:
20,159,60322,38,0,B|-4:228|53:228|21:304,1,130,4|2,1:1|1:2,0:0:0:0:
4,367,61025,1,10,3:2:0:0:
88,381,61259,2,0,P|161:360|188:329,1,97.5,2|10,1:2|0:2,0:0:0:0:
258,250,61962,1,10,3:2:0:0:
341,233,62197,2,0,P|414:254|441:285,2,97.5,2|10|10,1:2|0:2|3:2,0:0:0:0:
258,250,63134,2,0,P|250:188|247:170,1,65,2|0,1:2|3:2,0:0:0:0:
254,100,63603,1,2,1:2:0:0:
338,104,63837,1,10,3:2:0:0:
382,32,64072,38,0,P|446:43|516:49,1,130,2|2,1:2|1:2,0:0:0:0:
512,134,64775,1,10,3:2:0:0:
452,193,65009,2,0,P|446:248|447:302,1,97.5,2|10,1:2|0:2,0:0:0:0:
355,380,65712,1,10,3:2:0:0:
282,335,65947,2,0,P|232:329|185:369,2,97.5,2|10|10,1:2|0:2|3:2,0:0:0:0:
360,295,66884,2,0,P|359:248|341:215,1,65,2|8,1:2|3:1,0:0:0:0:
300,165,67353,1,8,1:1:0:0:
217,183,67587,1,0,0:1:0:0:
145,136,67822,22,0,P|139:76|135:25,1,97.5,6|10,1:2|0:2,0:0:0:0:
256,0,68525,1,10,3:2:0:0:
308,67,68759,2,0,P|303:115|299:164,1,97.5,2|10,1:2|0:2,0:0:0:0:
292,290,69462,1,10,3:2:0:0:
365,331,69697,2,0,P|407:312|422:282,1,65,2|0,1:2|3:2,0:0:0:0:
500,279,70165,2,0,P|504:232|487:204,1,65,2|8,1:2|3:2,0:0:0:0:
512,134,70634,1,2,1:2:0:0:
471,59,70868,1,2,3:2:0:0:
386,63,71103,1,2,1:2:0:0:
275,191,71572,38,0,P|320:233|305:293,1,130,2|2,1:2|1:2,0:0:0:0:
229,330,72275,1,10,3:2:0:0:
157,286,72509,2,0,P|125:268|89:271,1,65,0|2,1:2|3:2,0:0:0:0:
14,249,72978,2,0,P|7:228|-1:180,1,65,2|8,1:2|3:2,0:0:0:0:
25,105,73447,2,0,P|35:72|50:-8,2,97.5,2|10|10,1:2|0:2|3:2,0:0:0:0:
82,167,74384,1,2,1:2:0:0:
201,82,74853,1,8,0:1:0:0:
285,64,75087,1,8,0:2:0:0:
332,134,75322,38,0,P|343:198|349:268,1,130,4|2,1:1|1:2,0:0:0:0:
350,347,76025,1,10,3:2:0:0:
273,382,76259,2,0,P|225:375|176:371,1,97.5,2|10,1:2|0:2,0:0:0:0:
65,308,76962,1,10,3:2:0:0:
18,237,77197,2,0,P|11:188|45:130,2,97.5,2|10|10,1:2|0:2|3:2,0:0:0:0:
65,308,78134,2,0,P|108:299|133:293,1,65,2|0,1:2|3:2,0:0:0:0:
198,246,78603,1,2,1:2:0:0:
177,164,78837,1,10,3:2:0:0:
102,124,79072,22,0,P|107:58|161:11,1,130,2|2,1:2|1:2,0:0:0:0:
235,9,79775,1,10,3:2:0:0:
307,51,80009,2,0,P|362:57|416:56,1,97.5,2|10,1:2|0:2,0:0:0:0:
509,127,80712,1,10,3:2:0:0:
479,206,80947,2,0,P|473:256|513:303,2,97.5,2|10|10,1:2|0:2|3:2,0:0:0:0:
422,143,81884,2,0,P|375:144|330:152,1,65,2|8,1:2|0:1,0:0:0:0:
286,192,82353,1,8,1:1:0:0:
313,271,82587,1,0,0:1:0:0:
282,349,82822,38,0,P|233:348|184:343,1,97.5,6|10,1:2|0:2,0:0:0:0:
77,275,83525,1,8,3:2:0:0:
24,208,83759,2,0,P|40:162|46:113,1,97.5,2|10,1:2|0:2,0:0:0:0:
139,28,84462,1,10,3:2:0:0:
222,15,84697,2,0,P|257:45|263:78,1,65,2|0,1:2|3:2,0:0:0:0:
337,102,85165,2,0,P|327:147|302:168,1,65,2|8,1:2|3:2,0:0:0:0:
240,200,85634,1,2,1:2:0:0:
156,210,85868,1,2,3:2:0:0:
71,220,86103,1,2,1:2:0:0:
150,369,86572,38,0,P|215:341|273:346,1,130,2|2,1:2|1:2,0:0:0:0:
347,384,87275,1,10,3:2:0:0:
424,350,87509,2,0,P|411:269|405:227,2,97.5,0|0|0,1:2|1:2|1:2,0:0:0:0:
430,71,96884,22,0,P|377:37|314:50,1,130,4|2,1:1|1:2,0:0:0:0:
180,153,97821,2,0,P|193:211|161:253,2,97.5,2|2|2,1:2|0:2|3:2,0:0:0:0:
109,107,98759,2,0,P|96:49|128:7,2,97.5,2|2|2,1:2|0:2|3:2,0:0:0:0:
12,245,99930,2,0,P|7:297|10:321,1,65,2|2,3:2|1:2,0:0:0:0:
60,375,100399,1,2,3:2:0:0:
136,338,100634,38,0,P|207:327|276:350,1,130,2|2,1:2|1:2,0:0:0:0:
340,374,101337,1,2,3:2:0:0:
494,306,101805,2,0,P|499:358|496:382,2,65,2|2|2,3:2|1:2|3:2,0:0:0:0:
436,243,102509,2,0,P|385:264|328:240,2,97.5,2|2|2,1:2|0:0|1:2,0:0:0:0:
505,195,103446,2,0,P|510:143|507:119,1,65,2|0,1:2|1:2,0:0:0:0:
447,73,103915,2,0,P|445:40|450:8,1,65,2|0,1:2|1:2,0:0:0:0:
365,1,104384,38,0,P|316:8|268:11,1,97.5,12|12,1:3|1:3,0:0:0:0:
149,53,105087,1,12,1:3:0:0:
179,131,105321,1,12,1:3:0:0:
46,326,106259,22,0,P|34:242|21:175,1,130,4|2,1:1|1:2,0:0:0:0:
4,115,106962,1,10,3:2:0:0:
58,50,107196,2,0,P|131:71|158:102,1,97.5,2|10,1:2|0:2,0:0:0:0:
223,184,107899,1,10,3:2:0:0:
307,188,108134,2,0,P|380:167|407:136,2,97.5,2|10|10,1:2|0:2|3:2,0:0:0:0:
260,258,109071,2,0,P|264:290|268:322,1,65,2|0,1:2|3:2,0:0:0:0:
334,375,109540,1,2,1:2:0:0:
417,363,109774,1,10,3:2:0:0:
458,289,110009,38,0,P|470:205|483:138,1,130,2|2,1:2|1:2,0:0:0:0:
447,81,110712,1,10,3:2:0:0:
387,20,110946,2,0,P|338:19|289:14,1,97.5,2|10,1:2|0:2,0:0:0:0:
172,62,111649,1,10,3:2:0:0:
216,134,111884,2,0,P|222:184|182:231,2,97.5,2|10|10,1:2|0:2|3:2,0:0:0:0:
172,62,112821,2,0,P|126:75|90:68,1,65,2|8,1:2|0:1,0:0:0:0:
24,66,113290,1,8,1:1:0:0:
1,147,113524,1,0,0:1:0:0:
56,210,113759,38,0,P|58:258|60:318,1,97.5,6|10,1:2|0:2,0:0:0:0:
169,382,114462,1,10,3:2:0:0:
223,317,114696,2,0,P|264:293|312:296,1,97.5,2|10,1:2|0:2,0:0:0:0:
425,354,115399,1,10,3:2:0:0:
500,316,115634,2,0,P|491:270|466:248,1,65,2|0,1:2|3:2,0:0:0:0:
482,173,116102,2,0,P|438:158|407:169,1,65,2|8,1:2|3:2,0:0:0:0:
346,201,116571,1,2,1:2:0:0:
272,241,116805,1,2,3:2:0:0:
191,207,117040,1,2,1:2:0:0:
235,43,117509,22,0,P|292:14|353:31,1,130,2|2,1:2|1:2,0:0:0:0:
425,76,118212,1,10,3:2:0:0:
453,242,118680,2,0,P|461:273|472:304,1,65,2|2,3:2|1:2,0:0:0:0:
512,378,119149,1,10,3:2:0:0:
428,378,119384,2,0,P|395:368|315:353,2,97.5,2|10|10,1:2|0:2|3:2,0:0:0:0:
472,304,120321,1,2,1:2:0:0:
350,186,120790,1,8,0:1:0:0:
277,223,121024,1,8,0:2:0:0:
190,204,121259,38,0,P|201:268|206:332,1,130,4|2,1:1|1:2,0:0:0:0:
133,374,121962,1,10,3:2:0:0:
50,356,122196,2,0,P|29:313|46:268,1,97.5,2|10,1:2|0:2,0:0:0:0:
117,164,122899,1,10,3:2:0:0:
65,96,123134,2,0,P|64:48|59:-1,2,97.5,2|8|10,1:2|0:2|3:2,0:0:0:0:
32,173,124071,2,0,P|41:216|47:241,1,65,2|0,1:2|3:2,0:0:0:0:
126,261,124540,1,2,1:2:0:0:
206,234,124774,1,10,3:2:0:0:
228,153,125009,38,0,P|294:158|341:212,1,130,2|2,1:2|1:2,0:0:0:0:
326,285,125712,1,10,3:2:0:0:
370,356,125946,2,0,P|418:355|467:350,1,97.5,2|10,1:2|0:2,0:0:0:0:
465,223,126649,1,10,3:2:0:0:
506,149,126884,2,0,P|511:100|511:51,2,97.5,2|10|10,1:2|0:2|3:2,0:0:0:0:
421,148,127821,2,0,P|382:135|353:138,1,65,2|8,1:2|0:1,0:0:0:0:
297,195,128290,1,8,1:1:0:0:
218,222,128524,1,0,0:1:0:0:
142,183,128759,22,0,B|125:141|125:141|148:85,1,97.5,6|10,1:2|0:2,0:0:0:0:
256,33,129462,1,10,3:2:0:0:
299,104,129696,2,0,B|316:146|316:146|293:202,1,97.5,2|10,1:2|0:2,0:0:0:0:
237,306,130399,1,10,3:2:0:0:
164,349,130634,2,0,P|113:342|78:338,1,65,2|0,1:2|3:2,0:0:0:0:
64,263,131102,2,0,P|31:267|0:271,1,65,2|8,1:2|3:2,0:0:0:0:
15,188,131571,1,2,1:2:0:0:
82,137,131805,1,2,3:2:0:0:
162,164,132040,1,2,1:2:0:0:
245,16,132509,54,0,P|310:44|368:39,1,130,2|2,1:2|1:2,0:0:0:0:
445,6,133212,1,10,3:2:0:0:
499,71,133446,2,0,P|510:153|516:195,2,97.5,2|10|10,1:2|0:2|3:2,0:0:0:0:
418,98,134384,2,0,P|381:107|344:118,1,65,0|0,1:2|3:2,0:0:0:0:
364,198,134852,2,0,P|395:189|426:181,1,65,0|10,1:2|3:2,0:0:0:0:
483,243,135321,1,2,1:2:0:0:
438,314,135555,1,8,0:1:0:0:
505,365,135790,1,8,1:1:0:0:
336,371,136259,6,0,B|267:379|291:329|213:334,1,130,4|2,1:1|1:2,0:0:0:0:
141,373,136962,1,10,3:2:0:0:
84,313,137196,2,0,P|46:329|-13:374,1,97.5,2|10,1:2|0:2,0:0:0:0:
4,234,137899,1,10,3:2:0:0:
70,181,138134,2,0,P|81:127|61:79,2,97.5,2|10|10,1:2|0:2|3:2,0:0:0:0:
219,259,139305,2,0,P|271:248|290:242,1,65,2|2,3:2|1:2,0:0:0:0:
346,189,139774,1,10,3:2:0:0:
429,203,140009,54,0,P|459:269|434:334,1,130,2|2,1:2|1:2,0:0:0:0:
377,373,140712,1,10,3:2:0:0:
214,348,141180,1,8,0:1:0:0:
130,359,141415,2,0,P|78:370|59:376,1,65,8|0,0:1|0:0,0:0:0:0:
