osu file format v14

[General]
AudioFilename: audio.ogg
AudioLeadIn: 0
PreviewTime: 116059
Countdown: 0
SampleSet: Normal
StackLeniency: 0.7
Mode: 1
LetterboxInBreaks: 0
WidescreenStoryboard: 1

[Editor]
Bookmarks: 271,3963,11348,18732,33502,40886,48271,55656,63040,68579,76424,83348,90732,107348,117502,131348,146117,159040
DistanceSpacing: 0.1
BeatDivisor: 4
GridSize: 32
TimelineZoom: 1.500001

[Metadata]
Title:Romance
TitleUnicode:大正浪漫
Artist:YOASOBI
ArtistUnicode:YOASOBI
Creator:gaston_2199
Version:Muzukashii
Source:
Tags:ロマンス Taisho Taishou Roman THE BOOK 2 Ayase 幾田りら ikura ikuta lilas SHAFT novel 菜摘 Natsumi japanese pop jpop j-pop folk oriental female vocal
BeatmapID:3424896
BeatmapSetID:1667710

[Difficulty]
HPDrainRate:6
CircleSize:2
OverallDifficulty:4
ApproachRate:10
SliderMultiplier:1.4
SliderTickRate:1

[Events]
//Background and Video events
0,0,"BG.jpg",0,60
//Break Periods
//Storyboard Layer 0 (Background)
//Storyboard Layer 1 (Fail)
//Storyboard Layer 2 (Pass)
//Storyboard Layer 3 (Foreground)
//Storyboard Layer 4 (Overlay)
//Storyboard Sound Samples

[TimingPoints]
271,461.538461538462,4,1,0,80,1,0
271,-86.9565217391304,4,1,0,80,0,0
4424,-100,4,1,0,70,0,0
11345,-95.2380952380952,4,1,0,70,0,0
18729,-90.9090909090909,4,1,0,80,0,0
33732,-100,4,1,0,70,0,0
41114,-99.7795285888014,4,1,0,70,0,0
41229,-99.6424701866007,4,1,0,70,0,0
41344,-99.4962393567148,4,1,0,70,0,0
41575,-99.1824046643732,4,1,0,70,0,0
41806,-98.8486974922857,4,1,0,70,0,0
42037,-98.5001075004651,4,1,0,70,0,0
42152,-98.3220412084053,4,1,0,70,0,0
42268,-98.1397927910651,4,1,0,70,0,0
42498,-97.771584634424,4,1,0,70,0,0
42729,-97.393928199051,4,1,0,70,0,0
42960,-97.009695625856,4,1,0,70,0,0
43075,-96.8162896238718,4,1,0,70,0,0
43191,-96.6199266329983,4,1,0,70,0,0
43421,-96.2271961114601,4,1,0,70,0,0
43652,-95.8288088248754,4,1,0,70,0,0
43883,-95.4270800489209,4,1,0,70,0,0
43998,-95.2260078836783,4,1,0,70,0,0
44114,-95.0225436542993,4,1,0,70,0,0
44344,-94.6174318936853,4,1,0,70,0,0
44575,-94.2086316924358,4,1,0,70,0,0
44691,-94.0027345307117,4,1,0,70,0,0
44806,-93.7982646195222,4,1,0,70,0,0
44921,-93.5934876610626,4,1,0,70,0,0
45037,-93.3866565718305,4,1,0,70,0,0
45152,-93.1813727718999,4,1,0,70,0,0
45268,-92.9741000839641,4,1,0,70,0,0
45383,-92.7684441012998,4,1,0,70,0,0
45498,-92.5626489755923,4,1,0,70,0,0
45614,-92.3549525464256,4,1,0,70,0,0
45729,-92.1489633627346,4,1,0,70,0,0
45844,-91.9429174886616,4,1,0,70,0,0
45960,-91.7350478035618,4,1,0,70,0,0
46075,-91.5289622477579,4,1,0,70,0,0
46191,-91.3210999074,4,1,0,70,0,0
46306,-91.115066528588,4,1,0,70,0,0
46421,-90.9090909090909,4,1,0,80,0,0
46537,-92.163927390616,4,1,0,80,0,0
46652,-93.4254246992564,4,1,0,80,0,0
46768,-94.7145290559559,4,1,0,80,0,0
46883,-96.0077612557305,4,1,0,80,0,0
46998,-97.3145887686192,4,1,0,80,0,0
47114,-98.6445345061779,4,1,0,80,0,0
47229,-99.9721450802304,4,1,0,80,0,0
47344,-101.305665994993,4,1,0,80,0,0
47575,-103.984613019853,4,1,0,80,0,0
47691,-105.317634177692,4,1,0,80,0,0
47806,-106.619181655469,4,1,0,80,0,0
48037,-109.110203874919,4,1,0,80,0,0
48271,-90.9090909090908,4,1,0,90,0,1
67655,-90.9090909090909,4,1,0,90,0,0
68578,-100,4,1,0,80,0,0
76422,-95.2380952380952,4,1,0,80,0,0
83347,-90.9090909090909,4,1,0,80,0,0
99040,-66.6666666666667,4,1,0,80,0,0
99963,-100,4,1,0,70,0,0
109191,-83.3333333333333,4,1,0,80,0,0
109652,-85.1044211885114,4,1,0,80,0,0
110114,-86.9565217391304,4,1,0,80,0,0
111037,-90.9090909090909,4,1,0,80,0,0
111960,-95.2380952380952,4,1,0,80,0,0
112883,-100,4,1,0,80,0,0
114729,-90.9090909090909,4,1,0,80,0,0
116578,-83.3333333333333,4,1,0,90,0,1
117040,-90.9090909090909,4,1,0,80,0,0
117501,-83.3333333333333,4,1,0,90,0,1
117963,-86.9565217391304,4,1,0,90,0,1
130886,-86.9565217391304,4,1,0,80,0,0
131347,-86.9565217391304,4,1,0,90,0,1
158117,-86.9565217391304,4,1,0,90,0,0
159040,-100,4,1,0,80,0,0

[HitObjects]
256,192,271,5,4,0:0:0:0:
256,192,501,1,8,0:0:0:0:
287,171,617,1,8,0:0:0:0:
256,192,732,1,8,0:0:0:0:
256,192,963,1,0,0:0:0:0:
249,171,1078,1,0,0:0:0:0:
256,192,1194,1,0,0:0:0:0:
256,192,1424,1,0,0:0:0:0:
256,192,1655,1,8,0:0:0:0:
256,192,1886,1,0,0:0:0:0:
256,192,2347,1,0,0:0:0:0:
255,189,2463,1,0,0:0:0:0:
256,192,2578,1,0,0:0:0:0:
256,192,2809,1,8,0:0:0:0:
256,192,3040,1,0,0:0:0:0:
256,192,3271,1,0,0:0:0:0:
256,192,3501,1,8,0:0:0:0:
256,192,3617,1,8,0:0:0:0:
256,192,3732,1,8,0:0:0:0:
256,192,3963,1,4,0:0:0:0:
256,192,4424,1,8,0:0:0:0:
256,192,4655,1,0,0:0:0:0:
256,192,4886,1,8,0:0:0:0:
259,175,5347,1,0,0:0:0:0:
160,124,5578,1,8,0:0:0:0:
160,124,5809,1,0,0:0:0:0:
256,192,6271,1,8,0:0:0:0:
160,116,6501,1,8,0:0:0:0:
256,192,6732,1,0,0:0:0:0:
128,134,7194,1,8,0:0:0:0:
256,192,7655,1,0,0:0:0:0:
256,192,8117,1,8,0:0:0:0:
174,65,8347,1,8,0:0:0:0:
256,192,8578,1,0,0:0:0:0:
256,192,8809,1,0,0:0:0:0:
256,192,9040,1,8,0:0:0:0:
256,192,9501,1,0,0:0:0:0:
256,192,9963,1,8,0:0:0:0:
256,192,10424,1,8,0:0:0:0:
256,192,10655,1,0,0:0:0:0:
256,192,10886,1,8,0:0:0:0:
256,192,11347,1,4,0:0:0:0:
256,192,11809,1,8,0:0:0:0:
171,173,12040,1,8,0:0:0:0:
256,192,12271,1,0,0:0:0:0:
256,192,12501,1,0,0:0:0:0:
256,192,12732,1,8,0:0:0:0:
256,192,13194,1,0,0:0:0:0:
256,192,13655,1,8,0:0:0:0:
256,192,14117,1,8,0:0:0:0:
158,77,14347,1,0,0:0:0:0:
256,192,14578,1,8,0:0:0:0:
151,82,14809,1,8,0:0:0:0:
256,192,15040,1,0,0:0:0:0:
256,192,15501,1,8,0:0:0:0:
256,192,15732,1,0,0:0:0:0:
256,192,15963,1,8,0:0:0:0:
256,192,16078,1,8,0:0:0:0:
256,192,16194,1,8,0:0:0:0:
256,192,16424,1,0,0:0:0:0:
256,192,16655,1,8,0:0:0:0:
256,192,16886,1,0,0:0:0:0:
256,192,17117,1,8,0:0:0:0:
256,192,17347,1,8,0:0:0:0:
256,192,18040,1,0,0:0:0:0:
256,192,18271,1,0,0:0:0:0:
256,192,18501,1,8,0:0:0:0:
256,192,18732,1,4,0:0:0:0:
256,192,19194,1,8,0:0:0:0:
256,192,19424,1,0,0:0:0:0:
256,192,19655,1,0,0:0:0:0:
256,192,19886,1,8,0:0:0:0:
256,192,20347,1,8,0:0:0:0:
277,188,20578,1,0,0:0:0:0:
263,184,20694,1,0,0:0:0:0:
265,182,20809,1,0,0:0:0:0:
256,192,21040,1,8,0:0:0:0:
256,192,21271,1,0,0:0:0:0:
256,192,21501,1,8,0:0:0:0:
252,190,21963,1,8,0:0:0:0:
253,186,22424,1,0,0:0:0:0:
256,192,22886,1,8,0:0:0:0:
256,192,23117,1,8,0:0:0:0:
256,192,23347,1,0,0:0:0:0:
272,94,23463,1,0,0:0:0:0:
263,200,23578,1,0,0:0:0:0:
144,96,23809,1,8,0:0:0:0:
256,192,24271,1,0,0:0:0:0:
256,192,24732,1,8,0:0:0:0:
256,192,24963,1,0,0:0:0:0:
256,192,25078,1,0,0:0:0:0:
256,192,25194,1,0,0:0:0:0:
256,192,25424,1,0,0:0:0:0:
253,185,25655,1,8,0:0:0:0:
255,188,25886,1,8,0:0:0:0:
256,192,26117,1,0,0:0:0:0:
256,192,26578,1,8,0:0:0:0:
260,169,26809,1,0,0:0:0:0:
256,192,27040,1,8,0:0:0:0:
256,192,27271,1,0,0:0:0:0:
256,192,27501,1,8,0:0:0:0:
256,192,27963,1,0,0:0:0:0:
256,192,28424,1,8,0:0:0:0:
256,192,28886,1,0,0:0:0:0:
256,192,29347,1,8,0:0:0:0:
257,185,29578,1,0,0:0:0:0:
256,192,29693,1,0,0:0:0:0:
256,192,29809,1,0,0:0:0:0:
250,204,30040,1,0,0:0:0:0:
65,189,30271,1,8,0:0:0:0:
256,192,30501,1,0,0:0:0:0:
160,62,30963,1,0,0:0:0:0:
253,189,31194,1,8,0:0:0:0:
256,192,31424,1,8,0:0:0:0:
256,192,31655,1,0,0:0:0:0:
260,185,32117,1,8,0:0:0:0:
256,192,32578,1,8,0:0:0:0:
256,192,32809,1,0,0:0:0:0:
256,192,33040,1,8,0:0:0:0:
256,192,33155,1,8,0:0:0:0:
256,192,33271,1,8,0:0:0:0:
256,192,33501,1,4,0:0:0:0:
245,180,33963,1,8,0:0:0:0:
245,180,34194,1,0,0:0:0:0:
256,192,34424,1,8,0:0:0:0:
256,192,34886,1,8,0:0:0:0:
245,180,35117,1,0,0:0:0:0:
256,192,35578,1,8,0:0:0:0:
256,192,36040,1,0,0:0:0:0:
256,192,36271,1,8,0:0:0:0:
236,178,36501,1,0,0:0:0:0:
256,192,37194,1,0,0:0:0:0:
236,178,37424,1,8,0:0:0:0:
256,192,37655,1,8,0:0:0:0:
240,168,37886,1,0,0:0:0:0:
256,192,38117,1,8,0:0:0:0:
243,159,38347,1,0,0:0:0:0:
256,192,38809,1,8,0:0:0:0:
256,192,39040,1,8,0:0:0:0:
256,192,39963,1,8,0:0:0:0:
244,173,40194,1,0,0:0:0:0:
175,127,40424,1,8,0:0:0:0:
256,192,40886,1,4,0:0:0:0:
160,77,41578,1,0,0:0:0:0:
256,192,41809,1,8,0:0:0:0:
261,168,42040,1,8,0:0:0:0:
256,192,42271,1,0,0:0:0:0:
256,192,42501,1,8,0:0:0:0:
256,192,42732,1,0,0:0:0:0:
261,168,43424,1,8,0:0:0:0:
256,192,43655,1,8,0:0:0:0:
173,71,43886,1,0,0:0:0:0:
256,192,44117,1,8,0:0:0:0:
261,168,44347,1,8,0:0:0:0:
256,192,44578,1,0,0:0:0:0:
256,192,44694,1,0,0:0:0:0:
256,192,44809,1,0,0:0:0:0:
256,192,45040,1,8,0:0:0:0:
256,192,45271,1,0,0:0:0:0:
256,192,45501,1,8,0:0:0:0:
256,192,45617,1,8,0:0:0:0:
256,192,45732,1,8,0:0:0:0:
256,192,45963,1,0,0:0:0:0:
256,192,46194,1,8,0:0:0:0:
256,192,46424,1,0,0:0:0:0:
256,192,46771,1,0,0:0:0:0:
256,192,47117,1,0,0:0:0:0:
256,192,47347,1,8,0:0:0:0:
256,192,48271,1,12,0:0:0:0:
256,192,48732,1,8,0:0:0:0:
256,192,48963,1,0,0:0:0:0:
256,192,49194,1,8,0:0:0:0:
256,192,49655,1,8,0:0:0:0:
256,192,49886,1,8,0:0:0:0:
256,192,50117,1,0,0:0:0:0:
256,192,50347,1,8,0:0:0:0:
245,200,50463,1,8,0:0:0:0:
256,192,50578,1,8,0:0:0:0:
139,157,50809,1,0,0:0:0:0:
256,192,51040,1,0,0:0:0:0:
256,192,51501,1,8,0:0:0:0:
256,192,51732,1,8,0:0:0:0:
256,192,51963,1,0,0:0:0:0:
256,192,52194,1,8,0:0:0:0:
256,192,52309,1,8,0:0:0:0:
256,192,52540,1,8,0:0:0:0:
256,192,52771,1,0,0:0:0:0:
256,192,53347,1,0,0:0:0:0:
256,192,53578,1,0,0:0:0:0:
256,192,53809,1,8,0:0:0:0:
256,192,54040,1,0,0:0:0:0:
256,192,54155,1,0,0:0:0:0:
256,192,54386,1,0,0:0:0:0:
256,192,54617,1,8,0:0:0:0:
256,192,55194,1,8,0:0:0:0:
256,192,55655,1,4,0:0:0:0:
256,192,56117,1,8,0:0:0:0:
256,192,56347,1,0,0:0:0:0:
256,192,56578,1,8,0:0:0:0:
256,192,57040,1,8,0:0:0:0:
256,192,57271,1,8,0:0:0:0:
256,192,57501,1,0,0:0:0:0:
256,192,57732,1,0,0:0:0:0:
256,192,57963,1,8,0:0:0:0:
256,192,58194,1,0,0:0:0:0:
258,151,58309,1,0,0:0:0:0:
258,151,58424,1,0,0:0:0:0:
256,192,58886,1,8,0:0:0:0:
256,192,59117,1,8,0:0:0:0:
256,192,59347,1,0,0:0:0:0:
256,192,59809,1,8,0:0:0:0:
256,192,60040,1,8,0:0:0:0:
256,192,60271,1,0,0:0:0:0:
256,192,60732,1,8,0:0:0:0:
181,138,60963,1,0,0:0:0:0:
256,192,61194,1,8,0:0:0:0:
247,192,61309,1,8,0:0:0:0:
247,192,61424,1,8,0:0:0:0:
212,79,61655,1,0,0:0:0:0:
256,192,61886,1,8,0:0:0:0:
256,192,62117,1,0,0:0:0:0:
256,192,62232,1,0,0:0:0:0:
256,192,62347,1,0,0:0:0:0:
256,192,62578,1,8,0:0:0:0:
256,192,63040,1,4,0:0:0:0:
256,192,63501,1,8,0:0:0:0:
256,192,63963,1,0,0:0:0:0:
129,134,64194,1,0,0:0:0:0:
149,131,64424,1,8,0:0:0:0:
256,192,64886,1,0,0:0:0:0:
241,153,65117,1,8,0:0:0:0:
257,159,65232,1,8,0:0:0:0:
251,178,65347,1,8,0:0:0:0:
242,153,65578,1,8,0:0:0:0:
256,192,65809,1,0,0:0:0:0:
178,45,66040,1,0,0:0:0:0:
178,45,66271,1,8,0:0:0:0:
256,192,66732,1,8,0:0:0:0:
256,192,66963,1,0,0:0:0:0:
256,192,67078,1,0,0:0:0:0:
256,192,67194,1,0,0:0:0:0:
256,192,67424,1,8,0:0:0:0:
256,192,67655,1,4,0:0:0:0:
256,192,68578,1,0,0:0:0:0:
256,192,69040,1,8,0:0:0:0:
243,168,69732,1,0,0:0:0:0:
256,192,69963,1,8,0:0:0:0:
254,184,70424,1,0,0:0:0:0:
256,192,70886,1,8,0:0:0:0:
253,171,71578,1,0,0:0:0:0:
256,192,71809,1,8,0:0:0:0:
256,192,72040,1,0,0:0:0:0:
256,192,72271,1,0,0:0:0:0:
256,192,72501,1,8,0:0:0:0:
255,174,72732,1,8,0:0:0:0:
253,165,73424,1,0,0:0:0:0:
256,192,73655,1,8,0:0:0:0:
256,192,73886,1,0,0:0:0:0:
254,186,74117,1,0,0:0:0:0:
256,192,74578,1,8,0:0:0:0:
254,185,75040,1,8,0:0:0:0:
256,192,75155,1,8,0:0:0:0:
256,192,75386,1,8,0:0:0:0:
256,192,75617,1,8,0:0:0:0:
256,192,75847,1,0,0:0:0:0:
256,192,76424,1,12,0:0:0:0:
256,192,76886,1,0,0:0:0:0:
205,25,77232,1,0,0:0:0:0:
258,175,77463,1,0,0:0:0:0:
188,24,77694,1,8,0:0:0:0:
237,157,78271,1,0,0:0:0:0:
256,192,78732,1,8,0:0:0:0:
256,192,79078,1,8,0:0:0:0:
248,175,79309,1,8,0:0:0:0:
106,59,79540,1,0,0:0:0:0:
240,189,79886,1,0,0:0:0:0:
256,192,80117,1,8,0:0:0:0:
246,190,80347,1,0,0:0:0:0:
246,190,80463,1,0,0:0:0:0:
248,175,80809,1,0,0:0:0:0:
171,55,81040,1,8,0:0:0:0:
258,180,81271,1,8,0:0:0:0:
256,192,81386,1,8,0:0:0:0:
232,182,81963,1,8,0:0:0:0:
232,182,82194,1,0,0:0:0:0:
249,173,82424,1,0,0:0:0:0:
256,192,82655,1,8,0:0:0:0:
256,192,82771,1,8,0:0:0:0:
256,192,82886,1,8,0:0:0:0:
256,192,83117,1,8,0:0:0:0:
256,192,83347,1,4,0:0:0:0:
256,192,83809,1,8,0:0:0:0:
256,192,84040,1,0,0:0:0:0:
162,114,84271,1,8,0:0:0:0:
167,82,84386,1,8,0:0:0:0:
159,40,84501,1,8,0:0:0:0:
256,192,84732,1,0,0:0:0:0:
256,192,84963,1,8,0:0:0:0:
256,192,85194,1,0,0:0:0:0:
256,192,85424,1,8,0:0:0:0:
240,192,85886,1,0,0:0:0:0:
243,179,86001,1,0,0:0:0:0:
256,192,86117,1,0,0:0:0:0:
256,192,86347,1,8,0:0:0:0:
256,192,87040,1,0,0:0:0:0:
256,192,87501,1,8,0:0:0:0:
256,192,87732,1,8,0:0:0:0:
256,192,87963,1,0,0:0:0:0:
181,69,88078,1,0,0:0:0:0:
256,192,88194,1,0,0:0:0:0:
256,192,88424,1,8,0:0:0:0:
256,192,88655,1,8,0:0:0:0:
256,192,88886,1,0,0:0:0:0:
256,192,89347,1,8,0:0:0:0:
256,192,89809,1,0,0:0:0:0:
256,192,90040,1,8,0:0:0:0:
256,192,90155,1,8,0:0:0:0:
256,192,90271,1,8,0:0:0:0:
256,192,90501,1,8,0:0:0:0:
256,192,90732,1,4,0:0:0:0:
256,192,91194,1,8,0:0:0:0:
256,192,91424,1,0,0:0:0:0:
256,192,91655,1,8,0:0:0:0:
180,58,91771,1,8,0:0:0:0:
146,113,91886,1,8,0:0:0:0:
256,192,92117,1,0,0:0:0:0:
256,192,92347,1,8,0:0:0:0:
256,192,92578,1,0,0:0:0:0:
256,192,93040,1,8,0:0:0:0:
256,192,93271,1,0,0:0:0:0:
256,192,93501,1,8,0:0:0:0:
176,51,93617,1,8,0:0:0:0:
256,192,93732,1,8,0:0:0:0:
256,192,93963,1,0,0:0:0:0:
256,192,94194,1,0,0:0:0:0:
256,192,94424,1,8,0:0:0:0:
254,168,94886,1,0,0:0:0:0:
256,192,95117,1,8,0:0:0:0:
256,192,95347,1,0,0:0:0:0:
256,192,95463,1,0,0:0:0:0:
256,192,95578,1,0,0:0:0:0:
256,192,95809,1,8,0:0:0:0:
256,192,96040,1,8,0:0:0:0:
256,192,96271,1,0,0:0:0:0:
160,77,96617,1,0,0:0:0:0:
256,192,96963,1,0,0:0:0:0:
256,192,97194,1,8,0:0:0:0:
160,77,97540,1,8,0:0:0:0:
256,192,97886,1,8,0:0:0:0:
256,192,98117,1,0,0:0:0:0:
256,192,99963,1,4,0:0:0:0:
256,192,100886,1,8,0:0:0:0:
256,192,101347,1,0,0:0:0:0:
256,192,101809,1,0,0:0:0:0:
256,192,102271,1,0,0:0:0:0:
256,192,102732,1,8,0:0:0:0:
256,192,103194,1,8,0:0:0:0:
256,192,103424,1,8,0:0:0:0:
256,192,103655,1,0,0:0:0:0:
256,192,104578,1,8,0:0:0:0:
288,192,105271,1,8,0:0:0:0:
288,192,105501,1,8,0:0:0:0:
288,192,105732,1,0,0:0:0:0:
288,192,105963,1,0,0:0:0:0:
288,192,106424,1,8,0:0:0:0:
288,192,106655,1,0,0:0:0:0:
288,192,106886,1,0,0:0:0:0:
288,192,107347,1,8,0:0:0:0:
224,192,109194,1,12,0:0:0:0:
224,192,109655,1,4,0:0:0:0:
224,192,110117,1,12,0:0:0:0:
224,192,111040,1,4,0:0:0:0:
224,192,111963,1,12,0:0:0:0:
224,192,112886,1,4,0:0:0:0:
224,192,113347,1,0,0:0:0:0:
224,192,113809,1,0,0:0:0:0:
224,192,114271,1,0,0:0:0:0:
224,192,114732,1,0,0:0:0:0:
224,192,114847,1,0,0:0:0:0:
224,192,115078,1,0,0:0:0:0:
224,192,115309,1,0,0:0:0:0:
224,192,115540,1,8,0:0:0:0:
224,192,116117,1,8,0:0:0:0:
224,192,116232,1,8,0:0:0:0:
224,192,116347,1,8,0:0:0:0:
224,192,116578,1,4,0:0:0:0:
224,192,117501,1,4,0:0:0:0:
256,192,117963,1,8,0:0:0:0:
256,192,118194,1,8,0:0:0:0:
256,192,118424,1,0,0:0:0:0:
256,192,118655,1,8,0:0:0:0:
206,24,118771,1,8,0:0:0:0:
256,192,118886,1,8,0:0:0:0:
256,192,119117,1,0,0:0:0:0:
256,192,119347,1,8,0:0:0:0:
256,192,119809,1,8,0:0:0:0:
256,192,120040,1,8,0:0:0:0:
256,192,120271,1,0,0:0:0:0:
256,192,120501,1,8,0:0:0:0:
256,192,120617,1,8,0:0:0:0:
256,192,120847,1,8,0:0:0:0:
256,192,121078,1,0,0:0:0:0:
256,192,121655,1,0,0:0:0:0:
256,192,121886,1,0,0:0:0:0:
256,192,122117,1,8,0:0:0:0:
256,192,122347,1,0,0:0:0:0:
256,192,122463,1,0,0:0:0:0:
256,192,122694,1,0,0:0:0:0:
256,192,122924,1,8,0:0:0:0:
256,192,123501,1,8,0:0:0:0:
256,192,123963,1,4,0:0:0:0:
256,192,124424,1,8,0:0:0:0:
256,192,124655,1,0,0:0:0:0:
256,192,124886,1,8,0:0:0:0:
256,192,125347,1,8,0:0:0:0:
256,192,125578,1,8,0:0:0:0:
256,192,125809,1,0,0:0:0:0:
256,192,126040,1,8,0:0:0:0:
256,192,126271,1,8,0:0:0:0:
256,192,126501,1,0,0:0:0:0:
256,192,126617,1,0,0:0:0:0:
256,192,126732,1,0,0:0:0:0:
256,192,127194,1,8,0:0:0:0:
256,192,127424,1,8,0:0:0:0:
256,192,127655,1,0,0:0:0:0:
256,192,128117,1,8,0:0:0:0:
256,192,128347,1,0,0:0:0:0:
256,192,128578,1,8,0:0:0:0:
256,192,129040,1,0,0:0:0:0:
256,192,129271,1,0,0:0:0:0:
256,192,129501,1,8,0:0:0:0:
242,178,129617,1,8,0:0:0:0:
241,187,129732,1,8,0:0:0:0:
256,192,129963,1,0,0:0:0:0:
255,151,130194,1,8,0:0:0:0:
256,192,130424,1,0,0:0:0:0:
241,165,130540,1,0,0:0:0:0:
256,192,130655,1,0,0:0:0:0:
256,192,130886,1,8,0:0:0:0:
256,192,131347,1,4,0:0:0:0:
256,192,131809,1,8,0:0:0:0:
256,192,132040,1,0,0:0:0:0:
256,192,132271,1,8,0:0:0:0:
256,192,132732,1,8,0:0:0:0:
256,192,132963,1,8,0:0:0:0:
256,192,133194,1,0,0:0:0:0:
256,192,133424,1,8,0:0:0:0:
257,188,133540,1,8,0:0:0:0:
256,192,133655,1,8,0:0:0:0:
256,192,133886,1,0,0:0:0:0:
256,192,134117,1,8,0:0:0:0:
256,192,134578,1,8,0:0:0:0:
256,192,134809,1,8,0:0:0:0:
256,192,135040,1,0,0:0:0:0:
256,192,135271,1,8,0:0:0:0:
256,192,135386,1,8,0:0:0:0:
256,192,135617,1,8,0:0:0:0:
256,192,135847,1,0,0:0:0:0:
256,192,136424,1,0,0:0:0:0:
256,192,136655,1,0,0:0:0:0:
256,192,136886,1,8,0:0:0:0:
256,192,137117,1,0,0:0:0:0:
256,192,137232,1,0,0:0:0:0:
256,192,137463,1,0,0:0:0:0:
256,192,137694,1,8,0:0:0:0:
256,192,138271,1,8,0:0:0:0:
256,192,138732,1,4,0:0:0:0:
256,192,139194,1,8,0:0:0:0:
256,192,139424,1,0,0:0:0:0:
256,192,139655,1,8,0:0:0:0:
256,192,140117,1,8,0:0:0:0:
256,192,140347,1,8,0:0:0:0:
256,192,140578,1,0,0:0:0:0:
256,192,140809,1,8,0:0:0:0:
256,192,141040,1,8,0:0:0:0:
256,192,141271,1,0,0:0:0:0:
256,192,141386,1,0,0:0:0:0:
256,192,141501,1,0,0:0:0:0:
256,192,141963,1,8,0:0:0:0:
256,192,142194,1,8,0:0:0:0:
256,192,142424,1,0,0:0:0:0:
256,192,142886,1,8,0:0:0:0:
256,192,143117,1,0,0:0:0:0:
256,192,143347,1,8,0:0:0:0:
236,171,143694,1,8,0:0:0:0:
256,192,143809,1,8,0:0:0:0:
256,192,144040,1,8,0:0:0:0:
256,192,144271,1,0,0:0:0:0:
254,181,144501,1,0,0:0:0:0:
256,192,144732,1,8,0:0:0:0:
256,192,145194,1,0,0:0:0:0:
255,188,145309,1,0,0:0:0:0:
256,192,145424,1,0,0:0:0:0:
256,192,145655,1,8,0:0:0:0:
256,192,145886,1,8,0:0:0:0:
256,192,146117,5,4,0:0:0:0:
256,192,146578,1,8,0:0:0:0:
256,192,147040,1,0,0:0:0:0:
256,192,147271,1,8,0:0:0:0:
256,192,147501,1,8,0:0:0:0:
273,162,147732,1,8,0:0:0:0:
256,192,147963,1,0,0:0:0:0:
251,178,148424,1,8,0:0:0:0:
256,192,148886,1,0,0:0:0:0:
273,172,149117,1,0,0:0:0:0:
256,192,149347,1,8,0:0:0:0:
263,200,149463,1,8,0:0:0:0:
256,192,149578,1,8,0:0:0:0:
256,192,149809,1,0,0:0:0:0:
256,192,150271,1,8,0:0:0:0:
154,112,150501,1,8,0:0:0:0:
256,192,150732,1,0,0:0:0:0:
256,199,150963,1,0,0:0:0:0:
256,199,151194,1,8,0:0:0:0:
241,172,151655,1,8,0:0:0:0:
229,129,151886,1,0,0:0:0:0:
244,189,152001,1,0,0:0:0:0:
229,129,152117,1,0,0:0:0:0:
242,180,152347,1,8,0:0:0:0:
241,172,152578,1,0,0:0:0:0:
241,172,153040,1,8,0:0:0:0:
241,172,153271,1,8,0:0:0:0:
241,172,153501,1,4,0:0:0:0:
256,192,153963,1,8,0:0:0:0:
256,192,154424,1,0,0:0:0:0:
256,192,154655,1,8,0:0:0:0:
256,192,154886,1,8,0:0:0:0:
256,192,155347,1,0,0:0:0:0:
242,168,155578,1,8,0:0:0:0:
256,177,155694,1,8,0:0:0:0:
251,178,155809,1,8,0:0:0:0:
232,133,156040,1,8,0:0:0:0:
256,192,156271,1,0,0:0:0:0:
256,192,156501,1,0,0:0:0:0:
256,192,156732,1,8,0:0:0:0:
256,192,157194,1,8,0:0:0:0:
254,184,157424,1,0,0:0:0:0:
256,192,157540,1,0,0:0:0:0:
256,192,157655,1,0,0:0:0:0:
256,192,157886,1,8,0:0:0:0:
256,192,158117,1,4,0:0:0:0:
256,192,159040,1,0,0:0:0:0:
256,192,159271,1,0,0:0:0:0:
256,192,159501,1,8,0:0:0:0:
256,192,159963,1,8,0:0:0:0:
256,192,160194,1,0,0:0:0:0:
256,192,160424,1,8,0:0:0:0:
180,51,160886,1,0,0:0:0:0:
256,192,161347,1,8,0:0:0:0:
256,192,161809,1,8,0:0:0:0:
256,192,162040,1,0,0:0:0:0:
256,192,162271,1,8,0:0:0:0:
256,192,162732,1,0,0:0:0:0:
256,192,163194,1,8,0:0:0:0:
135,101,163655,1,0,0:0:0:0:
188,24,163886,1,0,0:0:0:0:
256,192,164117,1,8,0:0:0:0:
256,192,164463,1,0,0:0:0:0:
256,192,164809,1,0,0:0:0:0:
256,192,165040,1,0,0:0:0:0:
256,192,165155,1,0,0:0:0:0:
256,192,165386,1,8,0:0:0:0:
