osu file format v14

[General]
AudioFilename: audio.ogg
AudioLeadIn: 0
PreviewTime: 116059
Countdown: 0
SampleSet: Normal
StackLeniency: 0.7
Mode: 1
LetterboxInBreaks: 0
WidescreenStoryboard: 1

[Editor]
Bookmarks: 271,3963,11348,18732,33502,40886,48271,55656,63040,68579,76424,83348,90732,107348,117502,131348,146117,159040
DistanceSpacing: 0.1
BeatDivisor: 1
GridSize: 32
TimelineZoom: 0.8000009

[Metadata]
Title:Romance
TitleUnicode:大正浪漫
Artist:YOASOBI
ArtistUnicode:YOASOBI
Creator:gaston_2199
Version:Kantan
Source:
Tags:ロマンス Taisho Taishou Roman THE BOOK 2 Ayase 幾田りら ikura ikuta lilas SHAFT novel 菜摘 Natsumi japanese pop jpop j-pop folk oriental female vocal
BeatmapID:3493242
BeatmapSetID:1667710

[Difficulty]
HPDrainRate:8
CircleSize:2
OverallDifficulty:2
ApproachRate:10
SliderMultiplier:1.4
SliderTickRate:1

[Events]
//Background and Video events
0,0,"BG.jpg",0,60
//Break Periods
//Storyboard Layer 0 (Background)
//Storyboard Layer 1 (Fail)
//Storyboard Layer 2 (Pass)
//Storyboard Layer 3 (Foreground)
//Storyboard Layer 4 (Overlay)
//Storyboard Sound Samples

[TimingPoints]
271,461.538461538462,4,1,0,80,1,0
271,-90.9090909090909,4,1,0,80,0,0
4424,-90.9090909090909,4,1,0,70,0,0
18729,-90.9090909090909,4,1,0,80,0,0
33732,-90.9090909090909,4,1,0,70,0,0
46421,-90.9090909090909,4,1,0,80,0,0
48271,-90.9090909090909,4,1,0,90,0,1
67655,-90.9090909090909,4,1,0,90,0,0
68578,-90.9090909090909,4,1,0,80,0,0
99963,-90.9090909090909,4,1,0,70,0,0
109194,-90.9090909090909,4,1,0,80,0,0
116578,-90.9090909090909,4,1,0,90,0,1
117040,-90.9090909090909,4,1,0,80,0,0
117501,-90.9090909090909,4,1,0,90,0,1
130886,-90.9090909090909,4,1,0,80,0,0
131347,-90.9090909090909,4,1,0,90,0,1
158117,-90.9090909090909,4,1,0,90,0,0
159040,-90.9090909090909,4,1,0,80,0,0

[HitObjects]
256,192,271,5,4,0:0:0:0:
256,192,1194,1,8,0:0:0:0:
257,179,2578,1,8,0:0:0:0:
256,192,3040,1,8,0:0:0:0:
256,192,3963,1,4,0:0:0:0:
256,192,4886,1,8,0:0:0:0:
256,192,5809,1,0,0:0:0:0:
256,192,6271,1,0,0:0:0:0:
256,192,6732,1,8,0:0:0:0:
256,192,7655,1,0,0:0:0:0:
256,192,8578,1,0,0:0:0:0:
160,128,9040,1,8,0:0:0:0:
256,192,9501,1,0,0:0:0:0:
176,140,10886,1,8,0:0:0:0:
256,192,11347,1,4,0:0:0:0:
256,192,12271,1,0,0:0:0:0:
165,134,12732,1,8,0:0:0:0:
256,192,13194,1,0,0:0:0:0:
256,192,14117,1,8,0:0:0:0:
256,192,15040,1,0,0:0:0:0:
256,192,15963,1,8,0:0:0:0:
256,192,16424,1,0,0:0:0:0:
256,192,16886,1,0,0:0:0:0:
256,192,17347,1,8,0:0:0:0:
256,192,18732,1,4,0:0:0:0:
256,192,19655,1,8,0:0:0:0:
277,188,20578,1,0,0:0:0:0:
256,192,21040,1,8,0:0:0:0:
256,192,21501,1,0,0:0:0:0:
253,186,22424,1,0,0:0:0:0:
256,192,23347,1,8,0:0:0:0:
144,96,23809,1,8,0:0:0:0:
256,192,24271,1,0,0:0:0:0:
253,185,25655,1,8,0:0:0:0:
256,192,26117,1,0,0:0:0:0:
256,192,27040,1,0,0:0:0:0:
256,192,27501,1,8,0:0:0:0:
256,192,27963,1,0,0:0:0:0:
256,192,28424,1,0,0:0:0:0:
256,192,28886,1,8,0:0:0:0:
256,192,29809,1,0,0:0:0:0:
65,189,30732,1,8,0:0:0:0:
256,192,31655,1,0,0:0:0:0:
256,192,32578,1,8,0:0:0:0:
256,192,33040,1,8,0:0:0:0:
256,192,33501,1,4,0:0:0:0:
179,73,34886,1,8,0:0:0:0:
256,192,35347,1,0,0:0:0:0:
256,192,36271,1,8,0:0:0:0:
256,192,37194,1,0,0:0:0:0:
256,192,38578,1,8,0:0:0:0:
256,192,39040,1,0,0:0:0:0:
256,192,39963,1,8,0:0:0:0:
256,192,40886,1,4,0:0:0:0:
256,192,41809,1,8,0:0:0:0:
256,192,42271,1,8,0:0:0:0:
256,192,42732,1,0,0:0:0:0:
256,192,43655,1,8,0:0:0:0:
256,192,44117,1,8,0:0:0:0:
256,192,44578,1,0,0:0:0:0:
256,192,45040,1,0,0:0:0:0:
256,192,45501,1,8,0:0:0:0:
256,192,45963,1,8,0:0:0:0:
256,192,46424,1,0,0:0:0:0:
256,192,48271,1,12,0:0:0:0:
256,192,49194,1,0,0:0:0:0:
256,192,50117,1,0,0:0:0:0:
256,192,50578,1,8,0:0:0:0:
256,192,51040,1,0,0:0:0:0:
256,192,51963,1,0,0:0:0:0:
253,127,52886,1,8,0:0:0:0:
249,201,53347,1,8,0:0:0:0:
256,192,53809,1,0,0:0:0:0:
256,192,54732,1,8,0:0:0:0:
256,192,55655,1,4,0:0:0:0:
256,192,56578,1,8,0:0:0:0:
256,192,57501,1,0,0:0:0:0:
256,192,57963,1,8,0:0:0:0:
256,192,58424,1,0,0:0:0:0:
256,192,58886,1,8,0:0:0:0:
256,192,59809,1,8,0:0:0:0:
256,192,60732,1,8,0:0:0:0:
256,192,61194,1,0,0:0:0:0:
256,192,62578,1,8,0:0:0:0:
256,192,63040,1,4,0:0:0:0:
256,192,63963,1,8,0:0:0:0:
256,192,64886,1,0,0:0:0:0:
154,96,65347,1,8,0:0:0:0:
256,192,65809,1,8,0:0:0:0:
256,192,66732,1,0,0:0:0:0:
244,188,67194,1,8,0:0:0:0:
256,192,67655,1,4,0:0:0:0:
162,79,68578,1,0,0:0:0:0:
256,192,69040,1,8,0:0:0:0:
256,192,69963,1,8,0:0:0:0:
256,192,70886,1,8,0:0:0:0:
264,179,72271,1,0,0:0:0:0:
255,174,72732,1,8,0:0:0:0:
256,192,73655,1,8,0:0:0:0:
250,184,74578,1,8,0:0:0:0:
254,185,75040,1,0,0:0:0:0:
256,192,76424,1,12,0:0:0:0:
250,184,77347,1,8,0:0:0:0:
188,24,77809,1,0,0:0:0:0:
245,177,78732,1,8,0:0:0:0:
212,43,79655,1,0,0:0:0:0:
203,52,80117,1,8,0:0:0:0:
203,52,81040,1,8,0:0:0:0:
256,192,81501,1,0,0:0:0:0:
216,59,82886,1,8,0:0:0:0:
256,192,83347,1,4,0:0:0:0:
256,192,84271,1,0,0:0:0:0:
256,192,84732,1,8,0:0:0:0:
256,192,85194,1,0,0:0:0:0:
256,192,86117,1,8,0:0:0:0:
256,192,87040,1,0,0:0:0:0:
256,192,87501,1,0,0:0:0:0:
256,192,87963,1,8,0:0:0:0:
256,192,88424,1,8,0:0:0:0:
256,192,88886,1,0,0:0:0:0:
281,194,89809,1,8,0:0:0:0:
256,192,90732,1,4,0:0:0:0:
256,192,91655,1,8,0:0:0:0:
256,192,92117,1,8,0:0:0:0:
256,192,92578,1,0,0:0:0:0:
256,192,93501,1,8,0:0:0:0:
256,192,93963,1,0,0:0:0:0:
256,192,94424,1,8,0:0:0:0:
256,192,96271,1,0,0:0:0:0:
256,192,97194,1,8,0:0:0:0:
256,192,98117,1,0,0:0:0:0:
256,192,99963,1,4,0:0:0:0:
256,192,100886,1,8,0:0:0:0:
256,192,102271,1,0,0:0:0:0:
256,192,102732,1,8,0:0:0:0:
256,192,103655,1,0,0:0:0:0:
256,192,104578,1,8,0:0:0:0:
288,192,105963,1,0,0:0:0:0:
288,192,106886,1,0,0:0:0:0:
288,192,107347,1,8,0:0:0:0:
224,192,109194,1,12,0:0:0:0:
224,192,110117,1,12,0:0:0:0:
224,192,111040,1,4,0:0:0:0:
224,192,112886,1,4,0:0:0:0:
224,192,114732,1,0,0:0:0:0:
224,192,116117,1,8,0:0:0:0:
224,192,116578,1,4,0:0:0:0:
224,192,117501,1,4,0:0:0:0:
256,192,118424,1,0,0:0:0:0:
256,192,118886,1,8,0:0:0:0:
256,192,119347,1,0,0:0:0:0:
256,192,120271,1,0,0:0:0:0:
256,192,121194,1,8,0:0:0:0:
248,178,121655,1,8,0:0:0:0:
256,192,122117,1,0,0:0:0:0:
181,123,123040,1,8,0:0:0:0:
256,192,123963,1,4,0:0:0:0:
256,192,124886,1,8,0:0:0:0:
256,192,125809,1,0,0:0:0:0:
256,192,126271,1,8,0:0:0:0:
256,192,126732,1,0,0:0:0:0:
256,192,127194,1,8,0:0:0:0:
256,192,128117,1,8,0:0:0:0:
256,192,129040,1,8,0:0:0:0:
256,192,129501,1,0,0:0:0:0:
256,192,130886,1,8,0:0:0:0:
256,192,131347,1,4,0:0:0:0:
256,192,132271,1,8,0:0:0:0:
256,192,133194,1,0,0:0:0:0:
256,192,133655,1,8,0:0:0:0:
256,192,134117,1,0,0:0:0:0:
248,183,134578,1,8,0:0:0:0:
256,192,135040,1,0,0:0:0:0:
253,127,135963,1,8,0:0:0:0:
254,183,136424,1,8,0:0:0:0:
256,192,136886,1,0,0:0:0:0:
158,62,137809,1,8,0:0:0:0:
256,192,138732,1,4,0:0:0:0:
256,192,139655,1,8,0:0:0:0:
256,192,140578,1,0,0:0:0:0:
256,192,141040,1,8,0:0:0:0:
256,192,141501,1,0,0:0:0:0:
256,192,141963,1,8,0:0:0:0:
256,192,142886,1,8,0:0:0:0:
256,192,143809,1,8,0:0:0:0:
256,192,144271,1,0,0:0:0:0:
256,192,145655,1,8,0:0:0:0:
256,192,146117,1,4,0:0:0:0:
256,192,147040,1,8,0:0:0:0:
256,192,147963,1,0,0:0:0:0:
149,131,148424,1,8,0:0:0:0:
256,192,148886,1,0,0:0:0:0:
256,192,149809,1,8,0:0:0:0:
239,170,150271,1,0,0:0:0:0:
140,105,150732,1,8,0:0:0:0:
140,105,151194,1,8,0:0:0:0:
140,105,151655,1,0,0:0:0:0:
140,105,152578,1,8,0:0:0:0:
241,172,153501,5,4,0:0:0:0:
256,192,154424,1,8,0:0:0:0:
256,192,155347,1,0,0:0:0:0:
251,178,155809,1,8,0:0:0:0:
256,192,156271,1,8,0:0:0:0:
256,192,157194,1,0,0:0:0:0:
256,192,157655,1,8,0:0:0:0:
256,192,158117,1,4,0:0:0:0:
256,192,159040,1,0,0:0:0:0:
256,192,159501,1,8,0:0:0:0:
256,192,160424,1,8,0:0:0:0:
256,192,161347,1,8,0:0:0:0:
256,192,162271,1,8,0:0:0:0:
256,192,162732,1,0,0:0:0:0:
256,192,163194,1,8,0:0:0:0:
256,192,164117,1,8,0:0:0:0:
256,192,165386,1,0,0:0:0:0:
