osu file format v14

[General]
AudioFilename: audio.ogg
AudioLeadIn: 0
PreviewTime: 116059
Countdown: 0
SampleSet: Normal
StackLeniency: 0.7
Mode: 1
LetterboxInBreaks: 0
WidescreenStoryboard: 1

[Editor]
Bookmarks: 271,3963,11348,18732,33502,40886,48271,55656,63040,68579,76424,83348,90732,107348,117502,131348,146117,159040
DistanceSpacing: 0.1
BeatDivisor: 4
GridSize: 32
TimelineZoom: 1.800001

[Metadata]
Title:Romance
TitleUnicode:大正浪漫
Artist:YOASOBI
ArtistUnicode:YOASOBI
Creator:gaston_2199
Version:Inner Oni
Source:
Tags:ロマンス Taisho Taishou Roman THE BOOK 2 Ayase 幾田りら ikura ikuta lilas SHAFT novel 菜摘 Natsumi japanese pop jpop j-pop folk oriental female vocal
BeatmapID:3405199
BeatmapSetID:1667710

[Difficulty]
HPDrainRate:6
CircleSize:2
OverallDifficulty:5.5
ApproachRate:10
SliderMultiplier:1.4
SliderTickRate:1

[Events]
//Background and Video events
0,0,"BG.jpg",0,60
//Break Periods
//Storyboard Layer 0 (Background)
//Storyboard Layer 1 (Fail)
//Storyboard Layer 2 (Pass)
//Storyboard Layer 3 (Foreground)
//Storyboard Layer 4 (Overlay)
//Storyboard Sound Samples

[TimingPoints]
271,461.538461538462,4,1,0,80,1,0
271,-86.9565217391304,4,1,0,80,0,0
4424,-100,4,1,0,70,0,0
11114,-98.3513359863559,4,1,0,70,0,0
11229,-96.7696825618795,4,1,0,70,0,0
11344,-95.2380952380952,4,1,0,70,0,0
17114,-96.0005545158383,4,1,0,70,0,0
17229,-96.3847037127249,4,1,0,70,0,0
17345,-96.7753205464137,4,1,0,70,0,0
17576,-97.5626937165399,4,1,0,70,0,0
17691,-97.9594723626976,4,1,0,70,0,0
17806,-98.3594915133868,4,1,0,70,0,0
17922,-98.7663124866291,4,1,0,70,0,0
18037,-99.1729619419283,4,1,0,70,0,0
18153,-99.5865540176164,4,1,0,70,0,0
18268,-100,4,1,0,70,0,0
18729,-90.9090909090909,4,1,0,80,0,0
33732,-100,4,1,0,70,0,0
41114,-99.7795285888014,4,1,0,70,0,0
41229,-99.6424701866007,4,1,0,70,0,0
41344,-99.4962393567148,4,1,0,70,0,0
41575,-99.1824046643732,4,1,0,70,0,0
41806,-98.8486974922857,4,1,0,70,0,0
42037,-98.5001075004651,4,1,0,70,0,0
42152,-98.3220412084053,4,1,0,70,0,0
42268,-98.1397927910651,4,1,0,70,0,0
42498,-97.771584634424,4,1,0,70,0,0
42729,-97.393928199051,4,1,0,70,0,0
42960,-97.009695625856,4,1,0,70,0,0
43075,-96.8162896238718,4,1,0,70,0,0
43191,-96.6199266329983,4,1,0,70,0,0
43421,-96.2271961114601,4,1,0,70,0,0
43652,-95.8288088248754,4,1,0,70,0,0
43883,-95.4270800489209,4,1,0,70,0,0
43998,-95.2260078836783,4,1,0,70,0,0
44114,-95.0225436542993,4,1,0,70,0,0
44344,-94.6174318936853,4,1,0,70,0,0
44575,-94.2086316924358,4,1,0,70,0,0
44691,-94.0027345307117,4,1,0,70,0,0
44806,-93.7982646195222,4,1,0,70,0,0
44921,-93.5934876610626,4,1,0,70,0,0
45037,-93.3866565718305,4,1,0,70,0,0
45152,-93.1813727718999,4,1,0,70,0,0
45268,-92.9741000839641,4,1,0,70,0,0
45383,-92.7684441012998,4,1,0,70,0,0
45498,-92.5626489755923,4,1,0,70,0,0
45614,-92.3549525464256,4,1,0,70,0,0
45729,-92.1489633627346,4,1,0,70,0,0
45844,-91.9429174886616,4,1,0,70,0,0
45960,-91.7350478035618,4,1,0,70,0,0
46075,-91.5289622477579,4,1,0,70,0,0
46191,-91.3210999074,4,1,0,70,0,0
46306,-91.115066528588,4,1,0,70,0,0
46421,-90.9090909090909,4,1,0,80,0,0
46537,-92.163927390616,4,1,0,80,0,0
46652,-93.4254246992564,4,1,0,80,0,0
46768,-94.7145290559559,4,1,0,80,0,0
46883,-96.0077612557305,4,1,0,80,0,0
46998,-97.3145887686192,4,1,0,80,0,0
47114,-98.6445345061779,4,1,0,80,0,0
47229,-99.9721450802304,4,1,0,80,0,0
47344,-101.305665994993,4,1,0,80,0,0
47575,-103.984613019853,4,1,0,80,0,0
47691,-105.317634177692,4,1,0,80,0,0
47806,-106.619181655469,4,1,0,80,0,0
48037,-109.110203874919,4,1,0,80,0,0
48271,-86.9565217391304,4,1,0,90,0,1
67655,-76.9230769230769,4,1,0,90,0,0
68347,-100,4,1,0,80,0,0
75960,-99.0048043925875,4,1,0,80,0,0
76037,-98.3550669053098,4,1,0,80,0,0
76114,-97.7138018628281,4,1,0,80,0,0
76191,-97.0808446201733,4,1,0,80,0,0
76306,-96.15064155974,4,1,0,80,0,0
76422,-95.2380952380952,4,1,0,80,0,0
83347,-90.9090909090909,4,1,0,80,0,0
99040,-76.9230769230769,4,1,0,80,0,0
99963,-100,4,1,0,70,0,0
109191,-66.6666666666667,4,1,0,80,0,0
109653,-68.9995042625924,4,1,0,80,0,0
110114,-71.5712568886445,4,1,0,80,0,0
110576,-74.4468233533958,4,1,0,80,0,0
110691,-75.2172051181438,4,1,0,80,0,0
110806,-76.01208534673,4,1,0,80,0,0
110922,-76.8403472170656,4,1,0,80,0,0
111037,-77.6895386795738,4,1,0,80,0,0
111383,-80.4350408882155,4,1,0,80,0,0
111729,-83.5276500318495,4,1,0,80,0,0
111960,-85.8414422370133,4,1,0,80,0,0
112422,-91.3533865807121,4,1,0,80,0,0
112883,-100,4,1,0,80,0,0
114729,-90.9090909090909,4,1,0,80,0,0
114845,-91.3289333686876,4,1,0,80,0,0
114960,-91.7546751485649,4,1,0,80,0,0
115076,-92.1944374287436,4,1,0,80,0,0
115191,-92.6414594009345,4,1,0,80,0,0
115306,-93.1004429848329,4,1,0,80,0,0
115537,-94.0633767709053,4,1,0,80,0,0
115653,-94.5706928055917,4,1,0,80,0,0
115768,-95.0920537329165,4,1,0,80,0,0
115883,-95.6345608468297,4,1,0,80,0,0
115999,-96.2070759251312,4,1,0,80,0,0
116114,-96.8052350729507,4,1,0,80,0,0
116191,-97.2268008201645,4,1,0,80,0,0
116268,-97.6696209932408,4,1,0,80,0,0
116345,-98.1397932905695,4,1,0,80,0,0
116460,-98.9193768998681,4,1,0,80,0,0
116578,-86.9565217391304,4,1,0,90,0,1
116806,-89.8876404494382,4,1,0,90,0,1
117040,-93.0232558139535,4,1,0,80,0,0
117268,-96.3855421686747,4,1,0,80,0,0
117501,-83.3333333333333,4,1,0,90,0,1
130886,-83.3333333333333,4,1,0,80,0,0
131347,-83.3333333333333,4,1,0,90,0,1
158117,-76.9230769230769,4,1,0,90,0,0
159040,-100,4,1,0,80,0,0

[HitObjects]
256,192,271,5,4,0:0:0:0:
256,192,501,1,8,0:0:0:0:
256,192,617,1,0,0:0:0:0:
256,192,732,1,8,0:0:0:0:
256,192,963,1,0,0:0:0:0:
256,192,1078,1,8,0:0:0:0:
256,192,1194,1,0,0:0:0:0:
256,192,1424,1,8,0:0:0:0:
256,192,1540,1,0,0:0:0:0:
256,192,1655,1,8,0:0:0:0:
256,192,1732,1,8,0:0:0:0:
256,192,1809,1,8,0:0:0:0:
256,192,1886,1,0,0:0:0:0:
256,192,2117,1,8,0:0:0:0:
256,192,2194,1,8,0:0:0:0:
256,192,2271,1,8,0:0:0:0:
256,192,2347,1,0,0:0:0:0:
256,192,2463,1,0,0:0:0:0:
256,192,2578,1,8,0:0:0:0:
256,192,2694,1,0,0:0:0:0:
256,192,2809,1,8,0:0:0:0:
256,192,2924,1,8,0:0:0:0:
256,192,3040,1,0,0:0:0:0:
256,192,3271,1,0,0:0:0:0:
256,192,3347,1,0,0:0:0:0:
256,192,3424,1,0,0:0:0:0:
256,192,3501,1,8,0:0:0:0:
256,192,3617,1,8,0:0:0:0:
256,192,3732,1,8,0:0:0:0:
256,192,3847,1,8,0:0:0:0:
256,192,3963,1,4,0:0:0:0:
256,192,4424,1,8,0:0:0:0:
256,192,4540,1,0,0:0:0:0:
256,192,4655,1,8,0:0:0:0:
256,192,4886,1,0,0:0:0:0:
256,192,5117,1,8,0:0:0:0:
256,192,5232,1,0,0:0:0:0:
256,192,5347,1,0,0:0:0:0:
256,192,5578,1,8,0:0:0:0:
256,192,5694,1,8,0:0:0:0:
256,192,5924,1,0,0:0:0:0:
256,192,6040,1,8,0:0:0:0:
256,192,6271,1,8,0:0:0:0:
256,192,6386,1,8,0:0:0:0:
256,192,6501,1,0,0:0:0:0:
256,192,6732,1,8,0:0:0:0:
256,192,6847,1,0,0:0:0:0:
256,192,6963,1,0,0:0:0:0:
256,192,7078,1,8,0:0:0:0:
256,192,7309,1,0,0:0:0:0:
256,192,7424,1,8,0:0:0:0:
256,192,7540,1,8,0:0:0:0:
256,192,7655,1,0,0:0:0:0:
256,192,7886,1,8,0:0:0:0:
256,192,8117,1,0,0:0:0:0:
256,192,8232,1,0,0:0:0:0:
256,192,8347,1,8,0:0:0:0:
256,192,8578,1,8,0:0:0:0:
256,192,8694,1,0,0:0:0:0:
256,192,8924,1,8,0:0:0:0:
256,192,9155,1,8,0:0:0:0:
256,192,9271,1,0,0:0:0:0:
256,192,9386,1,8,0:0:0:0:
256,192,9501,1,0,0:0:0:0:
256,192,9732,1,8,0:0:0:0:
256,192,9963,1,0,0:0:0:0:
256,192,10078,1,8,0:0:0:0:
256,192,10194,1,0,0:0:0:0:
256,192,10309,1,0,0:0:0:0:
256,192,10424,1,8,0:0:0:0:
256,192,10540,1,0,0:0:0:0:
256,192,10771,1,8,0:0:0:0:
256,192,11001,1,0,0:0:0:0:
256,192,11117,1,8,0:0:0:0:
256,192,11232,1,8,0:0:0:0:
256,192,11347,1,4,0:0:0:0:
256,192,11694,1,0,0:0:0:0:
256,192,11809,1,8,0:0:0:0:
256,192,12040,1,0,0:0:0:0:
256,192,12155,1,8,0:0:0:0:
256,192,12271,1,0,0:0:0:0:
256,192,12386,1,0,0:0:0:0:
256,192,12501,1,8,0:0:0:0:
256,192,12732,1,8,0:0:0:0:
256,192,12963,1,0,0:0:0:0:
256,192,13078,1,0,0:0:0:0:
256,192,13194,1,8,0:0:0:0:
256,192,13424,1,0,0:0:0:0:
256,192,13655,1,8,0:0:0:0:
256,192,13886,1,0,0:0:0:0:
256,192,14001,1,0,0:0:0:0:
256,192,14117,1,8,0:0:0:0:
256,192,14347,1,0,0:0:0:0:
256,192,14578,1,8,0:0:0:0:
256,192,14694,1,0,0:0:0:0:
256,192,14809,1,8,0:0:0:0:
256,192,14924,1,8,0:0:0:0:
256,192,15040,1,0,0:0:0:0:
256,192,15155,1,0,0:0:0:0:
256,192,15271,1,8,0:0:0:0:
256,192,15386,1,0,0:0:0:0:
256,192,15501,1,8,0:0:0:0:
256,192,15617,1,8,0:0:0:0:
256,192,15732,1,0,0:0:0:0:
256,192,15847,1,0,0:0:0:0:
256,192,15963,1,8,0:0:0:0:
256,192,16040,1,8,0:0:0:0:
256,192,16117,1,8,0:0:0:0:
256,192,16194,1,0,0:0:0:0:
256,192,16271,1,0,0:0:0:0:
255,190,16347,1,0,0:0:0:0:
256,192,16424,1,8,0:0:0:0:
256,192,16540,1,0,0:0:0:0:
256,192,16655,1,8,0:0:0:0:
256,192,16771,1,8,0:0:0:0:
256,192,16886,1,0,0:0:0:0:
256,192,17117,1,8,0:0:0:0:
256,192,17232,1,0,0:0:0:0:
256,192,17347,1,8,0:0:0:0:
256,192,17578,1,8,0:0:0:0:
256,192,17694,1,8,0:0:0:0:
256,192,17809,1,0,0:0:0:0:
256,192,17924,1,8,0:0:0:0:
256,192,18040,1,8,0:0:0:0:
256,192,18155,1,8,0:0:0:0:
233,175,18271,1,0,0:0:0:0:
256,192,18386,1,0,0:0:0:0:
256,192,18501,1,8,0:0:0:0:
256,192,18617,1,8,0:0:0:0:
256,192,18732,1,4,0:0:0:0:
256,192,18963,1,8,0:0:0:0:
256,192,19078,1,8,0:0:0:0:
256,192,19309,1,0,0:0:0:0:
256,192,19424,1,8,0:0:0:0:
256,192,19540,1,0,0:0:0:0:
256,192,19655,1,8,0:0:0:0:
256,192,19771,1,0,0:0:0:0:
256,192,19886,1,0,0:0:0:0:
256,192,20001,1,8,0:0:0:0:
256,192,20232,1,0,0:0:0:0:
256,192,20347,1,8,0:0:0:0:
256,192,20463,1,8,0:0:0:0:
256,192,20578,1,0,0:0:0:0:
256,192,20809,1,8,0:0:0:0:
256,192,20924,1,0,0:0:0:0:
256,192,21040,1,8,0:0:0:0:
256,192,21155,1,8,0:0:0:0:
256,192,21271,1,0,0:0:0:0:
256,192,21501,1,8,0:0:0:0:
256,192,21617,1,0,0:0:0:0:
270,175,21732,1,0,0:0:0:0:
256,192,21847,1,8,0:0:0:0:
256,192,22078,1,0,0:0:0:0:
256,192,22194,1,8,0:0:0:0:
256,192,22309,1,8,0:0:0:0:
256,192,22424,1,0,0:0:0:0:
256,192,22655,1,0,0:0:0:0:
256,192,22771,1,0,0:0:0:0:
256,192,22886,1,8,0:0:0:0:
256,192,23117,1,0,0:0:0:0:
256,192,23347,1,8,0:0:0:0:
256,192,23463,1,0,0:0:0:0:
256,192,23694,1,8,0:0:0:0:
256,192,23924,1,8,0:0:0:0:
256,192,24040,1,0,0:0:0:0:
256,192,24155,1,8,0:0:0:0:
256,192,24271,1,0,0:0:0:0:
256,192,24501,1,8,0:0:0:0:
256,192,24732,1,8,0:0:0:0:
256,192,24847,1,8,0:0:0:0:
256,192,24963,1,0,0:0:0:0:
256,192,25078,1,0,0:0:0:0:
256,192,25194,1,8,0:0:0:0:
256,192,25309,1,0,0:0:0:0:
256,192,25540,1,8,0:0:0:0:
256,192,25771,1,0,0:0:0:0:
256,192,25886,1,8,0:0:0:0:
256,192,26001,1,8,0:0:0:0:
256,192,26117,1,8,0:0:0:0:
256,192,26232,1,0,0:0:0:0:
256,192,26463,1,8,0:0:0:0:
256,192,26694,1,0,0:0:0:0:
256,192,26809,1,8,0:0:0:0:
256,192,26924,1,8,0:0:0:0:
256,192,27040,1,0,0:0:0:0:
256,192,27155,1,0,0:0:0:0:
256,192,27271,1,8,0:0:0:0:
256,192,27386,1,0,0:0:0:0:
256,192,27501,1,8,0:0:0:0:
256,192,27732,1,0,0:0:0:0:
256,192,27963,1,8,0:0:0:0:
256,192,28194,1,0,0:0:0:0:
256,192,28309,1,0,0:0:0:0:
256,192,28424,1,8,0:0:0:0:
256,192,28655,1,0,0:0:0:0:
256,192,28886,1,8,0:0:0:0:
256,192,29117,1,0,0:0:0:0:
256,192,29232,1,0,0:0:0:0:
256,192,29347,1,8,0:0:0:0:
256,192,29463,1,0,0:0:0:0:
256,192,29578,1,8,0:0:0:0:
256,192,29694,1,8,0:0:0:0:
256,192,29809,1,0,0:0:0:0:
256,192,29924,1,8,0:0:0:0:
256,192,30155,1,0,0:0:0:0:
256,192,30386,1,8,0:0:0:0:
256,192,30501,1,8,0:0:0:0:
256,192,30617,1,0,0:0:0:0:
256,192,30732,1,8,0:0:0:0:
256,192,30847,1,0,0:0:0:0:
256,192,31078,1,8,0:0:0:0:
256,192,31309,1,0,0:0:0:0:
256,192,31424,1,8,0:0:0:0:
256,192,31540,1,8,0:0:0:0:
256,192,31655,1,0,0:0:0:0:
256,192,31886,1,8,0:0:0:0:
252,174,32001,1,0,0:0:0:0:
256,192,32117,1,8,0:0:0:0:
256,192,32232,1,8,0:0:0:0:
256,192,32347,1,0,0:0:0:0:
256,192,32463,1,0,0:0:0:0:
256,192,32578,1,8,0:0:0:0:
256,192,32694,1,0,0:0:0:0:
256,192,32809,1,8,0:0:0:0:
256,192,32924,1,0,0:0:0:0:
256,192,33040,1,8,0:0:0:0:
256,192,33155,1,8,0:0:0:0:
256,192,33271,1,8,0:0:0:0:
256,192,33386,1,8,0:0:0:0:
256,192,33501,1,4,0:0:0:0:
256,192,33732,1,8,0:0:0:0:
256,192,33963,1,8,0:0:0:0:
256,192,34424,1,8,0:0:0:0:
256,192,34771,1,8,0:0:0:0:
256,192,34886,1,0,0:0:0:0:
256,192,35117,1,8,0:0:0:0:
256,192,35347,1,0,0:0:0:0:
256,192,35578,1,8,0:0:0:0:
256,192,35809,1,8,0:0:0:0:
256,192,36271,1,8,0:0:0:0:
256,192,36617,1,8,0:0:0:0:
256,192,36732,1,0,0:0:0:0:
256,192,36963,1,8,0:0:0:0:
256,192,37194,1,0,0:0:0:0:
256,192,37424,1,8,0:0:0:0:
256,192,37655,1,8,0:0:0:0:
256,192,38117,1,8,0:0:0:0:
256,192,38463,1,8,0:0:0:0:
256,192,38578,1,0,0:0:0:0:
256,192,38809,1,8,0:0:0:0:
256,192,39040,1,0,0:0:0:0:
256,192,39271,1,8,0:0:0:0:
256,192,39501,1,8,0:0:0:0:
256,192,39963,1,8,0:0:0:0:
256,192,40309,1,8,0:0:0:0:
256,192,40424,1,0,0:0:0:0:
256,192,40655,1,8,0:0:0:0:
256,192,40886,1,4,0:0:0:0:
256,192,41117,1,8,0:0:0:0:
256,192,41232,1,0,0:0:0:0:
256,192,41347,1,8,0:0:0:0:
256,192,41578,1,0,0:0:0:0:
256,192,41809,1,8,0:0:0:0:
256,192,42040,1,0,0:0:0:0:
256,192,42155,1,8,0:0:0:0:
256,192,42271,1,0,0:0:0:0:
256,192,42501,1,8,0:0:0:0:
256,192,42732,1,0,0:0:0:0:
256,192,42963,1,8,0:0:0:0:
256,192,43078,1,0,0:0:0:0:
256,192,43194,1,8,0:0:0:0:
256,192,43424,1,0,0:0:0:0:
256,192,43655,1,8,0:0:0:0:
256,192,43886,1,0,0:0:0:0:
256,192,44001,1,8,0:0:0:0:
256,192,44117,1,0,0:0:0:0:
256,192,44347,1,8,0:0:0:0:
256,192,44578,1,0,0:0:0:0:
256,192,44694,1,0,0:0:0:0:
256,192,44809,1,8,0:0:0:0:
256,192,44924,1,0,0:0:0:0:
256,192,45040,1,8,0:0:0:0:
256,192,45155,1,8,0:0:0:0:
256,192,45271,1,0,0:0:0:0:
256,192,45386,1,0,0:0:0:0:
256,192,45501,1,8,0:0:0:0:
256,192,45617,1,0,0:0:0:0:
256,192,45732,1,0,0:0:0:0:
256,192,45847,1,8,0:0:0:0:
256,192,45963,1,0,0:0:0:0:
256,192,46078,1,0,0:0:0:0:
256,192,46194,1,8,0:0:0:0:
256,192,46309,1,8,0:0:0:0:
256,192,46424,1,0,0:0:0:0:
256,192,46540,1,8,0:0:0:0:
256,192,46655,1,8,0:0:0:0:
256,192,46771,1,0,0:0:0:0:
256,192,46886,1,8,0:0:0:0:
256,192,47001,1,8,0:0:0:0:
256,192,47117,1,0,0:0:0:0:
256,192,47232,1,8,0:0:0:0:
256,192,47347,1,0,0:0:0:0:
256,192,47578,1,0,0:0:0:0:
256,192,47694,1,8,0:0:0:0:
256,192,47809,1,0,0:0:0:0:
256,192,48040,1,0,0:0:0:0:
256,192,48271,1,12,0:0:0:0:
256,192,48617,1,0,0:0:0:0:
256,192,48732,1,8,0:0:0:0:
256,192,48963,1,8,0:0:0:0:
256,192,49078,1,0,0:0:0:0:
256,192,49194,1,8,0:0:0:0:
256,192,49424,1,0,0:0:0:0:
256,192,49540,1,0,0:0:0:0:
256,192,49655,1,8,0:0:0:0:
256,192,49771,1,0,0:0:0:0:
256,192,49886,1,8,0:0:0:0:
256,192,50001,1,8,0:0:0:0:
256,192,50117,1,0,0:0:0:0:
256,192,50347,1,8,0:0:0:0:
256,192,50463,1,0,0:0:0:0:
256,192,50578,1,8,0:0:0:0:
256,192,50809,1,0,0:0:0:0:
256,192,50924,1,8,0:0:0:0:
256,192,51040,1,0,0:0:0:0:
250,162,51155,1,0,0:0:0:0:
256,192,51271,1,8,0:0:0:0:
256,192,51386,1,0,0:0:0:0:
256,192,51501,1,8,0:0:0:0:
256,192,51617,1,8,0:0:0:0:
256,192,51732,1,0,0:0:0:0:
256,192,51963,1,8,0:0:0:0:
256,192,52194,1,8,0:0:0:0:
256,192,52309,1,0,0:0:0:0:
256,192,52540,1,8,0:0:0:0:
256,192,52771,1,8,0:0:0:0:
256,192,52886,1,0,0:0:0:0:
256,192,53001,1,0,0:0:0:0:
256,192,53117,1,8,0:0:0:0:
256,192,53347,1,8,0:0:0:0:
256,192,53463,1,0,0:0:0:0:
256,192,53578,1,8,0:0:0:0:
256,192,53694,1,8,0:0:0:0:
256,192,53809,1,0,0:0:0:0:
256,192,54040,1,8,0:0:0:0:
256,192,54155,1,0,0:0:0:0:
252,153,54271,1,0,0:0:0:0:
256,192,54386,1,8,0:0:0:0:
256,192,54617,1,8,0:0:0:0:
256,192,54732,1,8,0:0:0:0:
256,192,54847,1,8,0:0:0:0:
256,192,54963,1,0,0:0:0:0:
256,192,55078,1,0,0:0:0:0:
256,192,55194,1,8,0:0:0:0:
256,192,55309,1,0,0:0:0:0:
256,192,55424,1,8,0:0:0:0:
256,192,55540,1,8,0:0:0:0:
256,192,55655,1,4,0:0:0:0:
256,192,56001,1,0,0:0:0:0:
256,192,56117,1,8,0:0:0:0:
256,192,56347,1,8,0:0:0:0:
256,192,56463,1,0,0:0:0:0:
256,192,56578,1,8,0:0:0:0:
256,192,56809,1,0,0:0:0:0:
256,192,56924,1,8,0:0:0:0:
256,192,57040,1,8,0:0:0:0:
256,192,57155,1,0,0:0:0:0:
256,192,57271,1,8,0:0:0:0:
256,192,57386,1,8,0:0:0:0:
256,192,57501,1,0,0:0:0:0:
256,192,57732,1,8,0:0:0:0:
256,192,57847,1,0,0:0:0:0:
256,192,57963,1,8,0:0:0:0:
256,192,58194,1,8,0:0:0:0:
256,192,58309,1,0,0:0:0:0:
256,192,58424,1,0,0:0:0:0:
266,200,58540,1,8,0:0:0:0:
256,192,58655,1,0,0:0:0:0:
256,192,58771,1,0,0:0:0:0:
256,192,58886,1,8,0:0:0:0:
256,192,59001,1,0,0:0:0:0:
256,192,59117,1,8,0:0:0:0:
256,192,59347,1,0,0:0:0:0:
256,192,59578,1,0,0:0:0:0:
256,192,59694,1,0,0:0:0:0:
256,192,59809,1,8,0:0:0:0:
256,192,59924,1,0,0:0:0:0:
256,192,60040,1,8,0:0:0:0:
256,192,60271,1,0,0:0:0:0:
256,192,60501,1,0,0:0:0:0:
256,192,60617,1,8,0:0:0:0:
256,192,60732,1,0,0:0:0:0:
256,192,60847,1,0,0:0:0:0:
256,192,60963,1,8,0:0:0:0:
256,192,61078,1,8,0:0:0:0:
256,192,61194,1,0,0:0:0:0:
256,192,61424,1,8,0:0:0:0:
256,192,61540,1,8,0:0:0:0:
256,192,61655,1,0,0:0:0:0:
256,192,61771,1,8,0:0:0:0:
256,192,61886,1,0,0:0:0:0:
256,192,62001,1,0,0:0:0:0:
256,192,62117,1,8,0:0:0:0:
256,192,62232,1,8,0:0:0:0:
256,192,62347,1,0,0:0:0:0:
256,192,62424,1,0,0:0:0:0:
256,192,62501,1,0,0:0:0:0:
256,192,62578,1,8,0:0:0:0:
256,192,62655,1,0,0:0:0:0:
256,192,62732,1,0,0:0:0:0:
256,192,62809,1,8,0:0:0:0:
256,192,62924,1,8,0:0:0:0:
256,192,63040,1,4,0:0:0:0:
256,192,63271,1,8,0:0:0:0:
256,192,63386,1,0,0:0:0:0:
247,154,63501,1,0,0:0:0:0:
256,192,63617,1,8,0:0:0:0:
256,192,63847,1,0,0:0:0:0:
256,192,63963,1,0,0:0:0:0:
256,192,64078,1,0,0:0:0:0:
256,192,64194,1,8,0:0:0:0:
256,192,64309,1,8,0:0:0:0:
256,192,64424,1,0,0:0:0:0:
256,192,64655,1,8,0:0:0:0:
256,192,64771,1,0,0:0:0:0:
256,192,64886,1,8,0:0:0:0:
256,192,65117,1,8,0:0:0:0:
256,192,65232,1,8,0:0:0:0:
247,188,65347,1,0,0:0:0:0:
256,192,65463,1,8,0:0:0:0:
256,192,65694,1,8,0:0:0:0:
256,192,65809,1,0,0:0:0:0:
256,192,65924,1,0,0:0:0:0:
256,192,66040,1,8,0:0:0:0:
256,192,66155,1,8,0:0:0:0:
256,192,66271,1,0,0:0:0:0:
250,142,66386,1,0,0:0:0:0:
256,192,66501,1,8,0:0:0:0:
256,192,66617,1,0,0:0:0:0:
256,192,66732,1,8,0:0:0:0:
256,192,66963,1,8,0:0:0:0:
256,192,67040,1,8,0:0:0:0:
256,192,67117,1,8,0:0:0:0:
256,192,67194,1,0,0:0:0:0:
256,192,67309,1,0,0:0:0:0:
256,192,67424,1,8,0:0:0:0:
256,192,67655,1,4,0:0:0:0:
256,192,68117,1,12,0:0:0:0:
250,183,68347,1,0,0:0:0:0:
250,183,68463,1,0,0:0:0:0:
256,192,68578,1,0,0:0:0:0:
256,192,68924,1,8,0:0:0:0:
256,192,69155,1,0,0:0:0:0:
256,192,69271,1,8,0:0:0:0:
256,192,69386,1,8,0:0:0:0:
256,192,69501,1,8,0:0:0:0:
256,192,69617,1,0,0:0:0:0:
256,192,69847,1,8,0:0:0:0:
256,192,70078,1,0,0:0:0:0:
256,192,70309,1,0,0:0:0:0:
256,192,70655,1,8,0:0:0:0:
256,192,70886,1,0,0:0:0:0:
256,192,71001,1,8,0:0:0:0:
256,192,71117,1,0,0:0:0:0:
256,192,71232,1,8,0:0:0:0:
256,192,71347,1,8,0:0:0:0:
256,192,71463,1,0,0:0:0:0:
256,192,71694,1,12,0:0:0:0:
256,192,71924,1,8,0:0:0:0:
256,192,72040,1,0,0:0:0:0:
256,192,72117,1,0,0:0:0:0:
256,192,72194,1,0,0:0:0:0:
256,192,72271,1,0,0:0:0:0:
256,192,72501,1,12,0:0:0:0:
256,192,72732,1,8,0:0:0:0:
256,192,72847,1,0,0:0:0:0:
256,192,73078,1,8,0:0:0:0:
256,192,73309,1,0,0:0:0:0:
256,192,73424,1,0,0:0:0:0:
256,192,73540,1,8,0:0:0:0:
256,192,73655,1,8,0:0:0:0:
256,192,73771,1,0,0:0:0:0:
256,192,73886,1,0,0:0:0:0:
256,192,74001,1,8,0:0:0:0:
256,192,74232,1,8,0:0:0:0:
256,192,74347,1,8,0:0:0:0:
256,192,74463,1,0,0:0:0:0:
256,192,74578,1,8,0:0:0:0:
256,192,74694,1,8,0:0:0:0:
256,192,74809,1,0,0:0:0:0:
256,192,74924,1,0,0:0:0:0:
256,192,75040,1,8,0:0:0:0:
256,192,75155,1,0,0:0:0:0:
256,192,75386,1,8,0:0:0:0:
256,192,75617,1,8,0:0:0:0:
256,192,75847,1,8,0:0:0:0:
256,192,75963,1,0,0:0:0:0:
256,192,76040,1,0,0:0:0:0:
256,192,76117,1,0,0:0:0:0:
256,192,76194,1,8,0:0:0:0:
256,192,76309,1,8,0:0:0:0:
256,192,76424,1,4,0:0:0:0:
256,192,76771,1,0,0:0:0:0:
256,192,76886,1,8,0:0:0:0:
177,36,77001,1,0,0:0:0:0:
256,192,77117,1,8,0:0:0:0:
256,192,77232,1,0,0:0:0:0:
256,192,77463,1,0,0:0:0:0:
256,192,77694,1,8,0:0:0:0:
256,192,78040,1,0,0:0:0:0:
256,192,78271,1,8,0:0:0:0:
256,192,78386,1,8,0:0:0:0:
256,192,78501,1,0,0:0:0:0:
256,192,78617,1,8,0:0:0:0:
256,192,78732,1,8,0:0:0:0:
256,192,78847,1,0,0:0:0:0:
256,192,79078,1,8,0:0:0:0:
256,192,79309,1,8,0:0:0:0:
256,192,79424,1,0,0:0:0:0:
256,192,79540,1,8,0:0:0:0:
256,192,79771,1,0,0:0:0:0:
256,192,79886,1,8,0:0:0:0:
256,192,80001,1,0,0:0:0:0:
256,192,80117,1,8,0:0:0:0:
256,192,80232,1,8,0:0:0:0:
256,192,80347,1,0,0:0:0:0:
256,192,80463,1,8,0:0:0:0:
256,192,80694,1,8,0:0:0:0:
256,192,80809,1,0,0:0:0:0:
256,192,80924,1,0,0:0:0:0:
256,192,81040,1,8,0:0:0:0:
256,192,81155,1,0,0:0:0:0:
256,192,81271,1,0,0:0:0:0:
256,192,81386,1,8,0:0:0:0:
256,192,81617,1,0,0:0:0:0:
256,192,81732,1,0,0:0:0:0:
256,192,81847,1,0,0:0:0:0:
256,192,81963,1,8,0:0:0:0:
256,192,82078,1,0,0:0:0:0:
240,151,82194,1,0,0:0:0:0:
256,192,82309,1,8,0:0:0:0:
256,192,82424,1,0,0:0:0:0:
244,185,82540,1,8,0:0:0:0:
256,192,82655,1,0,0:0:0:0:
187,27,82732,1,0,0:0:0:0:
256,192,82809,1,0,0:0:0:0:
256,192,82886,1,8,0:0:0:0:
256,192,83001,1,0,0:0:0:0:
256,192,83117,1,8,0:0:0:0:
256,192,83232,1,8,0:0:0:0:
256,192,83347,1,4,0:0:0:0:
256,192,83578,1,0,0:0:0:0:
256,192,83694,1,8,0:0:0:0:
256,192,83809,1,0,0:0:0:0:
256,192,83924,1,0,0:0:0:0:
256,192,84040,1,8,0:0:0:0:
256,192,84155,1,0,0:0:0:0:
256,192,84271,1,8,0:0:0:0:
256,192,84386,1,8,0:0:0:0:
256,192,84501,1,0,0:0:0:0:
256,192,84617,1,8,0:0:0:0:
256,192,84732,1,0,0:0:0:0:
256,192,84847,1,0,0:0:0:0:
256,192,84963,1,8,0:0:0:0:
256,192,85078,1,8,0:0:0:0:
256,192,85194,1,0,0:0:0:0:
256,192,85424,1,8,0:0:0:0:
256,192,85540,1,0,0:0:0:0:
256,192,85655,1,0,0:0:0:0:
227,165,85771,1,0,0:0:0:0:
256,192,85886,1,8,0:0:0:0:
256,192,86001,1,8,0:0:0:0:
256,192,86117,1,0,0:0:0:0:
256,192,86232,1,8,0:0:0:0:
256,192,86347,1,0,0:0:0:0:
256,192,86463,1,0,0:0:0:0:
256,192,86578,1,8,0:0:0:0:
250,171,86694,1,8,0:0:0:0:
256,192,86809,1,0,0:0:0:0:
256,192,86924,1,8,0:0:0:0:
256,192,87040,1,0,0:0:0:0:
256,192,87271,1,0,0:0:0:0:
256,192,87386,1,0,0:0:0:0:
256,192,87501,1,8,0:0:0:0:
256,192,87617,1,0,0:0:0:0:
256,192,87732,1,8,0:0:0:0:
256,192,87847,1,0,0:0:0:0:
256,192,87963,1,8,0:0:0:0:
256,192,88078,1,8,0:0:0:0:
256,192,88194,1,0,0:0:0:0:
256,192,88309,1,8,0:0:0:0:
256,192,88424,1,8,0:0:0:0:
256,192,88540,1,8,0:0:0:0:
256,192,88655,1,0,0:0:0:0:
256,192,88771,1,0,0:0:0:0:
256,192,88886,1,8,0:0:0:0:
256,192,89117,1,0,0:0:0:0:
256,192,89232,1,8,0:0:0:0:
256,192,89347,1,0,0:0:0:0:
235,135,89463,1,0,0:0:0:0:
256,192,89578,1,8,0:0:0:0:
256,192,89694,1,0,0:0:0:0:
256,192,89809,1,8,0:0:0:0:
256,192,89924,1,8,0:0:0:0:
256,192,90040,1,0,0:0:0:0:
256,192,90155,1,0,0:0:0:0:
256,192,90271,1,8,0:0:0:0:
256,192,90386,1,8,0:0:0:0:
256,192,90501,1,8,0:0:0:0:
256,192,90617,1,8,0:0:0:0:
256,192,90732,1,4,0:0:0:0:
256,192,90963,1,0,0:0:0:0:
256,192,91078,1,0,0:0:0:0:
256,192,91194,1,8,0:0:0:0:
256,192,91309,1,0,0:0:0:0:
256,192,91424,1,8,0:0:0:0:
256,192,91540,1,0,0:0:0:0:
256,192,91655,1,8,0:0:0:0:
256,192,91771,1,8,0:0:0:0:
256,192,91886,1,0,0:0:0:0:
256,192,92001,1,0,0:0:0:0:
256,192,92117,1,8,0:0:0:0:
256,192,92232,1,0,0:0:0:0:
256,192,92347,1,8,0:0:0:0:
256,192,92463,1,8,0:0:0:0:
256,192,92578,1,0,0:0:0:0:
167,92,92694,1,8,0:0:0:0:
256,192,92809,1,0,0:0:0:0:
256,192,92924,1,0,0:0:0:0:
256,192,93040,1,8,0:0:0:0:
256,192,93155,1,0,0:0:0:0:
256,192,93271,1,8,0:0:0:0:
256,192,93386,1,0,0:0:0:0:
256,192,93501,1,8,0:0:0:0:
256,192,93617,1,8,0:0:0:0:
256,192,93732,1,0,0:0:0:0:
256,192,93847,1,0,0:0:0:0:
256,192,93963,1,8,0:0:0:0:
256,192,94078,1,0,0:0:0:0:
256,192,94194,1,8,0:0:0:0:
256,192,94309,1,0,0:0:0:0:
256,192,94424,1,8,0:0:0:0:
220,162,94540,1,8,0:0:0:0:
256,192,94655,1,0,0:0:0:0:
256,192,94771,1,0,0:0:0:0:
256,192,94886,1,8,0:0:0:0:
256,192,95117,1,8,0:0:0:0:
256,192,95232,1,0,0:0:0:0:
256,192,95347,1,8,0:0:0:0:
256,192,95463,1,0,0:0:0:0:
256,192,95578,1,0,0:0:0:0:
256,192,95694,1,8,0:0:0:0:
256,192,95809,1,0,0:0:0:0:
256,192,95924,1,0,0:0:0:0:
256,192,96040,1,8,0:0:0:0:
256,192,96155,1,8,0:0:0:0:
256,192,96271,1,4,0:0:0:0:
256,192,96617,1,4,0:0:0:0:
256,192,96963,1,4,0:0:0:0:
256,192,97194,1,12,0:0:0:0:
256,192,97540,1,12,0:0:0:0:
256,192,97886,1,12,0:0:0:0:
256,192,98117,1,4,0:0:0:0:
256,192,99040,1,12,0:0:0:0:
256,192,99963,1,4,0:0:0:0:
256,192,100655,1,0,0:0:0:0:
256,192,100886,1,8,0:0:0:0:
256,192,101347,1,8,0:0:0:0:
256,192,101424,1,8,0:0:0:0:
256,192,101501,1,8,0:0:0:0:
256,192,101578,1,8,0:0:0:0:
256,192,101809,1,8,0:0:0:0:
256,192,101886,1,8,0:0:0:0:
256,192,101963,1,8,0:0:0:0:
256,192,102040,1,8,0:0:0:0:
256,192,102271,1,0,0:0:0:0:
256,192,102732,1,8,0:0:0:0:
256,192,103194,1,8,0:0:0:0:
256,192,103309,1,0,0:0:0:0:
256,192,103424,1,8,0:0:0:0:
256,192,103655,1,0,0:0:0:0:
256,192,104347,1,0,0:0:0:0:
256,192,104578,1,8,0:0:0:0:
288,192,105271,1,8,0:0:0:0:
288,192,105347,1,8,0:0:0:0:
288,192,105424,1,8,0:0:0:0:
288,192,105501,1,8,0:0:0:0:
288,192,105732,1,0,0:0:0:0:
288,192,105963,1,0,0:0:0:0:
288,192,106424,1,8,0:0:0:0:
288,192,106501,1,8,0:0:0:0:
288,192,106578,1,8,0:0:0:0:
288,192,106655,1,0,0:0:0:0:
288,192,106886,1,0,0:0:0:0:
288,192,106963,1,0,0:0:0:0:
288,192,107040,1,0,0:0:0:0:
288,192,107117,1,0,0:0:0:0:
288,192,107347,1,8,0:0:0:0:
224,192,109194,1,12,0:0:0:0:
224,192,109655,1,4,0:0:0:0:
224,192,110117,1,12,0:0:0:0:
224,192,110578,1,0,0:0:0:0:
224,192,110694,1,0,0:0:0:0:
224,192,110809,1,8,0:0:0:0:
224,192,110924,1,8,0:0:0:0:
224,192,111040,1,4,0:0:0:0:
224,192,111386,1,8,0:0:0:0:
224,192,111732,1,0,0:0:0:0:
224,192,111963,1,12,0:0:0:0:
224,192,112424,1,8,0:0:0:0:
224,192,112886,1,4,0:0:0:0:
224,192,113347,1,0,0:0:0:0:
224,192,113809,1,0,0:0:0:0:
224,192,114271,1,0,0:0:0:0:
224,192,114732,1,0,0:0:0:0:
224,192,114847,1,0,0:0:0:0:
224,192,114963,1,8,0:0:0:0:
224,192,115078,1,8,0:0:0:0:
224,192,115194,1,0,0:0:0:0:
224,192,115309,1,8,0:0:0:0:
224,192,115540,1,8,0:0:0:0:
224,192,115655,1,0,0:0:0:0:
224,192,115771,1,8,0:0:0:0:
224,192,115886,1,8,0:0:0:0:
224,192,116001,1,0,0:0:0:0:
224,192,116117,1,8,0:0:0:0:
224,192,116194,1,0,0:0:0:0:
224,192,116271,1,0,0:0:0:0:
224,192,116347,1,8,0:0:0:0:
224,192,116463,1,8,0:0:0:0:
224,192,116578,1,4,0:0:0:0:
224,192,116809,1,0,0:0:0:0:
224,192,117040,1,8,0:0:0:0:
224,192,117271,1,8,0:0:0:0:
224,192,117501,1,4,0:0:0:0:
256,192,117732,1,0,0:0:0:0:
256,192,117847,1,0,0:0:0:0:
256,192,117963,1,8,0:0:0:0:
256,192,118078,1,0,0:0:0:0:
256,192,118194,1,8,0:0:0:0:
256,192,118309,1,8,0:0:0:0:
256,192,118424,1,0,0:0:0:0:
256,192,118655,1,8,0:0:0:0:
256,192,118771,1,0,0:0:0:0:
256,192,118886,1,8,0:0:0:0:
256,192,119117,1,8,0:0:0:0:
256,192,119232,1,8,0:0:0:0:
256,192,119347,1,0,0:0:0:0:
256,192,119463,1,0,0:0:0:0:
256,192,119578,1,8,0:0:0:0:
256,192,119694,1,0,0:0:0:0:
256,192,119809,1,8,0:0:0:0:
256,192,119924,1,8,0:0:0:0:
256,192,120040,1,0,0:0:0:0:
256,192,120155,1,0,0:0:0:0:
256,192,120271,1,8,0:0:0:0:
256,192,120501,1,8,0:0:0:0:
256,192,120617,1,0,0:0:0:0:
256,192,120847,1,8,0:0:0:0:
256,192,121078,1,8,0:0:0:0:
256,192,121194,1,8,0:0:0:0:
256,192,121309,1,8,0:0:0:0:
256,192,121424,1,0,0:0:0:0:
269,178,121540,1,0,0:0:0:0:
256,192,121655,1,8,0:0:0:0:
256,192,121771,1,0,0:0:0:0:
256,192,121886,1,8,0:0:0:0:
256,192,122001,1,8,0:0:0:0:
256,192,122117,1,0,0:0:0:0:
256,192,122347,1,8,0:0:0:0:
256,192,122463,1,8,0:0:0:0:
260,190,122578,1,0,0:0:0:0:
256,192,122694,1,8,0:0:0:0:
256,192,122924,1,8,0:0:0:0:
256,192,123040,1,0,0:0:0:0:
256,192,123155,1,0,0:0:0:0:
256,192,123271,1,8,0:0:0:0:
256,192,123386,1,0,0:0:0:0:
256,192,123501,1,8,0:0:0:0:
256,192,123617,1,8,0:0:0:0:
256,192,123732,1,0,0:0:0:0:
256,192,123847,1,8,0:0:0:0:
256,192,123963,1,4,0:0:0:0:
256,192,124194,1,0,0:0:0:0:
256,192,124309,1,0,0:0:0:0:
256,192,124424,1,8,0:0:0:0:
256,192,124655,1,8,0:0:0:0:
256,192,124771,1,0,0:0:0:0:
256,192,124886,1,8,0:0:0:0:
256,192,125117,1,0,0:0:0:0:
256,192,125232,1,8,0:0:0:0:
256,192,125347,1,8,0:0:0:0:
256,192,125463,1,0,0:0:0:0:
256,192,125578,1,8,0:0:0:0:
256,192,125694,1,8,0:0:0:0:
256,192,125809,1,0,0:0:0:0:
256,192,126040,1,8,0:0:0:0:
256,192,126155,1,0,0:0:0:0:
256,192,126271,1,8,0:0:0:0:
256,192,126501,1,8,0:0:0:0:
256,192,126617,1,0,0:0:0:0:
256,192,126732,1,0,0:0:0:0:
256,192,126847,1,8,0:0:0:0:
256,192,126963,1,0,0:0:0:0:
256,192,127078,1,8,0:0:0:0:
256,192,127194,1,8,0:0:0:0:
256,192,127309,1,0,0:0:0:0:
256,192,127424,1,8,0:0:0:0:
256,192,127540,1,8,0:0:0:0:
256,192,127655,1,0,0:0:0:0:
256,192,127886,1,0,0:0:0:0:
256,192,128001,1,8,0:0:0:0:
256,192,128117,1,8,0:0:0:0:
256,192,128232,1,0,0:0:0:0:
256,192,128347,1,8,0:0:0:0:
256,192,128463,1,0,0:0:0:0:
256,192,128578,1,8,0:0:0:0:
256,192,128809,1,0,0:0:0:0:
256,192,128924,1,8,0:0:0:0:
256,192,129040,1,8,0:0:0:0:
256,192,129155,1,0,0:0:0:0:
256,192,129271,1,8,0:0:0:0:
256,192,129386,1,8,0:0:0:0:
256,192,129501,1,0,0:0:0:0:
256,192,129732,1,8,0:0:0:0:
256,192,129847,1,8,0:0:0:0:
256,192,129963,1,0,0:0:0:0:
256,192,130078,1,8,0:0:0:0:
256,192,130194,1,0,0:0:0:0:
256,192,130309,1,0,0:0:0:0:
256,192,130424,1,8,0:0:0:0:
256,192,130540,1,0,0:0:0:0:
256,192,130655,1,0,0:0:0:0:
256,192,130771,1,0,0:0:0:0:
256,192,130886,1,8,0:0:0:0:
256,192,131001,1,8,0:0:0:0:
256,192,131117,1,8,0:0:0:0:
256,192,131232,1,8,0:0:0:0:
256,192,131347,1,4,0:0:0:0:
256,192,131578,1,0,0:0:0:0:
256,192,131694,1,0,0:0:0:0:
256,192,131809,1,8,0:0:0:0:
256,192,132040,1,8,0:0:0:0:
256,192,132155,1,0,0:0:0:0:
256,192,132271,1,8,0:0:0:0:
256,192,132501,1,0,0:0:0:0:
256,192,132617,1,0,0:0:0:0:
256,192,132732,1,8,0:0:0:0:
256,192,132847,1,0,0:0:0:0:
256,192,132963,1,8,0:0:0:0:
256,192,133078,1,8,0:0:0:0:
256,192,133194,1,0,0:0:0:0:
256,192,133424,1,8,0:0:0:0:
256,192,133540,1,0,0:0:0:0:
256,192,133655,1,8,0:0:0:0:
256,192,133886,1,8,0:0:0:0:
256,192,134001,1,8,0:0:0:0:
256,192,134117,1,0,0:0:0:0:
256,192,134232,1,0,0:0:0:0:
256,192,134347,1,8,0:0:0:0:
256,192,134463,1,0,0:0:0:0:
256,192,134578,1,8,0:0:0:0:
256,192,134694,1,8,0:0:0:0:
256,192,134809,1,0,0:0:0:0:
256,192,134924,1,0,0:0:0:0:
256,192,135040,1,8,0:0:0:0:
256,192,135271,1,8,0:0:0:0:
256,192,135386,1,0,0:0:0:0:
256,192,135617,1,8,0:0:0:0:
256,192,135847,1,8,0:0:0:0:
256,192,135963,1,0,0:0:0:0:
256,192,136078,1,0,0:0:0:0:
256,192,136194,1,8,0:0:0:0:
256,175,136309,1,0,0:0:0:0:
256,192,136424,1,8,0:0:0:0:
256,192,136540,1,0,0:0:0:0:
256,192,136655,1,8,0:0:0:0:
256,192,136771,1,8,0:0:0:0:
256,192,136886,1,0,0:0:0:0:
256,192,137117,1,8,0:0:0:0:
256,192,137232,1,0,0:0:0:0:
255,187,137347,1,0,0:0:0:0:
256,192,137463,1,8,0:0:0:0:
256,192,137694,1,8,0:0:0:0:
256,192,137809,1,8,0:0:0:0:
256,192,137924,1,0,0:0:0:0:
256,192,138040,1,8,0:0:0:0:
256,192,138155,1,0,0:0:0:0:
256,192,138271,1,8,0:0:0:0:
256,192,138386,1,0,0:0:0:0:
256,192,138501,1,8,0:0:0:0:
256,192,138617,1,8,0:0:0:0:
256,192,138732,1,4,0:0:0:0:
256,192,138963,1,0,0:0:0:0:
256,192,139078,1,0,0:0:0:0:
256,192,139194,1,8,0:0:0:0:
256,192,139424,1,8,0:0:0:0:
256,192,139540,1,0,0:0:0:0:
256,192,139655,1,8,0:0:0:0:
256,192,139886,1,0,0:0:0:0:
256,192,140001,1,8,0:0:0:0:
256,192,140117,1,8,0:0:0:0:
256,192,140232,1,0,0:0:0:0:
256,192,140347,1,8,0:0:0:0:
256,192,140463,1,8,0:0:0:0:
256,192,140578,1,0,0:0:0:0:
256,192,140809,1,8,0:0:0:0:
256,192,140924,1,0,0:0:0:0:
256,192,141040,1,8,0:0:0:0:
256,192,141271,1,8,0:0:0:0:
256,192,141386,1,0,0:0:0:0:
256,192,141501,1,0,0:0:0:0:
256,192,141617,1,8,0:0:0:0:
256,192,141732,1,0,0:0:0:0:
256,192,141847,1,0,0:0:0:0:
256,192,141963,1,8,0:0:0:0:
256,192,142078,1,0,0:0:0:0:
256,192,142194,1,8,0:0:0:0:
256,192,142309,1,8,0:0:0:0:
256,192,142424,1,0,0:0:0:0:
256,192,142655,1,0,0:0:0:0:
256,192,142771,1,0,0:0:0:0:
256,192,142886,1,8,0:0:0:0:
256,192,143001,1,0,0:0:0:0:
256,192,143117,1,8,0:0:0:0:
256,192,143232,1,0,0:0:0:0:
256,192,143347,1,8,0:0:0:0:
256,192,143578,1,0,0:0:0:0:
256,192,143694,1,8,0:0:0:0:
256,192,143809,1,0,0:0:0:0:
256,192,143924,1,0,0:0:0:0:
256,192,144040,1,8,0:0:0:0:
256,192,144155,1,0,0:0:0:0:
256,192,144271,1,8,0:0:0:0:
256,192,144501,1,8,0:0:0:0:
256,192,144617,1,8,0:0:0:0:
256,192,144732,1,0,0:0:0:0:
256,192,144847,1,8,0:0:0:0:
256,192,144963,1,0,0:0:0:0:
256,192,145078,1,0,0:0:0:0:
256,192,145194,1,8,0:0:0:0:
256,192,145309,1,8,0:0:0:0:
256,192,145424,1,0,0:0:0:0:
256,192,145501,1,0,0:0:0:0:
256,192,145578,1,0,0:0:0:0:
256,192,145655,1,8,0:0:0:0:
256,192,145771,1,0,0:0:0:0:
256,192,145886,1,8,0:0:0:0:
256,192,146001,1,8,0:0:0:0:
256,192,146117,1,4,0:0:0:0:
256,192,146347,1,8,0:0:0:0:
256,192,146463,1,0,0:0:0:0:
256,192,146578,1,0,0:0:0:0:
256,192,146694,1,8,0:0:0:0:
279,187,146809,1,0,0:0:0:0:
256,192,146924,1,8,0:0:0:0:
256,192,147040,1,0,0:0:0:0:
256,192,147155,1,0,0:0:0:0:
256,192,147271,1,8,0:0:0:0:
256,192,147386,1,8,0:0:0:0:
256,192,147501,1,0,0:0:0:0:
256,192,147732,1,8,0:0:0:0:
256,192,147847,1,0,0:0:0:0:
256,192,147963,1,8,0:0:0:0:
256,192,148194,1,8,0:0:0:0:
256,192,148309,1,8,0:0:0:0:
256,192,148424,1,0,0:0:0:0:
256,192,148540,1,8,0:0:0:0:
256,192,148655,1,0,0:0:0:0:
256,192,148771,1,8,0:0:0:0:
256,192,148886,1,0,0:0:0:0:
256,192,149001,1,0,0:0:0:0:
256,192,149117,1,8,0:0:0:0:
256,192,149232,1,8,0:0:0:0:
256,192,149347,1,0,0:0:0:0:
242,163,149463,1,0,0:0:0:0:
256,192,149578,1,8,0:0:0:0:
256,192,149694,1,0,0:0:0:0:
256,192,149809,1,8,0:0:0:0:
256,192,150040,1,8,0:0:0:0:
256,192,150155,1,0,0:0:0:0:
256,192,150271,1,8,0:0:0:0:
256,192,150386,1,8,0:0:0:0:
256,192,150501,1,0,0:0:0:0:
256,192,150617,1,0,0:0:0:0:
256,192,150732,1,8,0:0:0:0:
242,171,150847,1,0,0:0:0:0:
256,192,150963,1,8,0:0:0:0:
256,192,151194,1,8,0:0:0:0:
256,192,151309,1,0,0:0:0:0:
256,192,151424,1,8,0:0:0:0:
256,192,151540,1,8,0:0:0:0:
256,192,151655,1,0,0:0:0:0:
256,192,151886,1,8,0:0:0:0:
256,192,152001,1,8,0:0:0:0:
256,192,152117,1,0,0:0:0:0:
256,192,152232,1,8,0:0:0:0:
256,192,152347,1,0,0:0:0:0:
256,192,152463,1,0,0:0:0:0:
256,192,152578,1,8,0:0:0:0:
213,54,152694,1,8,0:0:0:0:
256,192,152809,1,0,0:0:0:0:
256,192,153040,1,8,0:0:0:0:
256,192,153155,1,0,0:0:0:0:
256,192,153271,1,8,0:0:0:0:
256,192,153501,1,4,0:0:0:0:
256,192,153732,1,8,0:0:0:0:
256,192,153847,1,8,0:0:0:0:
256,192,153963,1,0,0:0:0:0:
256,192,154078,1,8,0:0:0:0:
256,192,154194,1,0,0:0:0:0:
256,192,154309,1,8,0:0:0:0:
256,192,154424,1,0,0:0:0:0:
256,192,154540,1,0,0:0:0:0:
256,192,154655,1,8,0:0:0:0:
256,192,154771,1,8,0:0:0:0:
256,192,154886,1,0,0:0:0:0:
256,192,155117,1,8,0:0:0:0:
256,192,155232,1,0,0:0:0:0:
256,192,155347,1,8,0:0:0:0:
256,192,155578,1,8,0:0:0:0:
256,192,155694,1,0,0:0:0:0:
256,192,155809,1,0,0:0:0:0:
256,192,155924,1,8,0:0:0:0:
256,192,156040,1,0,0:0:0:0:
256,192,156155,1,8,0:0:0:0:
256,192,156271,1,8,0:0:0:0:
256,192,156386,1,0,0:0:0:0:
256,192,156501,1,8,0:0:0:0:
256,192,156617,1,8,0:0:0:0:
256,192,156732,1,0,0:0:0:0:
256,192,156847,1,0,0:0:0:0:
256,192,156963,1,8,0:0:0:0:
256,192,157078,1,0,0:0:0:0:
256,192,157194,1,8,0:0:0:0:
256,192,157424,1,8,0:0:0:0:
256,192,157501,1,8,0:0:0:0:
256,192,157578,1,8,0:0:0:0:
256,192,157655,1,0,0:0:0:0:
256,192,157771,1,0,0:0:0:0:
256,192,157886,1,8,0:0:0:0:
256,192,158117,1,4,0:0:0:0:
256,192,158578,1,12,0:0:0:0:
256,192,159040,1,0,0:0:0:0:
256,192,159155,1,8,0:0:0:0:
256,192,159271,1,0,0:0:0:0:
256,192,159386,1,0,0:0:0:0:
256,192,159501,1,8,0:0:0:0:
256,192,159617,1,8,0:0:0:0:
256,192,159732,1,0,0:0:0:0:
256,192,159847,1,0,0:0:0:0:
256,192,159963,1,8,0:0:0:0:
256,192,160078,1,0,0:0:0:0:
256,192,160194,1,0,0:0:0:0:
256,192,160309,1,8,0:0:0:0:
256,192,160424,1,0,0:0:0:0:
256,192,160540,1,8,0:0:0:0:
256,192,160771,1,8,0:0:0:0:
256,192,161117,1,0,0:0:0:0:
256,192,161347,1,8,0:0:0:0:
256,192,161463,1,8,0:0:0:0:
256,192,161578,1,0,0:0:0:0:
256,192,161694,1,0,0:0:0:0:
256,192,161809,1,8,0:0:0:0:
256,192,161924,1,0,0:0:0:0:
256,192,162155,1,8,0:0:0:0:
256,192,162386,1,0,0:0:0:0:
256,192,162617,1,8,0:0:0:0:
256,192,162963,1,8,0:0:0:0:
256,192,163078,1,0,0:0:0:0:
256,192,163194,1,8,0:0:0:0:
256,192,163309,1,0,0:0:0:0:
256,192,163540,1,8,0:0:0:0:
256,192,163771,1,0,0:0:0:0:
256,192,164001,1,8,0:0:0:0:
256,192,164117,1,8,0:0:0:0:
256,192,164232,1,0,0:0:0:0:
256,192,164463,1,8,0:0:0:0:
256,192,164694,1,0,0:0:0:0:
256,192,164809,1,8,0:0:0:0:
256,192,164924,1,0,0:0:0:0:
256,192,165040,1,8,0:0:0:0:
256,192,165155,1,0,0:0:0:0:
256,192,165386,1,8,0:0:0:0:
