osu file format v14

[General]
AudioFilename: audio.mp3
AudioLeadIn: 0
PreviewTime: 49037
Countdown: 0
SampleSet: Soft
StackLeniency: 0.2
Mode: 0
LetterboxInBreaks: 0
WidescreenStoryboard: 1

[Editor]
DistanceSpacing: 0.2
BeatDivisor: 2
GridSize: 32
TimelineZoom: 2.899999

[Metadata]
Title:Love Letter
TitleUnicode:ラブレター
Artist:YOASOBI
ArtistUnicode:YOASOBI
Creator:ohm002
Version:Vivace
Source:
Tags:japanese pop j-pop jpop orchestra brass Raburetā rabu reta ikura ikuta lilas 幾田 りら Ayase Aakki rira the book 2 2nd ep novel into music 夜遊び 小説を音楽にする
BeatmapID:3239119
BeatmapSetID:1585863

[Difficulty]
HPDrainRate:4
CircleSize:3.8
OverallDifficulty:5
ApproachRate:8
SliderMultiplier:2.2
SliderTickRate:1

[Events]
//Background and Video events
0,0,"school.jpg",0,0
Video,-150,"Yoasobi.mp4"
//Break Periods
//Storyboard Layer 0 (Background)
//Storyboard Layer 1 (Fail)
//Storyboard Layer 2 (Pass)
//Storyboard Layer 3 (Foreground)
//Storyboard Layer 4 (Overlay)
//Storyboard Sound Samples

[TimingPoints]
-8413,600,4,2,1,40,1,0
5987,-100,4,2,2,20,0,0
6287,-100,4,2,1,40,0,0
10787,-100,4,2,2,60,0,0
11087,-100,4,2,3,60,0,0
11312,-100,4,2,3,60,0,0
11387,-100,4,2,2,60,0,0
11686,-100,4,2,3,60,0,0
11837,-100,4,2,4,60,0,0
12137,-100,4,2,1,60,0,0
12287,-100,4,2,4,60,0,0
12437,-100,4,2,1,60,0,0
12587,-100,4,2,2,60,0,0
12737,-100,4,2,1,60,0,0
12887,-100,4,2,4,60,0,0
13637,-100,4,2,4,60,0,0
13787,-100,4,2,2,60,0,0
14086,-100,4,2,3,60,0,0
14237,-100,4,2,4,60,0,0
14987,-100,4,2,2,60,0,0
15062,-100,4,2,2,60,0,0
15136,-100,4,2,1,60,0,0
15287,-100,4,2,4,60,0,0
15436,-100,4,2,1,60,0,0
15587,-100,4,2,3,60,0,0
15887,-100,4,2,4,60,0,0
16037,-100,4,2,4,60,0,0
16112,-100,4,2,4,60,0,0
16187,-100,4,2,2,60,0,0
16486,-100,4,2,3,60,0,0
16637,-100,4,2,1,60,0,0
16787,-100,4,2,2,60,0,0
16937,-100,4,2,1,60,0,0
17087,-100,4,2,4,60,0,0
17387,-100,4,2,2,60,0,0
17537,-100,4,2,1,60,0,0
17687,-100,4,2,4,60,0,0
18587,-100,4,2,1,60,0,0
18887,-100,4,2,4,60,0,0
19787,-100,4,2,2,60,0,0
19862,-100,4,2,2,60,0,0
19937,-100,4,2,1,60,0,0
20087,-100,4,2,4,60,0,0
20236,-100,4,2,1,60,0,0
20387,-100,4,2,5,60,0,0
20687,-100,4,2,5,60,0,0
20837,-100,4,2,3,60,0,0
20912,-100,4,2,3,60,0,0
20987,-100,4,2,2,60,0,0
21287,-100,4,2,3,60,0,0
21887,-100,4,2,1,60,0,0
22187,-100,4,2,6,60,0,0
22787,-100,4,2,1,60,0,0
23087,-100,4,2,1,60,0,0
23236,-100,4,2,4,60,0,0
23312,-100,4,2,4,60,0,0
23387,-100,4,2,1,60,0,0
23687,-100,4,2,4,60,0,0
24587,-100,4,2,6,60,0,0
25337,-100,4,2,6,60,0,0
25487,-100,4,2,2,60,0,0
25637,-100,4,2,3,60,0,0
25787,-100,4,2,6,60,0,0
25937,-100,4,2,6,60,0,0
26087,-100,4,2,2,60,0,0
26387,-100,4,2,6,60,0,0
29987,-200,4,2,7,60,0,0
39587,-100,4,2,3,60,0,0
39887,-100,4,2,1,60,0,0
45587,-100,4,2,2,30,0,0
45887,-100,4,2,1,60,0,0
46787,-100,4,2,2,30,0,0
47087,-100,4,2,1,60,0,0
49187,-100,4,2,8,60,0,1
49337,-66.6666666666667,4,2,1,80,0,1
49487,-66.6666666666667,4,2,7,80,0,1
49637,-66.6666666666667,4,2,1,80,0,1
49787,-66.6666666666667,4,2,8,80,0,1
50087,-66.6666666666667,4,2,10,80,0,1
50237,-66.6666666666667,4,2,1,80,0,1
50387,-66.6666666666667,4,2,1,80,0,1
50537,-66.6666666666667,4,2,1,80,0,1
50687,-66.6666666666667,4,2,10,80,0,1
50837,-66.6666666666667,4,2,1,80,0,1
50987,-66.6666666666667,4,2,8,80,0,1
51287,-66.6666666666667,4,2,10,80,0,1
51587,-66.6666666666667,4,2,2,80,0,1
51737,-66.6666666666667,4,2,1,80,0,1
51887,-66.6666666666667,4,2,7,80,0,1
52037,-66.6666666666667,4,2,1,80,0,1
52187,-66.6666666666667,4,2,8,80,0,1
52487,-66.6666666666667,4,2,10,80,0,1
52637,-66.6666666666667,4,2,1,80,0,1
52787,-66.6666666666667,4,2,1,80,0,1
52937,-66.6666666666667,4,2,1,80,0,1
53087,-66.6666666666667,4,2,10,80,0,1
53237,-66.6666666666667,4,2,1,80,0,1
53387,-66.6666666666667,4,2,8,80,0,1
53687,-66.6666666666667,4,2,10,80,0,1
53987,-66.6666666666667,4,2,3,80,0,1
54137,-66.6666666666667,4,2,1,80,0,1
54287,-66.6666666666667,4,2,1,80,0,1
54437,-66.6666666666667,4,2,1,80,0,1
54587,-66.6666666666667,4,2,8,80,0,1
54887,-66.6666666666667,4,2,10,80,0,1
55187,-66.6666666666667,4,2,2,80,0,1
55487,-66.6666666666667,4,2,10,80,0,1
55787,-66.6666666666667,4,2,8,80,0,1
56087,-66.6666666666667,4,2,10,80,0,1
56387,-66.6666666666667,4,2,2,80,0,1
56687,-66.6666666666667,4,2,7,80,0,1
56987,-66.6666666666667,4,2,8,80,0,1
57287,-66.6666666666667,4,2,7,80,0,1
57587,-66.6666666666667,4,2,2,80,0,1
57887,-66.6666666666667,4,2,7,80,0,1
58187,-66.6666666666667,4,2,8,80,0,1
58487,-66.6666666666667,4,2,7,80,0,1
58787,-66.6666666666667,4,2,4,80,0,1
59087,-66.6666666666667,4,2,7,80,0,1
59387,-66.6666666666667,4,2,5,80,0,1
59687,-66.6666666666667,4,2,10,80,0,1
59987,-66.6666666666667,4,2,2,80,0,1
60287,-66.6666666666667,4,2,10,80,0,1
60587,-66.6666666666667,4,2,8,80,0,1
60887,-66.6666666666667,4,2,10,80,0,1
61187,-66.6666666666667,4,2,2,80,0,1
61487,-66.6666666666667,4,2,7,80,0,1
61787,-66.6666666666667,4,2,5,80,0,1
62087,-66.6666666666667,4,2,10,80,0,1
62387,-66.6666666666667,4,2,2,80,0,1
62687,-66.6666666666667,4,2,10,80,0,1
62987,-66.6666666666667,4,2,8,80,0,1
63287,-66.6666666666667,4,2,10,80,0,1
63587,-66.6666666666667,4,2,2,80,0,1
63887,-66.6666666666667,4,2,10,80,0,1
64037,-66.6666666666667,4,2,1,80,0,1
64187,-66.6666666666667,4,2,5,80,0,1
64337,-66.6666666666667,4,2,1,80,0,1
64487,-66.6666666666667,4,2,10,80,0,1
64637,-66.6666666666667,4,2,1,80,0,1
64787,-66.6666666666667,4,2,2,80,0,1
65087,-66.6666666666667,4,2,10,80,0,1
65387,-66.6666666666667,4,2,8,80,0,1
65687,-66.6666666666667,4,2,10,80,0,1
65837,-66.6666666666667,4,2,10,80,0,0
65987,600,4,2,8,40,1,0
65987,-83.3333333333333,4,2,8,80,0,1
66287,-83.3333333333333,4,2,8,80,0,1
66586,-83.3333333333333,4,2,5,80,0,1
67187,-83.3333333333333,4,2,2,80,0,1
67487,-83.3333333333333,4,2,10,80,0,1
67787,-83.3333333333333,4,2,8,80,0,1
68087,-83.3333333333333,4,2,10,80,0,1
68387,-83.3333333333333,4,2,2,80,0,1
68987,-83.3333333333333,4,2,5,80,0,1
69587,-83.3333333333333,4,2,2,80,0,1
69887,-83.3333333333333,4,2,10,80,0,1
70187,-83.3333333333333,4,2,8,80,0,1
70487,-83.3333333333333,4,2,10,80,0,1
70787,-83.3333333333333,4,2,2,80,0,1
71087,-83.3333333333333,4,2,2,80,0,1
71386,-83.3333333333333,4,2,5,80,0,1
71987,-83.3333333333333,4,2,2,80,0,1
72287,-83.3333333333333,4,2,10,80,0,1
72587,-83.3333333333333,4,2,8,80,0,1
72887,-83.3333333333333,4,2,10,80,0,1
73187,-83.3333333333333,4,2,2,80,0,1
73486,-83.3333333333333,4,2,10,80,0,1
73637,-83.3333333333333,4,2,1,80,0,1
73787,-83.3333333333333,4,2,8,80,0,1
74086,-83.3333333333333,4,2,10,80,0,1
74387,-83.3333333333333,4,2,3,80,0,1
74686,-83.3333333333333,4,2,10,80,0,1
74837,-83.3333333333333,4,2,1,80,0,1
74987,-83.3333333333333,4,2,8,80,0,1
75136,-83.3333333333333,4,2,1,80,0,1
75287,-83.3333333333333,4,2,10,80,0,1
75587,-83.3333333333333,4,2,3,80,0,1
75886,-83.3333333333333,4,2,10,80,0,1
76037,-83.3333333333333,4,2,1,80,0,1
76187,-83.3333333333333,4,2,8,80,0,1
76486,-83.3333333333333,4,2,10,80,0,1
76637,-83.3333333333333,4,2,1,80,0,1
76787,-83.3333333333333,4,2,2,80,0,1
77087,-83.3333333333333,4,2,10,80,0,1
77387,-83.3333333333333,4,2,8,80,0,1
77686,-83.3333333333333,4,2,10,80,0,1
77987,-83.3333333333333,4,2,3,80,0,1
78286,-83.3333333333333,4,2,10,80,0,1
78437,-83.3333333333333,4,2,1,80,0,1
78587,-83.3333333333333,4,2,8,80,0,1
78886,-83.3333333333333,4,2,10,80,0,1
79037,-83.3333333333333,4,2,1,80,0,1
79187,-83.3333333333333,4,2,2,80,0,1
79487,-83.3333333333333,4,2,10,80,0,1
79787,-83.3333333333333,4,2,8,80,0,1
80086,-83.3333333333333,4,2,10,80,0,1
80387,-83.3333333333333,4,2,3,80,0,1
80686,-83.3333333333333,4,2,10,80,0,1
80837,-83.3333333333333,4,2,1,80,0,1
80987,-83.3333333333333,4,2,8,80,0,1
81287,-83.3333333333333,4,2,10,80,0,1
81587,-83.3333333333333,4,2,2,80,0,1
81886,-83.3333333333333,4,2,10,80,0,1
82187,-83.3333333333333,4,2,8,80,0,1
82487,-83.3333333333333,4,2,10,80,0,1
82787,600,4,2,13,40,1,0
82787,-100,4,2,13,60,0,0
83087,-100,4,2,1,60,0,0
97187,-76.9230769230769,4,2,9,70,0,1
97486,-76.9230769230769,4,2,10,70,0,1
97637,-76.9230769230769,4,2,1,70,0,1
97787,-76.9230769230769,4,2,8,70,0,1
97936,-76.9230769230769,4,2,1,70,0,1
98087,-76.9230769230769,4,2,10,70,0,1
98236,-76.9230769230769,4,2,1,70,0,1
98387,-76.9230769230769,4,2,2,70,0,1
98536,-76.9230769230769,4,2,1,70,0,1
98687,-76.9230769230769,4,2,10,70,0,1
98836,-76.9230769230769,4,2,1,70,0,1
98987,-76.9230769230769,4,2,8,70,0,1
99136,-76.9230769230769,4,2,1,70,0,1
99287,-76.9230769230769,4,2,10,70,0,1
99587,-76.9230769230769,4,2,2,70,0,1
99737,-76.9230769230769,4,2,2,70,0,1
99886,-76.9230769230769,4,2,10,70,0,1
100037,-76.9230769230769,4,2,1,70,0,1
100187,-76.9230769230769,4,2,8,70,0,1
100336,-76.9230769230769,4,2,1,70,0,1
100487,-76.9230769230769,4,2,10,70,0,1
100636,-76.9230769230769,4,2,1,70,0,1
100787,-76.9230769230769,4,2,2,70,0,1
100936,-76.9230769230769,4,2,1,70,0,1
101087,-76.9230769230769,4,2,10,70,0,1
101236,-76.9230769230769,4,2,1,70,0,1
101387,-76.9230769230769,4,2,8,70,0,1
101536,-76.9230769230769,4,2,1,70,0,1
101687,-76.9230769230769,4,2,10,70,0,1
101987,-76.9230769230769,4,2,2,70,0,1
102286,-76.9230769230769,4,2,10,70,0,1
102437,-76.9230769230769,4,2,1,70,0,1
102587,-76.9230769230769,4,2,8,70,0,1
102886,-76.9230769230769,4,2,10,70,0,1
103037,-76.9230769230769,4,2,1,70,0,1
103187,-76.9230769230769,4,2,2,70,0,1
103487,-76.9230769230769,4,2,10,70,0,1
103636,-76.9230769230769,4,2,1,70,0,1
103787,-76.9230769230769,4,2,8,70,0,1
103937,-76.9230769230769,4,2,8,70,0,1
104086,-76.9230769230769,4,2,10,70,0,1
104387,-76.9230769230769,4,2,2,70,0,1
104686,-76.9230769230769,4,2,10,70,0,1
104837,-76.9230769230769,4,2,1,70,0,1
104987,-76.9230769230769,4,2,2,70,0,1
105287,-76.9230769230769,4,2,10,70,0,1
105436,-76.9230769230769,4,2,1,70,0,1
105587,-76.9230769230769,4,2,2,70,0,1
105886,-76.9230769230769,4,2,10,70,0,1
106187,-76.9230769230769,4,2,2,70,0,1
106487,-76.9230769230769,4,2,10,70,0,1
106562,-76.9230769230769,4,2,10,70,0,1
106787,-76.9230769230769,4,2,4,70,0,1
107086,-76.9230769230769,4,2,10,70,0,1
107237,-76.9230769230769,4,2,1,70,0,1
107387,-76.9230769230769,4,2,2,70,0,1
107537,-76.9230769230769,4,2,2,70,0,1
107686,-76.9230769230769,4,2,10,70,0,1
107987,-76.9230769230769,4,2,3,70,0,1
108287,-76.9230769230769,4,2,10,70,0,1
108587,-76.9230769230769,4,2,5,70,0,1
108886,-76.9230769230769,4,2,10,70,0,1
109187,-76.9230769230769,4,2,4,70,0,1
109487,-76.9230769230769,4,2,10,70,0,1
109636,-76.9230769230769,4,2,1,70,0,1
109787,-76.9230769230769,4,2,2,70,0,1
109936,-76.9230769230769,4,2,1,70,0,1
110087,-76.9230769230769,4,2,10,70,0,1
110236,-76.9230769230769,4,2,1,70,0,1
110387,-76.9230769230769,4,2,4,70,0,1
110686,-76.9230769230769,4,2,10,70,0,1
110987,-76.9230769230769,4,2,8,70,0,1
111286,-76.9230769230769,4,2,10,70,0,1
111437,-76.9230769230769,4,2,1,70,0,1
111587,-76.9230769230769,4,2,4,70,0,1
111887,-76.9230769230769,4,2,7,70,0,1
112036,-76.9230769230769,4,2,1,70,0,1
112187,-76.9230769230769,4,2,9,70,0,1
112336,-76.9230769230769,4,2,1,70,0,1
112487,-76.9230769230769,4,2,10,70,0,1
112636,-76.9230769230769,4,2,1,70,0,1
112787,-76.9230769230769,4,2,4,70,0,1
113087,-76.9230769230769,4,2,10,70,0,1
113387,-76.9230769230769,4,2,8,70,0,1
113687,-76.9230769230769,4,2,10,70,0,1
113987,-100,4,2,11,70,0,0
114287,-100,4,2,11,70,0,0
114437,-100,4,2,1,70,0,0
116387,600,4,2,12,40,1,0
116387,-250,4,2,12,50,0,0
125987,-100,4,2,1,60,0,0
129587,-100,4,2,2,30,0,0
129887,-100,4,2,1,60,0,0
130787,-100,4,2,2,30,0,0
131087,-100,4,2,1,60,0,0
135587,-100,4,2,1,20,0,0
142787,-100,4,2,13,60,0,0
143387,-100,4,2,6,60,0,0
145187,-100,4,2,1,70,0,0
145787,-100,4,2,6,70,0,0
146387,-100,4,2,1,70,0,0
146987,-100,4,2,6,70,0,0
147587,-100,4,2,1,60,0,0
148787,-100,4,2,2,30,0,0
148937,-100,4,2,1,60,0,0
149987,600,4,2,14,40,1,0
149987,-100,4,2,14,90,0,1
150137,-62.5,4,2,1,90,0,1
150287,-62.5,4,2,7,90,0,1
150437,-62.5,4,2,1,90,0,1
150587,-62.5,4,2,8,90,0,1
150887,-62.5,4,2,10,90,0,1
151037,-62.5,4,2,1,90,0,1
151187,-62.5,4,2,3,90,0,1
151337,-62.5,4,2,1,90,0,1
151487,-62.5,4,2,10,90,0,1
151637,-62.5,4,2,1,90,0,1
151787,-62.5,4,2,8,90,0,1
152087,-62.5,4,2,10,90,0,1
152387,-62.5,4,2,15,90,0,1
152537,-62.5,4,2,1,90,0,1
152687,-62.5,4,2,7,90,0,1
152837,-62.5,4,2,1,90,0,1
152987,-62.5,4,2,8,90,0,1
153287,-62.5,4,2,10,90,0,1
153437,-62.5,4,2,1,90,0,1
153587,-62.5,4,2,3,90,0,1
153737,-62.5,4,2,1,90,0,1
153887,-62.5,4,2,10,90,0,1
154037,-62.5,4,2,1,90,0,1
154187,-62.5,4,2,8,90,0,1
154337,-62.5,4,2,1,90,0,1
154487,-62.5,4,2,10,90,0,1
154787,-62.5,4,2,15,90,0,1
154937,-62.5,4,2,1,90,0,1
155087,-62.5,4,2,1,90,0,1
155237,-62.5,4,2,1,90,0,1
155387,-62.5,4,2,8,90,0,1
155687,-62.5,4,2,10,90,0,1
155837,-62.5,4,2,1,90,0,1
155987,-62.5,4,2,1,90,0,1
156137,-62.5,4,2,1,90,0,1
156287,-62.5,4,2,10,90,0,1
156437,-62.5,4,2,1,90,0,1
156587,-62.5,4,2,8,90,0,1
156887,-62.5,4,2,10,90,0,1
157187,-62.5,4,2,15,90,0,1
157487,-62.5,4,2,7,90,0,1
157787,-62.5,4,2,8,90,0,1
158687,-62.5,4,2,7,90,0,1
158987,-62.5,4,2,8,90,0,1
159887,-62.5,4,2,7,90,0,1
160187,-62.5,4,2,5,90,0,1
160487,-62.5,4,2,10,90,0,1
160787,-62.5,4,2,2,90,0,1
161087,-62.5,4,2,10,90,0,1
161387,-62.5,4,2,8,90,0,1
161687,-62.5,4,2,10,90,0,1
161987,-62.5,4,2,15,90,0,1
162287,-62.5,4,2,7,90,0,1
162587,-62.5,4,2,5,90,0,1
162887,-62.5,4,2,10,90,0,1
163187,-62.5,4,2,2,90,0,1
163487,-62.5,4,2,10,90,0,1
163787,-62.5,4,2,8,90,0,1
164087,-62.5,4,2,10,90,0,1
164387,-62.5,4,2,11,90,0,1
164687,-62.5,4,2,10,90,0,1
164987,-62.5,4,2,8,90,0,1
165287,-62.5,4,2,10,90,0,1
165587,-62.5,4,2,3,90,0,1
165887,-62.5,4,2,10,90,0,1
166187,-62.5,4,2,8,90,0,1
166487,-62.5,4,2,10,90,0,1
166787,-62.5,4,2,3,90,0,1
167087,-62.5,4,2,10,90,0,1
167387,-62.5,4,2,8,90,0,1
167687,-62.5,4,2,10,90,0,1
167987,-62.5,4,2,3,90,0,1
168287,-62.5,4,2,10,90,0,1
168587,-62.5,4,2,4,90,0,1
168887,-62.5,4,2,7,90,0,1
169037,-62.5,4,2,1,90,0,0
169187,-62.5,4,2,14,90,0,1
169337,-62.5,4,2,1,90,0,1
169487,-62.5,4,2,7,90,0,1
169637,-62.5,4,2,1,90,0,1
169787,-62.5,4,2,8,90,0,1
169937,-62.5,4,2,1,90,0,1
170087,-62.5,4,2,10,90,0,1
170237,-62.5,4,2,1,90,0,1
170387,-62.5,4,2,1,90,0,1
170537,-62.5,4,2,1,90,0,1
170687,-62.5,4,2,10,90,0,1
170837,-62.5,4,2,1,90,0,1
170987,-62.5,4,2,8,90,0,1
171137,-62.5,4,2,1,90,0,1
171287,-62.5,4,2,10,90,0,1
171587,-62.5,4,2,2,90,0,1
171737,-62.5,4,2,1,90,0,1
171887,-62.5,4,2,7,90,0,1
172037,-62.5,4,2,1,90,0,1
172187,-62.5,4,2,8,90,0,1
172487,-62.5,4,2,10,90,0,1
172637,-62.5,4,2,1,90,0,1
172787,-62.5,4,2,1,90,0,1
172937,-62.5,4,2,1,90,0,1
173087,-62.5,4,2,10,90,0,1
173237,-62.5,4,2,1,90,0,1
173387,-62.5,4,2,8,90,0,1
173687,-62.5,4,2,10,90,0,1
173987,-62.5,4,2,2,90,0,1
174137,-62.5,4,2,1,90,0,1
174287,-62.5,4,2,1,90,0,1
174437,-62.5,4,2,1,90,0,1
174587,-62.5,4,2,8,90,0,1
174887,-62.5,4,2,10,90,0,1
175037,-62.5,4,2,1,90,0,1
175187,-62.5,4,2,2,90,0,1
175487,-62.5,4,2,10,90,0,1
175787,-62.5,4,2,8,90,0,1
176087,-62.5,4,2,10,90,0,1
176387,-62.5,4,2,2,90,0,1
176687,-62.5,4,2,7,90,0,1
176987,-62.5,4,2,8,90,0,1
177887,-62.5,4,2,7,90,0,1
178187,-62.5,4,2,15,90,0,1
178787,-62.5,4,2,8,90,0,1
179087,-62.5,4,2,10,90,0,1
179387,-62.5,4,2,8,90,0,1
179687,-62.5,4,2,10,90,0,1
179987,-62.5,4,2,2,90,0,1
180287,-62.5,4,2,10,90,0,1
180587,-62.5,4,2,8,90,0,1
180887,-62.5,4,2,10,90,0,1
181037,-62.5,4,2,1,90,0,1
181187,-62.5,4,2,3,90,0,1
181337,-62.5,4,2,1,90,0,1
181487,-62.5,4,2,7,90,0,1
181787,-62.5,4,2,8,90,0,1
182087,-62.5,4,2,10,90,0,1
182387,-62.5,4,2,2,90,0,1
182687,-62.5,4,2,10,90,0,1
182987,-62.5,4,2,8,90,0,1
183287,-62.5,4,2,10,90,0,1
183437,-62.5,4,2,1,90,0,1
183587,-62.5,4,2,16,90,0,1
183737,-62.5,4,2,1,90,0,1
183887,-62.5,4,2,10,90,0,1
184187,-62.5,4,2,5,90,0,1
184487,-62.5,4,2,10,90,0,1
184787,-62.5,4,2,2,90,0,1
185087,-62.5,4,2,10,90,0,1
185387,-62.5,4,2,8,90,0,1
185687,-62.5,4,2,10,90,0,1
185987,-62.5,4,2,2,90,0,1
186287,-62.5,4,2,2,90,0,1
186437,-62.5,4,2,1,90,0,1
186587,-62.5,4,2,8,90,0,1
186887,-62.5,4,2,7,90,0,1
187187,-62.5,4,2,2,90,0,1
187487,-62.5,4,2,7,90,0,1
187787,-62.5,4,2,4,90,0,1
188087,-62.5,4,2,7,90,0,1
188237,-62.5,4,2,7,90,0,0
188387,-62.5,4,2,17,80,0,1
188687,-62.5,4,2,7,80,0,1
188837,-62.5,4,2,1,80,0,1
188987,-62.5,4,2,2,80,0,1
189137,-62.5,4,2,1,80,0,1
189287,-62.5,4,2,7,80,0,1
189437,-62.5,4,2,1,80,0,1
189587,-62.5,4,2,4,80,0,1
189737,-62.5,4,2,1,80,0,1
189887,-62.5,4,2,10,80,0,1
190037,-62.5,4,2,1,80,0,1
190187,-62.5,4,2,8,80,0,1
190487,-62.5,4,2,10,80,0,1
190787,-62.5,4,2,2,80,0,1
191087,-62.5,4,2,10,80,0,1
191237,-62.5,4,2,1,80,0,1
191387,-62.5,4,2,2,80,0,1
191687,-62.5,4,2,10,80,0,1
191837,-62.5,4,2,1,80,0,1
191987,-62.5,4,2,3,80,0,1
192137,-62.5,4,2,1,80,0,1
192287,-62.5,4,2,10,80,0,1
192437,-62.5,4,2,1,80,0,1
192587,-62.5,4,2,2,80,0,1
192662,-62.5,4,2,2,80,0,1
192737,-62.5,4,2,1,80,0,1
192887,-62.5,4,2,10,80,0,1
192962,-62.5,4,2,10,80,0,1
193187,-62.5,4,2,5,80,0,1
193487,-62.5,4,2,10,80,0,1
193712,-62.5,4,2,1,80,0,1
193787,-62.5,4,2,2,80,0,1
193937,-62.5,4,2,1,80,0,1
194087,-62.5,4,2,10,80,0,1
194237,-62.5,4,2,1,80,0,1
194387,-62.5,4,2,4,80,0,1
194537,-62.5,4,2,1,80,0,1
194612,-62.5,4,2,4,80,0,1
194687,-62.5,4,2,10,80,0,1
194837,-62.5,4,2,1,80,0,1
194987,-62.5,4,2,2,80,0,1
195137,-62.5,4,2,2,80,0,1
195287,-62.5,4,2,10,80,0,1
195437,-62.5,4,2,1,80,0,1
195587,-62.5,4,2,2,80,0,1
195737,-62.5,4,2,1,80,0,1
195887,-62.5,4,2,7,80,0,1
196037,-62.5,4,2,1,80,0,1
196187,-62.5,4,2,9,80,0,1
196337,-62.5,4,2,1,80,0,1
196487,-62.5,4,2,10,80,0,1
196637,-62.5,4,2,1,80,0,1
196787,-62.5,4,2,4,80,0,1
197087,-62.5,4,2,10,80,0,1
197237,-62.5,4,2,1,80,0,1
197387,-62.5,4,2,2,80,0,1
197462,-62.5,4,2,2,80,0,1
197537,-62.5,4,2,1,80,0,1
197687,-62.5,4,2,10,80,0,1
197762,-62.5,4,2,10,80,0,1
197837,-62.5,4,2,1,80,0,1
197987,-62.5,4,2,18,80,0,1
198287,-62.5,4,2,10,80,0,1
198437,-62.5,4,2,1,80,0,1
198587,-62.5,4,2,2,80,0,1
198737,-62.5,4,2,1,80,0,1
198887,-62.5,4,2,7,80,0,1
199037,-62.5,4,2,1,80,0,1
199187,-62.5,4,2,4,80,0,1
199337,-62.5,4,2,1,80,0,1
199412,-62.5,4,2,4,80,0,1
199487,-62.5,4,2,10,80,0,1
199637,-62.5,4,2,1,80,0,1
199787,-62.5,4,2,2,80,0,1
199937,-62.5,4,2,1,80,0,1
200087,-62.5,4,2,10,80,0,1
200237,-62.5,4,2,1,80,0,1
200387,-62.5,4,2,5,80,0,1
200687,-62.5,4,2,10,80,0,1
200837,-62.5,4,2,1,80,0,1
200987,-62.5,4,2,2,80,0,1
201137,-62.5,4,2,1,80,0,1
201287,-62.5,4,2,10,80,0,1
201362,-62.5,4,2,4,80,0,1
201437,-62.5,4,2,1,80,0,1
201512,-62.5,4,2,4,80,0,1
201587,-62.5,4,2,4,80,0,1
201737,-62.5,4,2,1,80,0,1
201887,-62.5,4,2,10,80,0,1
202037,-62.5,4,2,1,80,0,1
202187,-62.5,4,2,2,80,0,1
202262,-62.5,4,2,2,80,0,1
202487,-62.5,4,2,10,80,0,1
202637,-62.5,4,2,10,80,0,0
202787,-62.5,4,2,19,80,0,1
202937,-62.5,4,2,19,80,0,0
206987,-62.5,4,2,19,5,0,0

[Colours]
Combo1 : 98,243,255
Combo2 : 251,170,251
Combo3 : 102,171,255
Combo4 : 162,205,232

[HitObjects]
47,47,1187,6,0,P|99:59|139:97,1,110,6|8,2:3|2:3,0:0:0:0:
183,19,1637,1,8,2:3:0:0:
190,26,1712,1,8,2:3:0:0:
198,32,1787,2,0,L|280:20,1,55,10|8,2:3|2:3,2:0:0:0:
307,82,2087,2,0,L|389:94,1,55,8|10,2:3|2:3,2:0:0:0:
443,65,2387,2,0,L|435:119,1,55,6|0,2:3|0:0,0:0:0:0:
449,201,2687,2,8,L|394:193,1,55,14|10,2:3|2:3,2:3:0:0:
316,177,2987,2,0,P|276:214|223:227,1,110,10|10,2:3|2:3,2:0:0:0:
100,287,3587,6,0,P|152:299|192:337,1,110,6|10,2:3|2:3,0:0:0:0:
266,363,4037,1,8,2:3:0:0:
274,369,4112,1,0,0:0:0:0:
280,377,4187,2,8,L|351:366,1,55,10|8,2:3|2:3,2:3:0:0:
323,276,4487,2,0,L|268:284,1,55,8|10,2:3|2:3,0:0:0:0:
212,200,4787,6,0,P|264:187|304:149,1,110,6|14,2:3|2:3,2:0:0:0:
376,104,5237,1,2,2:0:0:0:
379,114,5312,1,0,0:0:0:0:
381,124,5387,2,0,L|452:135,1,55,10|10,2:3|2:3,2:0:0:0:
422,211,5687,2,0,L|367:202,1,55,10|8,2:3|2:3,2:0:0:0:
300,68,5987,6,0,L|190:54,1,110,4|10,2:3|2:3,0:0:0:0:
51,112,6587,2,0,L|160:125,1,110,10|8,2:3|2:3,0:0:0:0:
190,54,7037,1,10,2:3:0:0:
248,106,7187,2,0,L|241:160,1,55,6|2,2:3|2:0,2:0:0:0:
200,232,7487,2,0,P|227:232|254:238,1,55,14|10,2:3|2:3,2:0:0:0:
320,197,7787,2,0,L|429:210,1,110,10|10,2:3|2:3,2:0:0:0:
472,280,8237,6,0,P|485:303|485:331,1,55,10|2,2:3|2:0,0:0:0:0:
405,322,8537,2,0,L|296:309,1,110,2|10,2:0|2:3,2:0:0:0:
210,370,8987,2,0,L|219:293,1,55,10|8,2:3|2:3,2:0:0:0:
254,238,9287,2,0,L|177:228,1,55,10|8,2:3|2:3,2:0:0:0:
140,292,9587,6,0,L|31:279,1,110,6|14,2:3|2:3,0:0:0:0:
146,201,10187,2,0,L|139:136,2,55,10|10|10,2:3|2:3|2:3,2:0:0:0:
146,201,10787,6,0,B|160:133|160:133|104:83|104:83|119:9,1,220,6|10,1:2|1:2,2:0:0:0:
205,47,11837,5,10,2:0:0:0:
205,47,11987,2,0,L|259:38,1,55,2|2,2:0|2:0,2:0:0:0:
330,0,12287,2,0,L|339:54,1,55,10|10,1:2|2:3,2:0:0:0:
404,120,12587,2,0,L|260:143,1,110,10|10,1:2|2:0,2:0:0:0:
205,47,13187,6,0,B|222:121|222:121|166:171|166:171|179:238,1,220,6|10,1:2|1:2,2:0:0:0:
102,310,14237,5,10,2:0:0:0:
101,310,14387,2,0,P|154:319|191:358,1,110,2|14,2:0|1:2,2:0:0:0:
252,295,14837,1,2,2:0:0:0:
252,295,14987,2,0,L|337:284,2,55,10|10|10,1:2|2:3|2:0,2:0:0:0:
205,208,15587,6,0,B|142:210|91:149|91:149|91:194|134:219,1,220,6|10,1:2|1:2,2:0:0:0:
286,157,16637,5,10,2:3:0:0:
286,157,16787,2,0,L|279:86,1,55,2|2,2:0|2:0,2:0:0:0:
307,21,17087,2,0,L|252:26,1,55,14|10,1:2|2:0,2:0:0:0:
169,2,17387,2,0,L|174:56,1,55,10|10,1:2|2:3,2:0:0:0:
206,129,17687,1,10,2:0:0:0:
307,21,17987,6,0,L|416:34,1,110,6|10,1:2|2:0,2:0:0:0:
497,125,18587,2,0,L|387:111,1,110,10|10,1:2|2:0,2:0:0:0:
313,59,19037,1,10,2:0:0:0:
313,59,19187,2,0,L|299:168,1,110,2|14,2:0|1:2,2:0:0:0:
378,195,19637,1,2,2:0:0:0:
378,195,19787,2,0,L|364:304,1,110,10|10,1:2|2:0,0:0:0:0:
470,192,20387,6,0,B|457:122|457:122|513:75|513:75|497:-2,1,220,6|10,1:2|1:2,2:0:0:0:
373,112,21287,1,10,1:2:0:0:
312,53,21887,5,2,1:2:0:0:
312,53,22037,1,2,2:0:0:0:
312,53,22187,2,0,L|245:49,1,55,10|0,1:2|2:0,2:0:0:0:
179,44,22487,1,2,2:0:0:0:
86,200,22787,6,0,B|97:129|97:129|41:82|41:82|57:5,1,220,4|10,1:2|1:2,2:0:0:0:
181,130,23687,1,10,1:2:0:0:
4,231,24287,5,2,1:2:0:0:
4,231,24437,1,2,2:0:0:0:
4,231,24587,2,0,P|29:280|16:331,1,110,10|2,1:2|2:0,2:0:0:0:
126,356,25187,6,0,P|175:331|226:343,1,110,4|2,1:2|2:0,2:0:0:0:
287,297,25637,1,2,2:0:0:0:
287,297,25787,2,0,P|336:322|387:309,1,110,12|2,1:2|2:0,2:0:0:0:
459,343,26237,1,2,2:0:0:0:
459,343,26387,2,0,P|495:333|521:332,1,55,6|0,1:2|0:0,0:0:0:0:
474,254,26687,2,0,P|465:227|462:200,1,55,6|0,1:2|0:0,0:0:0:0:
387,246,26987,2,0,P|360:254|333:257,2,55
387,246,27587,6,0,L|397:135,1,110,6|2,1:2|2:0,2:0:0:0:
480,139,28037,1,2,2:0:0:0:
450,63,28187,2,0,L|339:53,1,110,6|2,1:2|2:0,2:0:0:0:
284,107,28637,1,2,2:0:0:0:
254,31,28787,2,0,P|263:56|262:84,1,55,6|0,1:2|2:0,2:0:0:0:
179,66,29087,2,0,P|161:86|137:100,1,55,2|0,2:0|2:0,2:0:0:0:
110,18,29387,2,0,L|-1:28,1,110,6|2,1:2|2:0,2:0:0:0:
24,274,29987,6,0,B|-24:239|-50:141|31:63|108:93|141:175|73:217,1,330,4|0,2:0|0:0,2:0:0:0:
286,325,32387,6,0,B|251:373|153:399|75:318|105:241|190:209|227:273,1,330,4|0,2:0|0:0,2:0:0:0:
222,266,34787,6,0,B|213:240|259:215|269:221|284:230|412:250|407:41|318:-1|195:24|160:105|197:161|247:143,1,440,4|4,2:0|2:0,2:0:0:0:
296,246,38387,5,4,0:0:0:0:
330,351,39587,6,0,P|282:324|228:329,1,110,4|8,2:3|2:3,2:0:0:0:
134,384,40037,1,8,2:3:0:0:
121,354,40187,2,0,P|147:306|142:252,1,110,8|10,2:3|2:3,2:0:0:0:
194,184,40637,1,8,2:3:0:0:
180,160,40787,1,6,2:3:0:0:
296,214,41087,1,6,2:3:0:0:
353,96,41387,1,2,2:0:0:0:
237,42,41687,1,2,2:0:0:0:
187,161,41987,6,0,P|136:181|82:175,1,110,6|8,2:3|2:3,2:0:0:0:
0,219,42437,1,8,2:3:0:0:
24,237,42587,2,0,P|44:287|38:341,1,110,8|10,2:3|2:3,2:0:0:0:
103,384,43037,1,8,2:3:0:0:
133,364,43187,2,0,P|183:343|237:349,1,110,6|6,2:3|2:3,0:0:0:0:
245,193,43787,6,8,L|290:186,3,27.5,10|8|8|8,2:3|0:3|0:3|0:3,0:3:0:0:
204,263,44087,6,0,L|159:256,3,27.5,10|0|0|0,2:3|0:0|0:0|0:0,0:0:0:0:
245,193,44387,6,0,L|236:128,1,55,14|0,2:3|2:0,2:0:0:0:
196,70,44687,2,0,L|261:61,1,55,10|8,2:3|2:3,2:0:0:0:
324,21,44987,2,0,L|333:86,1,55,10|8,2:3|2:3,2:0:0:0:
373,144,45287,2,0,L|308:153,1,55,10|8,2:3|2:3,2:0:0:0:
245,193,45587,5,4,2:3:0:0:
389,240,45887,1,6,2:3:0:0:
343,381,46187,1,2,2:0:0:0:
199,334,46487,1,2,2:0:0:0:
245,193,46787,6,0,L|238:138,1,55,4|0,2:3|2:0,2:0:0:0:
252,56,47087,2,0,L|197:62,1,55,10|8,2:3|2:3,2:0:0:0:
114,51,47387,2,0,L|120:105,1,55,8|8,2:3|2:3,2:0:0:0:
107,188,47687,2,0,L|161:181,1,55,10|8,2:3|2:3,2:0:0:0:
255,205,47987,6,0,P|271:256|253:307,1,110,12|10,2:3|2:3,0:0:0:0:
184,249,48437,1,10,2:3:0:0:
172,255,48587,2,0,L|117:249,1,55,10|10,2:3|2:3,0:0:0:0:
65,147,48887,5,10,2:3:0:0:
65,147,49187,5,6,1:2:0:0:
28,168,49337,2,0,P|42:206|36:246,1,82.5000031471254,2|2,2:0|2:0,2:0:0:0:
0,320,49637,1,2,2:0:0:0:
53,349,49787,2,0,P|91:334|131:339,1,82.5000031471254,10|0,1:2|2:0,2:0:0:0:
261,293,50087,1,2,2:0:0:0:
216,366,50237,2,0,L|195:183,1,165.000006294251,2|2,2:0|2:0,2:0:0:0:
146,121,50687,2,0,P|186:126|224:111,1,82.5000031471254,2|2,2:0|2:0,2:0:0:0:
197,202,50987,2,0,B|271:194|277:245|354:240,1,165.000006294251,10|2,1:2|2:0,2:0:0:0:
456,144,51587,5,2,1:2:0:0:
442,149,51737,2,0,P|428:187|433:227,1,82.5000031471254,2|2,2:0|2:0,2:0:0:0:
512,360,52037,1,2,2:0:0:0:
493,318,52187,2,0,P|455:303|415:308,1,82.5000031471254,10|0,1:2|2:0,2:0:0:0:
296,308,52487,1,2,2:0:0:0:
343,375,52637,2,0,L|321:205,1,165.000006294251,2|2,2:0|2:0,2:0:0:0:
376,122,53087,2,0,P|335:127|297:112,1,82.5000031471254,2|2,2:0|2:0,2:0:0:0:
321,211,53387,2,0,B|247:203|241:254|164:249,1,165.000006294251,10|2,1:2|2:0,2:0:0:0:
26,144,53987,5,2,1:2:0:0:
11,114,54137,2,0,B|34:21|34:21|45:56|73:76,1,165.000006294251,2|2,2:0|2:0,2:0:0:0:
154,34,54587,2,0,P|233:47|298:0,1,165.000006294251,10|2,1:2|2:0,2:0:0:0:
395,91,55037,1,0,2:0:0:0:
365,106,55187,6,0,P|360:66|374:28,1,82.5000031471254,2|0,1:2|2:0,2:0:0:0:
313,187,55487,2,0,P|354:183|393:197,1,82.5000031471254,2|0,2:0|2:0,2:0:0:0:
263,109,55787,2,0,L|284:273,1,165.000006294251,10|2,1:2|2:2,2:0:0:0:
483,384,56387,6,0,B|425:342|440:275|440:275|425:342|356:353,1,247.500009441376,2|0,1:2|2:0,2:0:0:0:
277,381,56987,2,0,P|279:322|351:286,1,82.5000031471254,10|0,1:2|0:0,2:0:0:0:
356,260,57287,1,2,2:0:0:0:
251,171,57587,6,0,B|193:213|208:280|208:280|193:213|124:202,1,247.500009441376,2|0,1:2|2:0,2:0:0:0:
59,250,58187,2,0,P|40:214|44:174,1,82.5000031471254,10|0,1:2|0:0,2:0:0:0:
124,295,58487,1,2,2:0:0:0:
251,171,58787,6,0,L|276:6,1,165.000006294251,6|2,1:3|2:0,2:0:0:0:
275,7,59387,6,0,P|312:42|350:50,1,82.5000031471254,10|0,1:2|2:0,2:0:0:0:
437,67,59687,2,0,P|402:104|394:142,1,82.5000031471254,2|0,2:0|2:0,2:0:0:0:
512,239,59987,6,0,B|473:195|473:195|368:215,1,165.000006294251,2|2,1:2|2:0,2:0:0:0:
368,214,60587,6,0,P|388:255|384:293,1,82.5000031471254,10|0,1:2|2:0,2:0:0:0:
367,382,60887,2,0,P|403:363|444:366,1,82.5000031471254,2|0,2:0|2:0,2:0:0:0:
299,324,61187,6,0,L|208:308,1,82.5000031471254,2|0,1:2|0:0,2:0:0:0:
134,337,61487,2,0,L|148:255,1,82.5000031471254,2|0,2:0|2:0,0:0:0:0:
254,191,61787,2,0,L|72:159,1,165.000006294251,10|2,1:2|2:0,2:0:0:0:
69,239,62237,1,0,2:0:0:0:
0,198,62387,6,0,P|15:160|8:120,1,82.5000031471254,2|0,1:2|0:0,2:0:0:0:
7,25,62687,2,0,P|45:41|85:33,1,82.5000031471254,2|0,2:0|2:0,0:0:0:0:
172,30,62987,2,0,P|155:67|164:107,1,82.5000031471254,10|0,1:2|0:0,2:0:0:0:
164,191,63287,2,0,P|127:176|87:182,1,82.5000031471254,2|0,2:0|2:0,0:0:0:0:
122,264,63587,6,0,L|284:292,1,165.000006294251,2|2,1:2|2:0,2:0:0:0:
419,384,64037,2,0,B|357:350|357:350|380:258,1,165.000006294251,2|2,2:0|2:0,2:0:0:0:
420,164,64487,2,0,P|382:179|342:172,1,82.5000031471254,2|2,2:0|2:0,2:0:0:0:
266,213,64787,6,0,L|252:36,1,165.000006294251,2|2,1:2|2:0,2:0:0:0:
407,0,65387,2,0,L|420:164,1,165.000006294251,10|2,1:2|2:0,2:0:0:0:
333,271,65987,6,0,B|221:246|221:246|300:393,1,263.99999194336,6|10,1:2|1:2,2:0:0:0:
405,227,66887,6,0,P|406:194|420:164,1,65.9999979858399,0|0,0:0|2:0,0:0:0:0:
279,303,67187,6,0,P|248:290|215:288,1,65.9999979858399,2|0,1:2|2:0,2:0:0:0:
129,302,67487,2,0,P|141:271|143:238,1,65.9999979858399,2|0,2:0|2:0,2:0:0:0:
131,148,67787,2,0,P|161:160|194:162,1,65.9999979858399,10|0,1:2|2:0,2:0:0:0:
278,146,68087,2,0,L|267:211,1,65.9999979858399,2|0,2:0|2:0,2:0:0:0:
348,258,68387,6,0,L|372:126,1,131.99999597168,2|0,1:2|0:0,2:0:0:0:
473,65,68837,1,0,2:0:0:0:
453,59,68987,2,0,L|321:35,1,131.99999597168,10|0,1:2|0:0,2:0:0:0:
238,0,69437,1,0,2:0:0:0:
243,20,69587,6,0,L|255:86,1,65.9999979858399,2|0,1:2|2:0,2:0:0:0:
301,155,69887,2,0,L|235:167,1,65.9999979858399,2|0,2:0|2:0,2:0:0:0:
164,214,70187,2,0,P|163:182|152:150,1,65.9999979858399,10|0,1:2|2:0,2:0:0:0:
162,62,70487,2,0,P|131:73|98:75,1,65.9999979858399,2|0,2:0|2:0,2:0:0:0:
31,193,70787,6,0,B|105:164|140:241|140:241|171:311|253:280,1,263.99999194336,2|10,1:2|1:2,2:0:0:0:
246,282,71687,5,0,0:0:0:0:
252,305,71837,1,0,2:0:0:0:
257,328,71987,2,0,L|323:340,1,65.9999979858399,2|0,1:2|2:0,2:0:0:0:
397,376,72287,2,0,L|408:311,1,65.9999979858399,2|0,2:0|2:0,2:0:0:0:
457,235,72587,2,0,P|424:235|394:225,1,65.9999979858399,10|0,1:2|2:0,2:0:0:0:
313,190,72887,2,0,P|315:223|305:255,1,65.9999979858399,2|0,2:0|2:0,2:0:0:0:
440,154,73187,6,0,L|460:23,1,131.99999597168,2|2,1:2|2:0,2:0:0:0:
371,63,73637,1,2,2:0:0:0:
368,37,73787,2,0,B|329:1|329:1|251:14,1,131.99999597168,10|2,1:2|2:0,2:0:0:0:
112,73,74387,6,0,B|151:109|151:109|231:94,1,131.99999597168,2|2,1:2|2:0,2:0:0:0:
312,65,74837,1,2,2:0:0:0:
322,90,74987,2,0,P|306:118|304:151,1,65.9999979858399,10|2,1:2|2:0,2:0:0:0:
386,155,75287,1,2,2:0:0:0:
386,155,75587,6,0,L|404:312,1,131.99999597168,2|2,1:2|2:0,2:0:0:0:
364,370,76037,1,2,2:0:0:0:
354,355,76187,2,0,B|315:319|315:319|235:334,1,131.99999597168,10|2,1:2|2:0,2:0:0:0:
169,372,76637,1,2,2:0:0:0:
153,371,76787,2,0,L|67:362,1,65.9999979858399,2|0,1:2|2:0,2:0:0:0:
4,384,77087,2,0,P|14:353|10:318,1,65.9999979858399,2|0,2:0|2:0,2:0:0:0:
80,284,77387,2,0,L|93:152,1,131.99999597168,10|2,1:2|2:0,2:0:0:0:
0,54,77987,6,0,B|39:90|39:90|116:75,1,131.99999597168,2|2,1:2|2:0,2:0:0:0:
208,11,78437,1,2,2:0:0:0:
206,38,78587,2,0,L|192:169,1,131.99999597168,10|2,1:2|2:0,2:0:0:0:
139,258,79037,1,2,2:0:0:0:
158,252,79187,2,0,L|245:237,1,65.9999979858399,2|0,1:2|0:0,2:0:0:0:
333,158,79487,2,0,L|267:169,1,65.9999979858399,2|0,2:0|0:0,0:0:0:0:
310,241,79787,2,0,L|296:372,1,131.99999597168,10|2,1:2|2:0,2:0:0:0:
417,234,80387,6,0,L|431:103,1,131.99999597168,2|2,1:2|2:0,2:0:0:0:
512,42,80837,1,2,2:0:0:0:
492,37,80987,2,0,P|461:25|436:3,1,65.9999979858399,10|0,1:2|2:0,2:0:0:0:
382,63,81287,2,0,L|316:70,1,65.9999979858399,2|0,2:0|2:0,2:0:0:0:
241,0,81587,2,0,L|227:131,1,131.99999597168,2|2,1:2|2:0,2:0:0:0:
155,224,82037,1,0,0:0:0:0:
178,212,82187,2,0,P|210:209|242:220,1,65.9999979858399,10|0,1:2|0:0,2:0:0:0:
364,164,82487,2,0,P|331:166|299:155,1,65.9999979858399,2|0,2:0|0:0,0:0:0:0:
241,219,82787,6,0,L|229:328,1,110,4|10,1:2|2:3,2:0:0:0:
317,295,83237,1,8,2:3:0:0:
317,295,83387,2,0,L|381:302,1,55,10|0,1:3|0:0,2:0:0:0:
454,246,83687,2,0,L|448:300,1,55,10|0,2:3|0:0,0:0:0:0:
512,384,83987,6,0,L|402:372,1,110,6|6,1:3|2:3,2:0:0:0:
317,295,84587,2,0,L|207:306,1,110,2|2,1:2|2:0,2:0:0:0:
116,358,85187,6,0,L|127:248,1,110,4|10,1:3|2:3,2:0:0:0:
190,199,85637,1,8,2:3:0:0:
189,199,85787,2,0,P|189:171|180:145,1,55,10|0,1:3|0:0,2:0:0:0:
125,91,86087,2,0,P|125:63|134:37,1,55,10|0,2:3|0:0,0:0:0:0:
215,52,86387,6,0,L|324:71,1,110,6|6,1:3|2:3,2:0:0:0:
278,255,86987,2,0,L|259:146,1,110,2|2,1:2|2:0,2:0:0:0:
345,300,87437,1,2,2:0:0:0:
281,352,87587,2,0,P|235:322|180:319,1,110,4|10,1:3|2:3,2:0:0:0:
123,375,88037,5,10,2:3:0:0:
123,375,88187,2,0,L|60:384,1,55,10|10,1:3|2:3,2:0:0:0:
91,302,88487,2,0,L|82:239,1,55,10|10,2:3|2:3,2:0:0:0:
166,267,88787,2,0,L|220:259,1,55,6|2,1:3|2:0,2:0:0:0:
181,185,89087,2,0,L|173:130,1,55,6|2,2:3|2:0,2:0:0:0:
99,164,89387,2,0,L|44:171,1,55,2|2,1:2|2:0,2:0:0:0:
65,86,89687,2,0,L|57:31,1,55,2|0,2:0|2:0,2:0:0:0:
143,49,89987,5,4,1:3:0:0:
57,31,90287,5,8,2:3:0:0:
57,31,90437,1,10,2:3:0:0:
57,31,90587,2,0,L|65:86,1,55,10|10,1:3|2:3,2:0:0:0:
44,171,90887,2,0,L|99:164,1,55,10|10,2:3|2:3,2:0:0:0:
173,130,91188,2,0,L|181:185,1,55,6|2,1:3|2:0,2:0:0:0:
220,259,91488,2,0,L|166:267,1,55,6|2,2:3|2:0,2:0:0:0:
83,247,91788,2,0,L|91:302,1,55,2|2,1:2|2:0,2:0:0:0:
68,382,92088,2,0,L|123:375,1,55,2|2,2:0|2:0,2:0:0:0:
206,340,92387,6,0,P|259:345|298:383,1,110,4|10,1:3|2:3,2:0:0:0:
304,273,92837,1,8,2:3:0:0:
304,273,92987,2,0,P|341:234|347:180,1,110,10|10,1:3|2:3,2:0:0:0:
340,75,93437,1,8,2:3:0:0:
340,75,93587,2,0,P|378:112|432:118,1,110,6|6,1:3|2:3,2:0:0:0:
486,64,94037,1,0,0:0:0:0:
486,64,94187,2,0,L|483:2,1,55,2|0,1:2|0:0,2:0:0:0:
432,118,94487,2,0,L|434:172,1,55,2|0,2:0|0:0,0:0:0:0:
501,222,94787,6,0,L|506:332,1,110,4|10,1:3|2:3,2:0:0:0:
429,364,95237,1,8,2:3:0:0:
429,364,95387,2,0,P|372:355|323:378,1,110,10|10,1:3|2:3,2:0:0:0:
357,277,95837,1,8,2:3:0:0:
356,277,95987,2,0,P|364:220|341:171,1,110,14|14,1:3|2:3,2:0:0:0:
362,85,96437,5,0,0:0:0:0:
362,85,96587,2,0,P|337:95|305:94,1,55,10|0,1:3|0:0,2:0:0:0:
257,159,96887,2,0,P|232:149|200:150,1,55,10|10,2:3|2:3,0:0:0:0:
93,57,97187,6,0,L|113:220,1,142.99999345398,6|2,1:2|2:0,2:0:0:0:
117,287,97637,1,2,2:0:0:0:
41,259,97787,2,0,P|73:272|98:298,1,71.4999967269899,10|2,1:2|2:0,2:0:0:0:
149,383,98087,2,0,P|162:350|188:325,1,71.4999967269899,2|2,2:0|2:0,2:0:0:0:
177,244,98387,6,0,L|258:254,1,71.4999967269899,2|2,1:2|2:0,2:0:0:0:
346,249,98687,2,0,P|320:224|306:191,1,71.4999967269899,2|2,2:0|2:0,2:0:0:0:
229,170,98987,2,0,L|239:88,1,71.4999967269899,10|2,1:2|2:0,2:0:0:0:
207,14,99287,2,0,L|277:22,1,71.4999967269899,2|0,2:0|0:0,0:0:0:0:
398,2,99587,6,0,B|352:41|352:41|374:127,1,142.99999345398,2|2,1:2|2:0,2:0:0:0:
453,99,100037,1,2,2:0:0:0:
435,178,100187,2,0,P|468:189|492:215,1,71.4999967269899,10|2,1:2|2:0,2:0:0:0:
418,258,100487,2,0,P|391:281|380:315,1,71.4999967269899,2|2,2:0|2:0,2:0:0:0:
358,205,100787,2,0,L|287:190,1,71.4999967269899,2|2,1:2|2:0,2:0:0:0:
201,212,101087,2,0,P|215:178|215:141,1,71.4999967269899,2|2,2:0|2:0,2:0:0:0:
273,65,101387,2,0,P|237:64|204:50,1,71.4999967269899,10|2,1:2|2:0,2:0:0:0:
136,0,101687,2,0,L|121:70,1,71.4999967269899,2|0,2:0|0:0,2:0:0:0:
0,126,101987,6,0,L|140:156,1,142.99999345398,2|2,1:2|2:0,2:0:0:0:
223,143,102437,1,2,2:0:0:0:
288,190,102587,2,0,L|428:160,1,142.99999345398,10|2,1:2|2:0,2:0:0:0:
427,160,103187,6,0,P|414:193|413:228,1,71.4999967269899,2|0,1:2|0:0,2:0:0:0:
437,319,103487,2,0,P|403:306|368:305,1,71.4999967269899,2|2,2:0|2:0,0:0:0:0:
329,237,103787,2,0,L|189:267,1,142.99999345398,10|2,1:2|2:0,2:0:0:0:
189,266,104387,6,0,B|245:298|245:298|263:374,1,142.99999345398,2|2,1:2|2:0,2:0:0:0:
329,293,104837,1,2,2:0:0:0:
372,372,104987,2,0,P|407:370|440:384,1,71.4999967269899,10|0,1:2|2:0,2:0:0:0:
425,294,105287,2,0,L|442:215,1,71.4999967269899,2|2,2:0|2:0,2:0:0:0:
512,152,105587,6,0,P|446:126|424:35,1,142.99999345398,2|10,1:2|2:0,2:0:0:0:
419,62,106187,6,0,P|386:76|350:77,1,71.4999967269899,10|0,1:2|0:0,2:0:0:0:
254,44,106487,2,0,P|267:76|268:112,1,71.4999967269899,10|0,2:0|0:0,0:0:0:0:
190,184,106787,6,0,L|369:208,1,142.99999345398,6|10,1:2|2:0,2:0:0:0:
287,354,107387,2,0,L|108:330,1,142.99999345398,10|10,1:2|2:0,2:0:0:0:
55,352,107837,1,0,0:0:0:0:
55,352,107987,2,0,P|66:322|50:265,1,71.4999967269899,6|0,1:2|2:0,2:0:0:0:
36,197,108287,2,0,P|65:208|122:192,1,71.4999967269899,6|0,2:0|2:0,2:0:0:0:
258,72,108587,6,0,B|212:94|212:94|189:183,1,142.99999345398,10|2,1:2|2:0,2:0:0:0:
270,381,109187,6,0,P|299:362|335:359,1,71.4999967269899,6|0,1:2|2:0,2:0:0:0:
427,368,109487,2,8,P|408:338|405:302,1,71.4999967269899,10|8,2:0|2:3,2:0:0:0:
424,222,109787,2,0,L|353:235,1,71.4999967269899,10|8,1:2|2:3,2:0:0:0:
262,222,110087,2,0,P|280:251|283:287,1,71.4999967269899,10|8,2:0|2:3,2:0:0:0:
192,273,110387,6,0,L|50:253,1,142.99999345398,6|6,1:2|2:0,2:0:0:0:
247,136,110987,2,0,L|388:155,1,142.99999345398,10|2,1:2|2:0,2:0:0:0:
512,199,111587,6,0,B|445:182|426:243|426:243|404:300|331:277,1,214.49999018097,6|8,1:2|2:3,2:0:0:0:
280,224,112187,6,0,P|245:223|211:205,1,71.4999967269899,10|8,1:2|2:3,2:0:0:0:
195,291,112487,2,0,P|211:322|212:358,1,71.4999967269899,10|8,2:0|2:3,2:0:0:0:
299,360,112787,6,0,P|334:361|368:379,1,71.4999967269899,6|0,1:2|0:0,2:0:0:0:
439,337,113087,2,0,P|440:301|458:268,1,71.4999967269899,6|0,2:0|0:0,0:0:0:0:
412,187,113387,2,0,P|376:185|343:168,1,71.4999967269899,10|0,1:2|0:0,2:0:0:0:
272,210,113687,2,0,P|270:245|253:279,1,71.4999967269899,2|0,2:0|0:0,0:0:0:0:
176,370,113987,6,0,L|343:350,2,165,6|2|2,2:2|2:0|2:0,2:0:0:0:
101,271,115187,5,2,2:0:0:0:
282,379,116387,6,0,B|311:396|340:378|348:363|349:350|349:350|395:67|395:67|399:25|436:14|436:14|450:44|428:104|389:118|384:108|292:96|239:146|196:280|286:330|292:371|601:351|444:141|374:202,1,1056,4|4,2:0|2:0,2:0:0:0:
232,304,124787,5,4,2:0:0:0:
231,304,125987,6,0,P|245:251|228:200,1,110,6|8,2:3|2:3,2:0:0:0:
182,119,126437,1,8,2:3:0:0:
182,119,126587,2,0,L|247:115,1,55,10|8,2:3|2:3,2:0:0:0:
312,73,126887,2,0,L|316:138,1,55,8|10,2:3|2:3,2:0:0:0:
310,214,127187,2,0,P|335:203|362:204,1,55,6|0,2:3|0:0,0:0:0:0:
443,157,127487,2,0,P|441:184|452:209,1,55,6|0,2:3|0:0,0:0:0:0:
401,275,127787,6,0,L|392:384,1,110
275,298,128387,6,0,L|165:289,1,110,6|10,2:3|2:3,2:0:0:0:
86,293,128837,1,8,2:3:0:0:
77,299,128912,1,8,2:3:0:0:
68,305,128987,2,0,L|76:224,1,55,10|8,2:3|2:3,2:0:0:0:
54,172,129287,2,0,L|135:180,1,55,10|10,2:3|2:3,2:0:0:0:
180,212,129587,5,4,2:3:0:0:
236,116,129887,1,14,2:3:0:0:
332,172,130187,2,0,P|349:205|350:249,1,55,10|10,2:3|2:3,2:0:0:0:
276,268,130487,2,0,P|243:285|199:286,1,55,10|8,2:3|2:3,2:0:0:0:
355,306,130787,6,0,L|464:315,1,110,4|10,2:3|2:3,0:0:0:0:
492,237,131237,1,8,2:3:0:0:
501,242,131312,1,8,2:3:0:0:
510,246,131387,2,0,P|502:223|502:187,1,55,10|8,2:3|2:3,2:0:0:0:
512,104,131687,2,0,P|489:112|453:112,1,55,8|10,2:3|2:3,2:0:0:0:
417,181,131987,1,6,2:3:0:0:
316,93,132287,1,6,2:3:0:0:
316,93,133187,6,0,L|186:78,1,110,6|8,2:3|2:3,2:0:0:0:
145,33,133637,1,8,2:3:0:0:
135,38,133712,1,8,2:3:0:0:
126,44,133787,2,0,P|128:71|123:98,1,55,8|8,2:3|2:3,2:0:0:0:
138,181,134087,2,0,P|111:175|83:178,1,55,10|8,2:3|2:3,0:0:0:0:
43,110,134387,1,6,2:3:0:0:
219,180,134687,1,14,2:3:0:0:
96,309,134987,6,0,P|93:281|98:254,1,55,14|10,2:3|2:3,0:0:0:0:
83,178,135287,2,0,P|109:183|137:180,1,55,10|8,2:3|2:3,0:0:0:0:
178,251,135587,5,2,2:0:0:0:
213,224,136787,5,2,2:0:0:0:
247,196,137987,5,2,2:0:0:0:
284,173,139187,5,2,2:0:0:0:
318,145,140387,5,2,2:0:0:0:
349,113,141587,5,2,2:0:0:0:
367,101,142187,5,2,2:0:0:0:
408,197,142787,6,0,P|376:249|391:313,1,110,6|2,1:2|2:0,2:0:0:0:
336,373,143237,1,2,2:0:0:0:
324,353,143387,2,0,P|271:321|207:336,1,110,6|2,1:2|2:0,2:0:0:0:
168,269,143837,1,2,2:0:0:0:
183,253,143987,2,0,L|193:181,1,55,6|2,1:2|2:0,2:0:0:0:
241,127,144287,2,0,L|169:117,1,55,2|2,2:0|2:0,2:0:0:0:
106,136,144587,2,0,L|116:64,1,55,6|2,1:2|2:0,2:0:0:0:
156,10,144887,2,0,L|84:0,1,55,2|2,2:0|2:0,2:0:0:0:
30,57,145187,6,0,L|14:165,1,110,6|2,1:2|2:0,2:0:0:0:
65,227,145637,1,2,2:0:0:0:
60,254,145787,2,0,L|44:362,1,110,6|2,1:2|2:0,2:0:0:0:
130,333,146237,1,2,2:0:0:0:
162,340,146387,2,0,L|270:355,1,110,6|2,1:2|2:0,2:0:0:0:
442,342,146837,1,2,2:0:0:0:
363,365,146987,2,0,P|363:337|369:310,1,55,6|0,1:2|2:0,2:0:0:0:
406,233,147287,2,0,P|378:232|351:226,1,55,2|2,2:0|2:0,2:0:0:0:
270,237,147587,6,0,P|275:210|276:182,1,55,6|2,1:2|2:0,2:0:0:0:
266,95,147887,2,8,P|279:101|293:102,2,27.5,8|8|10,2:3|2:3|2:3,2:3:0:0:
192,122,148187,5,10,2:3:0:0:
186,44,148337,1,8,2:3:0:0:
115,10,148487,1,10,2:3:0:0:
117,88,148637,2,0,P|90:93|62:94,1,55,10|4,2:3|2:3,0:0:0:0:
103,173,148937,1,10,2:3:0:0:
103,173,149087,2,0,P|109:200|110:228,1,55,14|10,2:3|2:3,2:0:0:0:
181,264,149387,5,10,1:3:0:0:
256,128,149687,5,2,1:2:0:0:
407,209,149987,5,6,1:2:0:0:
425,231,150137,2,0,P|423:278|438:322,1,88,2|2,2:0|2:0,2:0:0:0:
371,365,150437,1,2,2:0:0:0:
325,301,150587,2,0,L|150:326,1,176,10|2,1:2|2:0,2:0:0:0:
67,363,151037,2,0,P|69:316|54:272,1,88,2|2,2:0|1:2,2:0:0:0:
31,99,151337,1,2,2:0:0:0:
0,191,151487,2,0,P|47:193|91:178,1,88,2|2,2:0|2:0,2:0:0:0:
175,151,151787,2,0,L|150:326,1,176,10|2,1:2|2:0,2:0:0:0:
355,353,152387,5,6,1:2:0:0:
330,329,152537,2,0,P|287:327|249:347,1,88,2|2,2:0|2:0,2:0:0:0:
165,335,152837,1,2,2:0:0:0:
214,268,152987,2,0,L|227:93,1,176,10|2,1:2|2:0,2:0:0:0:
197,15,153437,2,0,P|236:36|279:33,1,88,2|2,2:0|1:2,2:0:0:0:
417,62,153737,1,2,2:0:0:0:
352,2,153887,2,0,P|332:41|335:84,1,88,2|2,2:0|2:0,2:0:0:0:
279,138,154187,2,0,P|323:136|361:156,1,88,10|2,1:2|2:0,2:0:0:0:
304,215,154487,2,0,P|283:253|285:297,1,88,2|0,2:0|0:0,0:0:0:0:
191,265,154787,5,6,1:2:0:0:
144,171,154937,2,0,B|65:149|65:149|105:258,1,176,2|2,2:0|2:0,2:0:0:0:
54,321,155387,2,0,B|100:297|138:329|126:350|168:382|215:355,1,176,10|2,1:2|2:0,2:0:0:0:
291,345,155837,2,0,B|323:256|323:256|244:278,1,176,2|2,2:0|2:0,2:0:0:0:
265,184,156287,2,0,P|263:144|248:98,1,88,2|2,2:0|2:0,2:0:0:0:
276,5,156587,2,0,P|234:20|191:23,1,88,10|0,1:2|2:0,2:0:0:0:
330,71,156887,1,2,2:0:0:0:
330,71,157187,6,0,B|453:39|453:39|380:173,1,264,6|0,1:2|2:0,2:0:0:0:
433,229,157787,2,0,P|403:261|389:302,1,88,10|0,1:2|0:0,2:0:0:0:
331,220,158087,1,0,0:0:0:0:
170,340,158387,6,0,B|285:366|285:366|212:232,1,264,2|0,1:2|2:0,2:0:0:0:
255,160,158987,2,0,P|225:127|211:86,1,88,10|0,1:2|0:0,2:0:0:0:
161,180,159287,1,0,0:0:0:0:
310,230,159587,6,0,L|484:254,1,176,6|2,1:2|2:0,2:0:0:0:
202,230,160187,2,0,L|27:254,1,176,10|2,1:2|2:0,2:0:0:0:
0,184,160637,1,0,2:0:0:0:
73,156,160787,6,0,P|95:119|100:76,1,88,2|0,1:2|2:0,2:0:0:0:
78,4,161087,2,0,P|115:26|158:31,1,88,2|0,2:0|2:0,2:0:0:0:
178,110,161387,2,0,L|375:90,1,176,10|2,1:2|2:0,2:0:0:0:
439,151,161837,1,0,0:0:0:0:
410,28,161987,6,0,B|440:-2|484:2|484:2|440:26|434:79,1,176,6|2,1:2|2:0,2:0:0:0:
283,227,162587,2,0,B|313:257|357:253|357:253|313:229|307:176,1,176,10|2,1:2|2:0,2:0:0:0:
318,90,163037,1,0,2:0:0:0:
410,72,163187,6,0,P|392:111|393:155,1,88,2|0,1:2|2:0,2:0:0:0:
318,90,163487,2,0,P|278:72|234:73,1,88,2|0,2:0|2:0,2:0:0:0:
140,106,163787,2,0,P|158:66|157:23,1,88,10|0,1:2|2:0,2:0:0:0:
77,47,164087,1,2,2:0:0:0:
215,148,164387,6,0,L|229:234,1,88,6|0,1:2|2:0,2:0:0:0:
200,305,164687,2,0,P|241:289|285:293,1,88,2|0,2:0|2:0,2:0:0:0:
255,372,164987,1,10,1:2:0:0:
313,210,165287,6,0,L|486:241,1,176,2|2,2:0|1:2,2:0:0:0:
458,156,165737,1,0,2:0:0:0:
486,241,165887,6,0,P|455:272|439:312,1,88,2|0,2:0|2:0,2:0:0:0:
441,384,166187,2,0,P|409:353|369:337,1,88,10|0,1:2|2:0,2:0:0:0:
290,336,166487,2,0,P|320:304|336:264,1,88,2|0,2:0|0:0,2:0:0:0:
406,212,166787,5,2,1:2:0:0:
406,212,167087,6,0,L|400:113,1,88,2|0,2:0|2:0,2:0:0:0:
437,31,167387,2,0,P|394:43|351:38,1,88,10|0,1:2|2:0,2:0:0:0:
260,3,167687,2,0,P|272:45|267:88,1,88,2|0,2:0|0:0,2:0:0:0:
315,154,167987,5,2,1:2:0:0:
315,154,168287,6,0,P|302:196|307:239,1,88,2|0,2:0|2:0,2:0:0:0:
262,320,168587,2,0,B|145:343|145:343|228:203,1,264,14|2,1:3|2:0,2:0:0:0:
239,102,169187,5,6,1:2:0:0:
237,121,169337,2,0,P|198:139|155:136,1,88,2|2,2:0|2:0,2:0:0:0:
10,90,169637,1,2,2:0:0:0:
61,118,169787,2,0,P|80:157|77:201,1,88,10|2,1:2|2:0,2:0:0:0:
14,278,170087,1,2,2:0:0:0:
90,352,170237,2,0,B|102:293|102:293|153:272|153:272|167:214,1,176,2|2,2:0|2:0,2:0:0:0:
208,352,170687,2,0,P|249:337|292:341,1,88,2|2,2:0|2:0,0:0:0:0:
381,355,170987,2,0,P|366:313|370:270,1,88,10|2,1:2|2:0,0:0:0:0:
319,204,171287,1,2,2:0:0:0:
319,204,171587,5,2,1:2:0:0:
264,265,171737,2,0,B|218:275|181:242|193:223|159:188|110:202,1,176,2|2,2:0|2:0,2:0:0:0:
51,257,172187,2,0,B|-16:273|-16:273|22:172,1,176,10|2,1:2|2:0,2:0:0:0:
0,77,172637,2,0,P|84:74|123:-2,1,176,2|2,2:0|2:0,2:0:0:0:
184,78,173087,2,0,P|227:76|264:54,1,88,2|2,2:0|2:0,0:0:0:0:
357,1,173387,6,0,B|344:60|344:60|293:81|293:81|280:139,1,176,10|2,1:2|2:0,2:0:0:0:
279,139,173987,5,2,1:2:0:0:
231,240,174137,2,0,P|289:177|374:175,1,176,2|2,2:0|2:0,2:0:0:0:
433,234,174587,2,0,P|416:274|414:318,1,88,10|0,1:2|0:0,2:0:0:0:
374,175,174887,5,2,2:0:0:0:
374,175,175037,1,2,2:0:0:0:
318,116,175187,2,0,P|301:75|299:31,1,88,2|0,1:2|2:0,2:0:0:0:
222,87,175487,2,0,P|181:103|137:105,1,88,2|0,2:0|2:0,2:0:0:0:
198,175,175787,2,0,P|214:215|216:259,1,88,10|0,1:2|2:0,2:0:0:0:
298,203,176087,2,0,P|338:186|382:184,1,88,2|0,2:0|0:0,0:0:0:0:
422,94,176387,6,0,L|403:269,1,176,2|2,1:2|2:0,2:0:0:0:
512,337,176837,1,0,0:0:0:0:
502,327,176987,6,0,B|460:309|418:346|431:362|400:400|348:381,1,176,10|0,1:2|0:0,2:0:0:0:
253,363,177437,1,0,2:0:0:0:
174,377,177587,6,0,B|107:243|107:243|219:264,1,264,2|0,1:2|2:0,2:0:0:0:
325,245,178187,2,0,P|301:285|297:333,1,88,14|0,1:2|0:0,2:0:0:0:
338,159,178487,2,0,P|314:119|310:71,1,88,0|0,0:0|2:0,0:0:0:0:
403,42,178787,6,0,L|228:20,1,176,6|2,1:2|2:0,2:0:0:0:
79,93,179387,2,0,L|253:114,1,176,10|2,1:2|2:0,2:0:0:0:
291,219,179837,1,0,2:0:0:0:
281,240,179987,6,0,L|193:229,1,88,2|0,1:2|0:0,2:0:0:0:
99,178,180287,2,0,P|111:219|97:260,1,88,2|0,2:0|0:0,0:0:0:0:
22,299,180587,2,0,L|196:320,1,176,10|2,1:2|2:0,2:0:0:0:
271,369,181037,2,0,P|257:328|269:286,1,88,2|2,2:0|1:2,2:0:0:0:
341,333,181337,6,0,L|358:142,1,176,2|0,2:0|2:0,0:0:0:0:
387,86,181787,2,0,P|346:101|302:98,1,88,10|0,1:2|2:0,2:0:0:0:
225,107,182087,2,0,P|259:134|277:173,1,88,2|0,2:0|0:0,2:0:0:0:
367,197,182387,6,0,B|322:182|286:223|286:223|256:260|209:243,1,176,2|2,1:2|2:0,2:0:0:0:
47,139,182987,6,0,B|12:51|12:51|91:68,1,176,10|2,1:2|2:0,2:0:0:0:
146,9,183437,2,0,P|171:43|172:87,1,88,2|6,2:0|1:2,2:0:0:0:
128,199,183737,1,2,2:0:0:0:
151,172,183887,2,0,P|185:146|229:145,1,88,2|0,2:0|2:0,2:0:0:0:
256,62,184187,1,10,1:2:0:0:
256,62,184487,6,0,P|290:87|334:88,1,88,2|0,2:0|2:0,2:0:0:0:
373,13,184787,6,0,L|356:188,1,176,2|2,1:2|2:0,2:0:0:0:
392,266,185237,1,0,0:0:0:0:
469,223,185387,2,0,L|485:47,1,176,10|2,1:2|2:0,2:0:0:0:
329,165,185987,6,0,B|220:135|220:135|287:271,1,264,2|2,1:2|2:0,2:0:0:0:
346,373,186587,2,0,P|305:356|261:353,1,88,10|0,1:2|2:0,2:0:0:0:
189,383,186887,2,0,P|205:342|208:298,1,88,2|0,2:0|2:0,2:0:0:0:
287,271,187187,6,0,L|112:250,1,176,2|2,1:2|2:0,2:0:0:0:
163,101,187637,1,0,2:0:0:0:
224,165,187787,2,0,L|398:185,1,176,14|2,1:3|2:0,2:0:0:0:
484,108,188237,1,0,2:0:0:0:
405,52,188387,6,0,B|417:111|417:111|468:132|468:132|482:190,1,176,6|10,1:2|2:0,2:0:0:0:
311,141,188987,6,0,B|325:199|325:199|376:220|376:220|388:279,1,176,10|10,1:2|2:0,2:0:0:0:
311,314,189437,1,10,2:3:0:0:
364,378,189587,2,0,P|406:366|449:371,1,88,6|2,1:2|2:0,2:0:0:0:
494,300,189887,2,0,P|482:257|487:214,1,88,6|2,2:0|2:0,2:0:0:0:
388,279,190187,2,0,L|213:303,1,176,10|2,1:2|2:0,2:0:0:0:
161,372,190637,5,2,2:0:0:0:
143,374,190712,1,2,2:0:0:0:
125,377,190787,1,6,1:2:0:0:
226,324,191087,6,0,P|221:279|238:238,1,88,10|8,2:0|2:3,2:0:0:0:
295,163,191387,2,0,P|250:168|209:150,1,88,10|0,1:2|0:0,2:0:0:0:
122,198,191687,1,10,2:0:0:0:
132,187,191837,2,0,P|147:146|142:103,1,88,10|6,2:3|1:2,0:0:0:0:
99,13,192137,1,2,2:0:0:0:
113,26,192287,2,0,P|153:41|196:36,1,88,14|2,2:0|2:0,2:0:0:0:
268,90,192587,2,0,L|275:-17,1,88,10|10,1:2|2:3,2:0:0:0:
348,49,192887,2,0,P|388:64|431:59,1,88,10|0,2:0|0:0,0:0:0:0:
482,127,193187,5,6,1:2:0:0:
482,127,193487,6,0,L|476:214,1,88,10|0,2:0|0:0,2:0:0:0:
512,299,193787,2,0,B|467:284|428:311|435:337|401:362|354:345,1,176,10|10,1:2|2:0,2:0:0:0:
325,275,194237,1,8,2:3:0:0:
275,384,194387,6,0,P|264:338|237:302,1,88,6|2,1:2|2:0,2:0:0:0:
203,234,194687,2,0,P|247:247|292:242,1,88,14|10,2:0|2:3,2:0:0:0:
365,269,194987,2,0,L|385:59,1,176,10|10,1:2|2:0,2:0:0:0:
247,152,195437,6,0,L|291:160,2,44,10|2|6,2:3|2:0|1:2,0:0:0:0:
306,82,195737,2,0,L|219:67,1,88,2|10,2:0|2:0,2:0:0:0:
137,0,196037,6,0,P|105:76|22:72,1,176,10|8,2:3|2:3,2:0:0:0:
93,165,196487,2,0,L|76:266,1,88,10|8,2:0|2:3,2:0:0:0:
16,345,196787,6,0,B|70:332|70:332|91:281|91:281|160:265,1,176,6|14,1:2|2:0,2:0:0:0:
220,308,197237,1,2,2:0:0:0:
248,328,197387,2,0,P|291:332|329:312,1,88,10|10,1:2|2:3,2:0:0:0:
388,253,197687,2,0,P|383:296|403:334,1,88,10|8,2:0|2:3,2:0:0:0:
333,382,197987,5,6,1:2:0:0:
298,237,198287,6,0,L|289:149,1,88,10|8,2:0|2:3,2:0:0:0:
245,30,198587,2,0,B|233:89|233:89|182:110|182:110|168:168,1,176,10|10,1:2|2:0,2:0:0:0:
85,135,199037,1,10,2:3:0:0:
76,217,199187,2,0,P|116:233|150:261,1,88,6|2,1:2|2:0,2:0:0:0:
202,344,199487,2,0,P|218:303|246:269,1,88,14|10,2:0|2:3,2:0:0:0:
388,260,199787,2,0,B|329:248|329:248|308:197|308:197|250:183,1,176,10|10,1:2|2:0,2:0:0:0:
395,175,200387,5,6,1:2:0:0:
395,175,200687,6,8,P|416:171|434:159,3,44,10|8|8|8,2:2|2:0|2:3|2:3,2:0:0:0:
455,132,200987,2,0,L|474:306,1,176,10|10,1:2|2:0,2:0:0:0:
467,384,201437,1,10,2:3:0:0:
394,351,201587,2,0,P|383:308|391:266,1,88,6|2,1:2|2:0,2:0:0:0:
307,315,201887,2,0,P|264:306|222:317,1,88,14|2,2:0|2:0,2:0:0:0:
309,224,202187,2,0,L|289:49,1,176,10|10,1:2|2:0,0:0:0:0:
223,229,202787,5,4,2:0:0:0:
256,192,202937,12,0,206987,2:0:0:0:
