osu file format v14

[General]
AudioFilename: audio.mp3
AudioLeadIn: 0
PreviewTime: 49037
Countdown: 0
SampleSet: Soft
StackLeniency: 0.2
Mode: 0
LetterboxInBreaks: 0
WidescreenStoryboard: 1

[Editor]
DistanceSpacing: 0.2
BeatDivisor: 4
GridSize: 8
TimelineZoom: 2.999999

[Metadata]
Title:Love Letter
TitleUnicode:ラブレター
Artist:YOASOBI
ArtistUnicode:YOASOBI
Creator:ohm002
Version:Please accept my overflowing emotions.
Source:
Tags:japanese pop j-pop jpop orchestra brass Raburetā rabu reta ikura ikuta lilas 幾田 りら Ayase Aakki rira the book 2 2nd ep novel into music 夜遊び 小説を音楽にする
BeatmapID:3324715
BeatmapSetID:1585863

[Difficulty]
HPDrainRate:5
CircleSize:4
OverallDifficulty:8
ApproachRate:9
SliderMultiplier:1.9
SliderTickRate:1

[Events]
//Background and Video events
0,0,"school.jpg",0,0
Video,-150,"Yoasobi.mp4"
//Break Periods
//Storyboard Layer 0 (Background)
//Storyboard Layer 1 (Fail)
//Storyboard Layer 2 (Pass)
//Storyboard Layer 3 (Foreground)
//Storyboard Layer 4 (Overlay)
//Storyboard Sound Samples

[TimingPoints]
-8413,600,4,2,1,40,1,0
5987,-100,4,2,2,20,0,0
6287,-100,4,2,1,40,0,0
10787,-83.3333333333333,4,2,2,60,0,0
11086,-83.3333333333333,4,2,3,60,0,0
11387,-83.3333333333333,4,2,2,60,0,0
11686,-83.3333333333333,4,2,3,60,0,0
11837,-83.3333333333333,4,2,4,60,0,0
12136,-83.3333333333333,4,2,1,60,0,0
12287,-83.3333333333333,4,2,4,60,0,0
12436,-83.3333333333333,4,2,1,60,0,0
12587,-83.3333333333333,4,2,2,60,0,0
12736,-83.3333333333333,4,2,1,60,0,0
12887,-83.3333333333333,4,2,4,60,0,0
13787,-83.3333333333333,4,2,2,60,0,0
14086,-83.3333333333333,4,2,3,60,0,0
14237,-83.3333333333333,4,2,4,60,0,0
14987,-83.3333333333333,4,2,2,60,0,0
15136,-83.3333333333333,4,2,1,60,0,0
15287,-83.3333333333333,4,2,4,60,0,0
15436,-83.3333333333333,4,2,1,60,0,0
15587,-83.3333333333333,4,2,3,60,0,0
15886,-83.3333333333333,4,2,4,60,0,0
16187,-83.3333333333333,4,2,2,60,0,0
16486,-83.3333333333333,4,2,3,60,0,0
16637,-83.3333333333333,4,2,1,60,0,0
16787,-83.3333333333333,4,2,2,60,0,0
16936,-83.3333333333333,4,2,1,60,0,0
17087,-83.3333333333333,4,2,4,60,0,0
17387,-83.3333333333333,4,2,2,60,0,0
17536,-83.3333333333333,4,2,1,60,0,0
17687,-83.3333333333333,4,2,4,60,0,0
18587,-83.3333333333333,4,2,1,60,0,0
18886,-83.3333333333333,4,2,4,60,0,0
19787,-83.3333333333333,4,2,2,60,0,0
19937,-83.3333333333333,4,2,1,60,0,0
20087,-83.3333333333333,4,2,4,60,0,0
20236,-83.3333333333333,4,2,1,60,0,0
20387,-83.3333333333333,4,2,5,60,0,0
20836,-83.3333333333333,4,2,3,60,0,0
20987,-83.3333333333333,4,2,2,60,0,0
21287,-83.3333333333333,4,2,3,60,0,0
21887,-83.3333333333333,4,2,1,60,0,0
22187,-83.3333333333333,4,2,6,60,0,0
22787,-83.3333333333333,4,2,1,60,0,0
23236,-83.3333333333333,4,2,4,60,0,0
23387,-83.3333333333333,4,2,1,60,0,0
23687,-83.3333333333333,4,2,4,60,0,0
24587,-83.3333333333333,4,2,6,60,0,0
25486,-83.3333333333333,4,2,2,60,0,0
25637,-83.3333333333333,4,2,3,60,0,0
25787,-83.3333333333333,4,2,6,60,0,0
26086,-83.3333333333333,4,2,2,60,0,0
26387,-83.3333333333333,4,2,6,60,0,0
27587,-66.6666666666667,4,2,6,60,0,0
29987,-200,4,2,7,60,0,0
39587,-100,4,2,3,60,0,0
39887,-100,4,2,1,60,0,0
45587,-100,4,2,2,30,0,0
45887,-100,4,2,1,60,0,0
46787,-100,4,2,2,30,0,0
47087,-100,4,2,1,60,0,0
49187,-100,4,2,8,60,0,1
49337,-66.6666666666667,4,2,1,80,0,1
49487,-66.6666666666667,4,2,7,80,0,1
49637,-66.6666666666667,4,2,1,80,0,1
49787,-66.6666666666667,4,2,8,80,0,1
50087,-66.6666666666667,4,2,10,80,0,1
50237,-66.6666666666667,4,2,1,80,0,1
50687,-66.6666666666667,4,2,10,80,0,1
50837,-66.6666666666667,4,2,1,80,0,1
50987,-66.6666666666667,4,2,8,80,0,1
51287,-66.6666666666667,4,2,10,80,0,1
51587,-66.6666666666667,4,2,2,80,0,1
51737,-66.6666666666667,4,2,1,80,0,1
51887,-66.6666666666667,4,2,7,80,0,1
52037,-66.6666666666667,4,2,1,80,0,1
52187,-66.6666666666667,4,2,8,80,0,1
52487,-66.6666666666667,4,2,10,80,0,1
52637,-66.6666666666667,4,2,1,80,0,1
53087,-66.6666666666667,4,2,10,80,0,1
53237,-66.6666666666667,4,2,1,80,0,1
53387,-66.6666666666667,4,2,8,80,0,1
53687,-66.6666666666667,4,2,10,80,0,1
53987,-66.6666666666667,4,2,3,80,0,1
54137,-66.6666666666667,4,2,1,80,0,1
54587,-66.6666666666667,4,2,8,80,0,1
54887,-66.6666666666667,4,2,10,80,0,1
55187,-66.6666666666667,4,2,2,80,0,1
55487,-66.6666666666667,4,2,10,80,0,1
55787,-66.6666666666667,4,2,8,80,0,1
56087,-66.6666666666667,4,2,10,80,0,1
56387,-66.6666666666667,4,2,2,80,0,1
56687,-66.6666666666667,4,2,7,80,0,1
56987,-66.6666666666667,4,2,8,80,0,1
57287,-66.6666666666667,4,2,7,80,0,1
57587,-66.6666666666667,4,2,2,80,0,1
57887,-66.6666666666667,4,2,7,80,0,1
58187,-66.6666666666667,4,2,8,80,0,1
58487,-66.6666666666667,4,2,7,80,0,1
58787,-66.6666666666667,4,2,4,80,0,1
59087,-66.6666666666667,4,2,7,80,0,1
59387,-66.6666666666667,4,2,5,80,0,1
59687,-66.6666666666667,4,2,10,80,0,1
59987,-66.6666666666667,4,2,2,80,0,1
60287,-66.6666666666667,4,2,10,80,0,1
60587,-66.6666666666667,4,2,8,80,0,1
60887,-66.6666666666667,4,2,10,80,0,1
61187,-66.6666666666667,4,2,2,80,0,1
61487,-66.6666666666667,4,2,7,80,0,1
61787,-66.6666666666667,4,2,5,80,0,1
62087,-66.6666666666667,4,2,10,80,0,1
62387,-66.6666666666667,4,2,2,80,0,1
62687,-66.6666666666667,4,2,10,80,0,1
62987,-66.6666666666667,4,2,8,80,0,1
63287,-66.6666666666667,4,2,10,80,0,1
63587,-66.6666666666667,4,2,2,80,0,1
63887,-66.6666666666667,4,2,10,80,0,1
64037,-66.6666666666667,4,2,1,80,0,1
64187,-66.6666666666667,4,2,5,80,0,1
64337,-66.6666666666667,4,2,1,80,0,1
64487,-66.6666666666667,4,2,10,80,0,1
64637,-66.6666666666667,4,2,1,80,0,1
64787,-66.6666666666667,4,2,2,80,0,1
65087,-66.6666666666667,4,2,10,80,0,1
65387,-66.6666666666667,4,2,8,80,0,1
65687,-66.6666666666667,4,2,10,80,0,1
65837,-66.6666666666667,4,2,10,80,0,0
65987,600,4,2,8,40,1,0
65987,-66.6666666666667,4,2,8,80,0,1
66587,-66.6666666666667,4,2,5,80,0,1
67187,-66.6666666666667,4,2,2,80,0,1
67487,-66.6666666666667,4,2,10,80,0,1
67787,-66.6666666666667,4,2,8,80,0,1
68087,-66.6666666666667,4,2,10,80,0,1
68387,-66.6666666666667,4,2,2,80,0,1
68987,-66.6666666666667,4,2,5,80,0,1
69587,-66.6666666666667,4,2,2,80,0,1
69887,-66.6666666666667,4,2,10,80,0,1
70187,-66.6666666666667,4,2,8,80,0,1
70487,-66.6666666666667,4,2,10,80,0,1
70787,-66.6666666666667,4,2,2,80,0,1
71387,-66.6666666666667,4,2,5,80,0,1
71987,-66.6666666666667,4,2,2,80,0,1
72287,-66.6666666666667,4,2,10,80,0,1
72587,-66.6666666666667,4,2,8,80,0,1
72887,-66.6666666666667,4,2,10,80,0,1
73187,-66.6666666666667,4,2,2,80,0,1
73487,-66.6666666666667,4,2,10,80,0,1
73637,-66.6666666666667,4,2,1,80,0,1
73787,-66.6666666666667,4,2,8,80,0,1
74087,-66.6666666666667,4,2,10,80,0,1
74387,-66.6666666666667,4,2,3,80,0,1
74687,-66.6666666666667,4,2,10,80,0,1
74837,-66.6666666666667,4,2,1,80,0,1
74987,-66.6666666666667,4,2,8,80,0,1
75137,-66.6666666666667,4,2,1,80,0,1
75287,-66.6666666666667,4,2,10,80,0,1
75587,-66.6666666666667,4,2,3,80,0,1
75887,-66.6666666666667,4,2,10,80,0,1
76037,-66.6666666666667,4,2,1,80,0,1
76187,-66.6666666666667,4,2,8,80,0,1
76487,-66.6666666666667,4,2,10,80,0,1
76637,-66.6666666666667,4,2,1,80,0,1
76787,-66.6666666666667,4,2,2,80,0,1
77087,-66.6666666666667,4,2,10,80,0,1
77387,-66.6666666666667,4,2,8,80,0,1
77687,-66.6666666666667,4,2,10,80,0,1
77987,-66.6666666666667,4,2,3,80,0,1
78287,-66.6666666666667,4,2,10,80,0,1
78437,-66.6666666666667,4,2,1,80,0,1
78587,-66.6666666666667,4,2,8,80,0,1
78887,-66.6666666666667,4,2,10,80,0,1
79037,-66.6666666666667,4,2,1,80,0,1
79187,-66.6666666666667,4,2,2,80,0,1
79487,-66.6666666666667,4,2,10,80,0,1
79787,-66.6666666666667,4,2,8,80,0,1
80087,-66.6666666666667,4,2,10,80,0,1
80387,-66.6666666666667,4,2,3,80,0,1
80687,-66.6666666666667,4,2,10,80,0,1
80837,-66.6666666666667,4,2,1,80,0,1
80987,-66.6666666666667,4,2,8,80,0,1
81287,-66.6666666666667,4,2,10,80,0,1
81587,-66.6666666666667,4,2,2,80,0,1
81887,-66.6666666666667,4,2,10,80,0,1
82187,-66.6666666666667,4,2,8,80,0,1
82487,-66.6666666666667,4,2,10,80,0,1
82787,600,4,2,13,40,1,0
82787,-100,4,2,13,60,0,0
83087,-100,4,2,1,60,0,0
97187,-66.6666666666667,4,2,9,70,0,1
97487,-66.6666666666667,4,2,10,70,0,1
97637,-66.6666666666667,4,2,1,70,0,1
97787,-66.6666666666667,4,2,8,70,0,1
97937,-66.6666666666667,4,2,1,70,0,1
98087,-66.6666666666667,4,2,10,70,0,1
98237,-66.6666666666667,4,2,1,70,0,1
98387,-66.6666666666667,4,2,2,70,0,1
98537,-66.6666666666667,4,2,1,70,0,1
98687,-66.6666666666667,4,2,10,70,0,1
98837,-66.6666666666667,4,2,1,70,0,1
98987,-66.6666666666667,4,2,8,70,0,1
99137,-66.6666666666667,4,2,1,70,0,1
99287,-66.6666666666667,4,2,10,70,0,1
99587,-66.6666666666667,4,2,2,70,0,1
99887,-66.6666666666667,4,2,10,70,0,1
100037,-66.6666666666667,4,2,1,70,0,1
100187,-66.6666666666667,4,2,8,70,0,1
100337,-66.6666666666667,4,2,1,70,0,1
100487,-66.6666666666667,4,2,10,70,0,1
100637,-66.6666666666667,4,2,1,70,0,1
100787,-66.6666666666667,4,2,2,70,0,1
100937,-66.6666666666667,4,2,1,70,0,1
101087,-66.6666666666667,4,2,10,70,0,1
101237,-66.6666666666667,4,2,1,70,0,1
101387,-66.6666666666667,4,2,8,70,0,1
101537,-66.6666666666667,4,2,1,70,0,1
101687,-66.6666666666667,4,2,10,70,0,1
101912,-66.6666666666667,4,2,10,5,0,1
101987,-66.6666666666667,4,2,2,70,0,1
102287,-66.6666666666667,4,2,10,70,0,1
102437,-66.6666666666667,4,2,1,70,0,1
102587,-66.6666666666667,4,2,8,70,0,1
102887,-66.6666666666667,4,2,10,70,0,1
103037,-66.6666666666667,4,2,1,70,0,1
103187,-66.6666666666667,4,2,2,70,0,1
103487,-66.6666666666667,4,2,10,70,0,1
103637,-66.6666666666667,4,2,1,70,0,1
103787,-66.6666666666667,4,2,8,70,0,1
104087,-66.6666666666667,4,2,10,70,0,1
104387,-66.6666666666667,4,2,2,70,0,1
104687,-66.6666666666667,4,2,10,70,0,1
104837,-66.6666666666667,4,2,1,70,0,1
104987,-66.6666666666667,4,2,2,70,0,1
105287,-66.6666666666667,4,2,10,70,0,1
105437,-66.6666666666667,4,2,1,70,0,1
105587,-66.6666666666667,4,2,2,70,0,1
105887,-66.6666666666667,4,2,10,70,0,1
106187,-66.6666666666667,4,2,2,70,0,1
106487,-66.6666666666667,4,2,10,70,0,1
106787,-66.6666666666667,4,2,4,70,0,1
107087,-66.6666666666667,4,2,10,70,0,1
107237,-66.6666666666667,4,2,1,70,0,1
107387,-66.6666666666667,4,2,2,70,0,1
107687,-66.6666666666667,4,2,10,70,0,1
107987,-66.6666666666667,4,2,3,70,0,1
108287,-66.6666666666667,4,2,10,70,0,1
108587,-66.6666666666667,4,2,5,70,0,1
108887,-66.6666666666667,4,2,10,70,0,1
109187,-66.6666666666667,4,2,4,70,0,1
109487,-66.6666666666667,4,2,10,70,0,1
109637,-66.6666666666667,4,2,1,70,0,1
109787,-66.6666666666667,4,2,2,70,0,1
109937,-66.6666666666667,4,2,1,70,0,1
110087,-66.6666666666667,4,2,10,70,0,1
110237,-66.6666666666667,4,2,1,70,0,1
110387,-66.6666666666667,4,2,4,70,0,1
110687,-66.6666666666667,4,2,10,70,0,1
110987,-66.6666666666667,4,2,8,70,0,1
111287,-66.6666666666667,4,2,10,70,0,1
111437,-66.6666666666667,4,2,1,70,0,1
111587,-66.6666666666667,4,2,4,70,0,1
111887,-66.6666666666667,4,2,7,70,0,1
112037,-66.6666666666667,4,2,1,70,0,1
112187,-66.6666666666667,4,2,9,70,0,1
112337,-66.6666666666667,4,2,1,70,0,1
112487,-66.6666666666667,4,2,10,70,0,1
112637,-66.6666666666667,4,2,1,70,0,1
112787,-66.6666666666667,4,2,4,70,0,1
113087,-66.6666666666667,4,2,10,70,0,1
113387,-66.6666666666667,4,2,8,70,0,1
113687,-66.6666666666667,4,2,10,70,0,1
113987,-133.333333333333,4,2,11,70,0,0
114437,-133.333333333333,4,2,1,70,0,0
116387,600,4,2,12,40,1,0
116387,-200,4,2,12,50,0,0
125987,-100,4,2,1,60,0,0
129587,-100,4,2,2,30,0,0
129887,-100,4,2,1,60,0,0
130787,-100,4,2,2,30,0,0
131087,-100,4,2,1,60,0,0
135587,-100,4,2,1,20,0,0
142787,-66.6666666666667,4,2,13,60,0,0
143387,-66.6666666666667,4,2,6,60,0,0
145187,-66.6666666666667,4,2,1,70,0,0
145787,-66.6666666666667,4,2,6,70,0,0
146387,-66.6666666666667,4,2,1,70,0,0
146987,-66.6666666666667,4,2,6,70,0,0
147587,-66.6666666666667,4,2,1,60,0,0
148787,-66.6666666666667,4,2,2,30,0,0
148937,-66.6666666666667,4,2,1,60,0,0
149987,600,4,2,14,40,1,0
149987,-66.6666666666667,4,2,14,90,0,1
150137,-50,4,2,1,90,0,1
150287,-50,4,2,7,90,0,1
150437,-50,4,2,1,90,0,1
150587,-50,4,2,8,90,0,1
150887,-50,4,2,10,90,0,1
151037,-50,4,2,1,90,0,1
151187,-50,4,2,3,90,0,1
151337,-50,4,2,1,90,0,1
151487,-50,4,2,10,90,0,1
151637,-50,4,2,1,90,0,1
151787,-50,4,2,8,90,0,1
152087,-50,4,2,10,90,0,1
152387,-50,4,2,15,90,0,1
152537,-50,4,2,1,90,0,1
152687,-50,4,2,7,90,0,1
152837,-50,4,2,1,90,0,1
152987,-50,4,2,8,90,0,1
153287,-50,4,2,10,90,0,1
153437,-50,4,2,1,90,0,1
153587,-50,4,2,3,90,0,1
153737,-50,4,2,1,90,0,1
153887,-50,4,2,10,90,0,1
154037,-50,4,2,1,90,0,1
154187,-50,4,2,8,90,0,1
154337,-50,4,2,1,90,0,1
154487,-50,4,2,10,90,0,1
154787,-50,4,2,15,90,0,1
154937,-50,4,2,1,90,0,1
155387,-50,4,2,8,90,0,1
155687,-50,4,2,10,90,0,1
155837,-50,4,2,1,90,0,1
156287,-50,4,2,10,90,0,1
156437,-50,4,2,1,90,0,1
156587,-50,4,2,8,90,0,1
156887,-50,4,2,10,90,0,1
157187,-50,4,2,15,90,0,1
157487,-50,4,2,7,90,0,1
157787,-50,4,2,8,90,0,1
158687,-50,4,2,7,90,0,1
158987,-50,4,2,8,90,0,1
159887,-50,4,2,7,90,0,1
160187,-50,4,2,5,90,0,1
160487,-50,4,2,10,90,0,1
160787,-50,4,2,2,90,0,1
161087,-50,4,2,10,90,0,1
161387,-50,4,2,8,90,0,1
161687,-50,4,2,10,90,0,1
161987,-50,4,2,15,90,0,1
162287,-50,4,2,7,90,0,1
162587,-50,4,2,5,90,0,1
162887,-50,4,2,10,90,0,1
163187,-50,4,2,2,90,0,1
163487,-50,4,2,10,90,0,1
163787,-50,4,2,8,90,0,1
164087,-50,4,2,10,90,0,1
164387,-50,4,2,11,90,0,1
164687,-50,4,2,10,90,0,1
164987,-50,4,2,8,90,0,1
165287,-50,4,2,10,90,0,1
165587,-50,4,2,3,90,0,1
165887,-50,4,2,10,90,0,1
166187,-50,4,2,8,90,0,1
166487,-50,4,2,10,90,0,1
166787,-50,4,2,3,90,0,1
167087,-50,4,2,10,90,0,1
167387,-50,4,2,8,90,0,1
167687,-50,4,2,10,90,0,1
167987,-50,4,2,3,90,0,1
168287,-50,4,2,10,90,0,1
168587,-50,4,2,4,90,0,1
168887,-50,4,2,7,90,0,1
169037,-50,4,2,1,90,0,0
169187,-50,4,2,14,90,0,1
169337,-50,4,2,1,90,0,1
169487,-50,4,2,7,90,0,1
169637,-50,4,2,1,90,0,1
169787,-50,4,2,8,90,0,1
169937,-50,4,2,1,90,0,1
170087,-50,4,2,10,90,0,1
170237,-50,4,2,1,90,0,1
170687,-50,4,2,10,90,0,1
170837,-50,4,2,1,90,0,1
170987,-50,4,2,8,90,0,1
171137,-50,4,2,1,90,0,1
171287,-50,4,2,10,90,0,1
171587,-50,4,2,2,90,0,1
171737,-50,4,2,1,90,0,1
171887,-50,4,2,7,90,0,1
172037,-50,4,2,1,90,0,1
172187,-50,4,2,8,90,0,1
172487,-50,4,2,10,90,0,1
172637,-50,4,2,1,90,0,1
173087,-50,4,2,10,90,0,1
173237,-50,4,2,1,90,0,1
173387,-50,4,2,8,90,0,1
173687,-50,4,2,10,90,0,1
173987,-50,4,2,2,90,0,1
174137,-50,4,2,1,90,0,1
174587,-50,4,2,8,90,0,1
174887,-50,4,2,10,90,0,1
175037,-50,4,2,1,90,0,1
175187,-50,4,2,2,90,0,1
175488,-50,4,2,10,90,0,1
175788,-50,4,2,8,90,0,1
176087,-50,4,2,10,90,0,1
176387,-50,4,2,2,90,0,1
176687,-50,4,2,7,90,0,1
176987,-50,4,2,8,90,0,1
177887,-50,4,2,7,90,0,1
178187,-50,4,2,15,90,0,1
178787,-50,4,2,8,90,0,1
179087,-50,4,2,10,90,0,1
179387,-50,4,2,8,90,0,1
179687,-50,4,2,10,90,0,1
179987,-50,4,2,2,90,0,1
180287,-50,4,2,10,90,0,1
180587,-50,4,2,8,90,0,1
180887,-50,4,2,10,90,0,1
181037,-50,4,2,1,90,0,1
181187,-50,4,2,3,90,0,1
181337,-50,4,2,1,90,0,1
181487,-50,4,2,7,90,0,1
181787,-50,4,2,8,90,0,1
182087,-50,4,2,10,90,0,1
182312,-50,4,2,10,5,0,1
182387,-50,4,2,2,90,0,1
182687,-50,4,2,10,90,0,1
182987,-50,4,2,8,90,0,1
183287,-50,4,2,10,90,0,1
183437,-50,4,2,1,90,0,1
183587,-50,4,2,16,90,0,1
183737,-50,4,2,1,90,0,1
183887,-50,4,2,10,90,0,1
184187,-50,4,2,5,90,0,1
184487,-50,4,2,10,90,0,1
184787,-50,4,2,2,90,0,1
185087,-50,4,2,10,90,0,1
185387,-50,4,2,8,90,0,1
185687,-50,4,2,10,90,0,1
185987,-50,4,2,2,90,0,1
186437,-50,4,2,1,90,0,1
186587,-50,4,2,8,90,0,1
186887,-50,4,2,7,90,0,1
187187,-50,4,2,2,90,0,1
187487,-50,4,2,7,90,0,1
187787,-50,4,2,4,90,0,1
188087,-50,4,2,7,90,0,1
188237,-50,4,2,7,90,0,0
188387,-50,4,2,17,80,0,1
188687,-50,4,2,7,80,0,1
188837,-50,4,2,1,80,0,1
188987,-50,4,2,2,80,0,1
189137,-50,4,2,1,80,0,1
189287,-50,4,2,7,80,0,1
189437,-50,4,2,1,80,0,1
189587,-50,4,2,4,80,0,1
189737,-50,4,2,1,80,0,1
189887,-50,4,2,10,80,0,1
190037,-50,4,2,1,80,0,1
190187,-50,4,2,8,80,0,1
190487,-50,4,2,10,80,0,1
190787,-50,4,2,2,80,0,1
191087,-50,4,2,10,80,0,1
191237,-50,4,2,1,80,0,1
191387,-50,4,2,2,80,0,1
191687,-50,4,2,10,80,0,1
191837,-50,4,2,1,80,0,1
191987,-50,4,2,3,80,0,1
192137,-50,4,2,1,80,0,1
192287,-50,4,2,10,80,0,1
192437,-50,4,2,1,80,0,1
192587,-50,4,2,2,80,0,1
192737,-50,4,2,1,80,0,1
192887,-50,4,2,10,80,0,1
193187,-50,4,2,5,80,0,1
193487,-50,4,2,10,80,0,1
193712,-50,4,2,1,80,0,1
193787,-50,4,2,2,80,0,1
193937,-50,4,2,1,80,0,1
194087,-50,4,2,10,80,0,1
194237,-50,4,2,1,80,0,1
194387,-50,4,2,4,80,0,1
194462,-50,4,2,4,5,0,1
194537,-50,4,2,1,80,0,1
194612,-50,4,2,4,5,0,1
194687,-50,4,2,10,80,0,1
194837,-50,4,2,1,80,0,1
194987,-50,4,2,2,80,0,1
195287,-50,4,2,10,80,0,1
195437,-50,4,2,1,80,0,1
195587,-50,4,2,2,80,0,1
195737,-50,4,2,1,80,0,1
195887,-50,4,2,7,80,0,1
196037,-50,4,2,1,80,0,1
196187,-50,4,2,9,80,0,1
196337,-50,4,2,1,80,0,1
196487,-50,4,2,10,80,0,1
196637,-50,4,2,1,80,0,1
196787,-50,4,2,4,80,0,1
197087,-50,4,2,10,80,0,1
197237,-50,4,2,1,80,0,1
197387,-50,4,2,2,80,0,1
197537,-50,4,2,1,80,0,1
197687,-50,4,2,10,80,0,1
197837,-50,4,2,1,80,0,1
197987,-50,4,2,18,80,0,1
198287,-50,4,2,10,80,0,1
198437,-50,4,2,1,80,0,1
198587,-50,4,2,2,80,0,1
198737,-50,4,2,1,80,0,1
198887,-50,4,2,7,80,0,1
199037,-50,4,2,1,80,0,1
199187,-50,4,2,4,80,0,1
199262,-50,4,2,4,5,0,1
199337,-50,4,2,1,80,0,1
199412,-50,4,2,4,5,0,1
199488,-50,4,2,10,80,0,1
199638,-50,4,2,1,80,0,1
199788,-50,4,2,2,80,0,1
199938,-50,4,2,1,80,0,1
200087,-50,4,2,10,80,0,1
200237,-50,4,2,1,80,0,1
200387,-50,4,2,5,80,0,1
200687,-50,4,2,10,80,0,1
200837,-50,4,2,1,80,0,1
200987,-50,4,2,2,80,0,1
201137,-50,4,2,1,80,0,1
201287,-50,4,2,10,80,0,1
201362,-50,4,2,4,5,0,1
201437,-50,4,2,1,80,0,1
201512,-50,4,2,4,5,0,1
201587,-50,4,2,4,80,0,1
201737,-50,4,2,1,80,0,1
201887,-50,4,2,10,80,0,1
202037,-50,4,2,1,80,0,1
202187,-50,4,2,2,80,0,1
202487,-50,4,2,10,80,0,1
202712,-50,4,2,10,5,0,0
202787,-50,4,2,19,80,0,1
202937,-50,4,2,19,80,0,0
206987,-50,4,2,19,5,0,0

[Colours]
Combo1 : 98,243,255
Combo2 : 251,170,251
Combo3 : 102,171,255
Combo4 : 162,205,232

[HitObjects]
27,27,1187,5,6,2:3:0:0:
27,27,1487,6,8,L|21:-14,1,23.75,8|8,2:3|2:3,2:3:0:0:
104,60,1637,5,8,0:3:0:0:
104,60,1712,1,8,0:3:0:0:
104,60,1787,2,0,P|127:77|145:105,1,47.5,10|8,2:3|2:3,2:0:0:0:
218,85,2087,2,0,P|214:113|199:143,1,47.5,8|10,2:3|2:3,2:0:0:0:
364,159,2387,5,6,2:3:0:0:
364,159,2687,6,8,L|370:118,1,23.75,14|8,2:3|2:3,2:3:0:0:
291,187,2837,5,8,0:3:0:0:
291,187,2912,1,8,0:3:0:0:
291,187,2987,2,0,P|268:204|250:232,1,47.5,10|8,2:3|2:3,2:0:0:0:
177,212,3287,2,0,P|180:240|195:270,1,47.5,10|8,2:3|2:3,2:0:0:0:
149,366,3587,5,6,2:3:0:0:
149,366,3887,2,0,L|95:380,1,47.5,10|8,2:3|2:3,2:0:0:0:
47,320,4187,2,8,L|53:279,3,23.75,10|8|8|8,2:3|2:3|2:3|2:3,2:3:0:0:
109,248,4487,5,8,2:3:0:0:
109,248,4637,1,10,2:3:0:0:
149,175,4787,6,0,P|172:192|190:220,1,47.5,6|2,2:3|2:0,2:0:0:0:
263,200,5087,2,0,P|259:228|244:258,1,47.5,14|2,2:3|2:0,2:0:0:0:
293,315,5387,6,0,P|316:298|334:270,1,47.5,10|10,2:3|2:3,2:0:0:0:
407,290,5687,2,0,P|403:262|388:232,1,47.5,10|8,2:3|2:3,2:3:0:0:
440,177,5987,5,4,2:3:0:0:
440,177,6287,5,10,0:3:0:0:
440,177,6362,1,8,0:3:0:0:
440,177,6437,2,8,P|435:166|432:154,1,23.75,8|8,2:3|2:3,2:3:0:0:
488,89,6587,6,0,L|497:42,1,47.5,8|8,2:3|2:3,2:0:0:0:
409,47,6887,2,0,L|418:0,1,47.5,8|10,2:3|2:3,2:0:0:0:
329,0,7187,6,0,P|306:17|288:45,1,47.5,6|2,2:3|2:0,2:0:0:0:
215,25,7487,2,0,P|218:53|233:83,1,47.5,14|10,2:3|2:3,2:0:0:0:
290,108,7787,6,0,L|276:233,1,95,10|10,2:3|2:3,2:0:0:0:
329,277,8237,1,10,2:3:0:0:
329,277,8312,1,2,2:0:0:0:
329,277,8387,5,6,2:3:0:0:
407,204,8537,2,0,L|360:197,1,47.5,2|8,2:0|2:3,2:0:0:0:
195,264,8837,5,10,2:3:0:0:
195,264,8987,2,0,L|241:270,1,47.5,10|8,2:3|2:3,2:0:0:0:
401,361,9287,6,0,L|354:354,1,47.5,10|8,2:3|2:3,2:0:0:0:
279,381,9587,1,6,2:3:0:0:
278,127,9887,6,0,P|271:104|259:83,1,47.5,14|0,2:3|2:0,2:0:0:0:
349,178,10187,2,0,P|371:171|392:159,1,47.5,10|10,2:3|2:3,2:0:0:0:
298,249,10487,2,0,P|304:271|316:292,1,47.5,10|8,2:3|2:3,2:0:0:0:
195,202,10787,6,0,L|82:220,1,113.999996520996,6|10,1:2|2:0,2:0:0:0:
317,202,11387,2,0,L|429:220,1,113.999996520996,10|10,1:2|2:0,2:0:0:0:
492,173,11837,1,10,2:0:0:0:
492,173,11987,2,0,L|486:102,1,56.9999982604981,2|2,2:0|2:0,2:0:0:0:
512,40,12287,2,0,L|441:46,1,56.9999982604981,10|10,1:2|2:3,2:0:0:0:
377,19,12587,2,0,L|383:90,1,56.9999982604981,10|8,1:2|2:3,2:0:0:0:
411,148,12887,1,10,2:0:0:0:
327,315,13187,6,0,L|316:201,1,113.999996520996,6|10,1:2|2:0,2:0:0:0:
185,315,13787,2,0,L|195:201,1,113.999996520996,10|10,1:2|2:0,2:0:0:0:
256,32,14237,1,10,2:0:0:0:
256,32,14312,1,2,0:0:0:0:
256,32,14387,2,0,L|256:160,1,113.999996520996,2|14,2:0|1:2,2:0:0:0:
176,96,14837,1,2,2:0:0:0:
176,96,14912,1,2,2:0:0:0:
176,96,14987,2,0,L|112:112,1,56.9999982604981,10|10,1:2|2:3,2:0:0:0:
336,96,15287,2,0,L|400:112,1,56.9999982604981,10|8,2:0|2:3,2:0:0:0:
441,44,15587,6,0,P|468:92|459:147,1,113.999996520996,6|10,1:2|2:0,2:0:0:0:
276,185,16187,2,0,P|248:136|257:81,1,113.999996520996,10|10,1:2|2:0,2:0:0:0:
197,234,16637,1,10,2:3:0:0:
197,234,16712,1,2,2:3:0:0:
197,234,16787,2,0,L|189:312,1,56.9999982604981,2|2,2:0|2:0,2:0:0:0:
213,370,17087,2,0,L|135:362,1,56.9999982604981,14|10,1:2|2:0,2:0:0:0:
76,383,17387,2,0,L|84:305,1,56.9999982604981,10|10,1:2|2:3,2:0:0:0:
117,248,17687,2,0,L|60:242,1,56.9999982604981,10|0,0:2|2:0,2:0:0:0:
198,217,17987,6,0,L|186:103,1,113.999996520996,6|10,1:2|2:0,2:0:0:0:
314,217,18587,2,0,L|325:103,1,113.999996520996,10|10,1:2|2:0,2:0:0:0:
256,0,19037,1,10,2:0:0:0:
187,103,19187,2,0,L|99:115,1,56.9999982604981,2|0,2:0|2:0,2:0:0:0:
325,103,19487,2,0,L|413:115,1,56.9999982604981,14|2,1:2|2:0,2:0:0:0:
462,98,19787,1,10,1:2:0:0:
398,33,19937,1,10,2:3:0:0:
462,98,20087,2,0,L|454:154,1,56.9999982604981,10|8,2:0|2:3,2:0:0:0:
512,233,20387,6,0,P|434:255|423:336,1,170.999994781494,6|10,1:2|2:0,2:0:0:0:
495,371,20987,1,10,1:2:0:0:
334,275,21287,1,10,1:2:0:0:
334,275,21887,5,2,1:2:0:0:
325,282,22037,1,2,2:0:0:0:
316,289,22187,2,0,L|245:302,1,56.9999982604981,10|0,1:2|2:0,2:0:0:0:
191,253,22487,2,0,L|120:240,1,56.9999982604981,2|0,2:0|2:0,2:0:0:0:
45,352,22787,6,0,B|-27:363|-27:363|3:269,1,170.999994781494,4|10,1:2|2:0,2:0:0:0:
63,202,23387,1,10,1:2:0:0:
14,57,23687,1,10,1:2:0:0:
14,57,24287,5,2,1:2:0:0:
25,55,24437,1,2,2:0:0:0:
36,53,24587,2,0,L|102:42,1,56.9999982604981,10|0,1:2|2:0,2:0:0:0:
167,0,24887,2,0,L|178:66,1,56.9999982604981,2|2,2:0|2:0,2:0:0:0:
117,124,25187,6,0,P|167:148|196:196,1,113.999996520996,4|2,1:2|2:0,2:0:0:0:
171,268,25637,1,2,2:0:0:0:
279,162,25787,6,0,P|283:218|255:267,1,113.999996520996,12|2,1:2|2:0,2:0:0:0:
171,268,26237,1,2,2:0:0:0:
310,377,26387,1,6,1:2:0:0:
362,155,26687,1,6,1:2:0:0:
362,155,27587,6,0,L|379:296,1,142.500005435944,6|2,1:2|2:0,2:0:0:0:
256,384,28037,1,2,2:0:0:0:
447,172,28187,6,0,L|464:313,1,142.500005435944,6|2,1:2|2:0,2:0:0:0:
256,384,28637,1,2,2:0:0:0:
341,189,28787,6,0,P|316:214|283:228,1,71.2500027179719,6|0,1:2|2:0,2:0:0:0:
369,363,29087,2,0,P|359:329|363:293,1,71.2500027179719,2|0,2:0|2:0,2:0:0:0:
231,290,29387,2,0,L|81:267,1,142.500005435944,6|2,1:2|2:0,2:0:0:0:
180,135,29987,6,0,B|274:121|287:30|287:30|274:121|366:166,1,332.5,4|0,2:0|2:0,2:0:0:0:
507,220,32387,6,0,P|344:214|225:324,1,332.5,4|0,2:0|2:0,2:0:0:0:
98,191,34787,6,0,B|53:51|53:51|107:-22|170:43,1,285,4|4,2:0|2:0,2:0:0:0:
0,160,36887,1,4,2:0:0:0:
227,259,37187,6,0,B|125:275|125:275|106:361|106:361|14:374,1,285,4|0,2:0|2:0,2:0:0:0:
240,256,39587,6,0,L|250:161,1,95,4|8,2:3|2:3,2:0:0:0:
307,102,40037,1,8,2:3:0:0:
307,102,40112,1,8,2:3:0:0:
307,102,40187,2,0,L|377:95,1,47.5,8|8,2:3|2:3,2:0:0:0:
426,59,40487,2,0,L|433:129,1,47.5,10|8,2:3|2:3,2:0:0:0:
512,186,40787,2,0,L|442:193,1,47.5,6|0,2:3|2:0,2:0:0:0:
393,229,41087,2,0,L|386:159,1,47.5,6|0,2:3|2:0,2:0:0:0:
354,97,41387,2,0,L|259:86,1,95,2|2,2:0|2:0,2:0:0:0:
30,178,41987,6,0,L|124:188,1,95,6|8,2:3|2:3,2:0:0:0:
189,141,42437,1,8,2:3:0:0:
189,141,42512,1,8,2:3:0:0:
189,141,42587,2,0,P|194:112|187:77,1,47.5,8|8,2:3|2:3,2:0:0:0:
267,48,42887,2,0,P|244:29|210:17,1,47.5,10|8,2:3|2:3,2:0:0:0:
23,94,43187,5,6,2:3:0:0:
88,288,43487,1,6,2:3:0:0:
267,209,43787,6,8,P|277:188|278:175,3,23.75,10|8|8|8,2:3|0:3|0:3|0:3,0:3:0:0:
219,126,44087,2,8,P|205:106|195:99,3,23.75,10|8|8|8,2:3|0:3|0:3|0:3,0:3:0:0:
302,102,44387,6,0,L|348:109,1,47.5,14|0,2:3|2:0,2:0:0:0:
427,99,44687,2,0,L|419:145,1,47.5,10|8,2:3|2:3,2:0:0:0:
429,226,44987,2,0,L|382:218,1,47.5,10|8,2:3|2:3,2:0:0:0:
304,229,45287,2,0,L|311:182,1,47.5,10|8,2:3|2:3,2:0:0:0:
375,32,45587,5,4,2:3:0:0:
502,172,45887,1,6,2:3:0:0:
362,299,46187,1,2,2:0:0:0:
235,159,46487,1,2,2:0:0:0:
467,52,46787,6,0,P|475:74|475:97,1,47.5,4|0,2:3|2:0,2:0:0:0:
502,172,47087,6,0,P|486:190|466:201,1,47.5,10|8,2:3|2:3,2:0:0:0:
362,299,47387,6,0,P|338:294|318:283,1,47.5,8|8,2:3|2:3,2:0:0:0:
156,194,47687,6,0,P|147:171|147:148,1,47.5,10|8,2:3|2:3,2:0:0:0:
256,352,47987,5,12,2:3:0:0:
256,352,48287,5,10,2:3:0:0:
256,320,48437,1,10,2:3:0:0:
256,160,48587,5,10,2:3:0:0:
352,240,48737,1,10,2:3:0:0:
256,320,48887,1,10,2:3:0:0:
160,240,49037,1,10,2:3:0:0:
256,32,49187,5,6,1:2:0:0:
192,112,49337,2,0,P|163:132|128:133,1,71.2500027179719,2|2,2:0|2:0,2:0:0:0:
256,32,49637,1,2,2:0:0:0:
320,112,49787,2,0,P|348:132|383:133,1,71.2500027179719,10|0,1:2|2:0,2:0:0:0:
256,32,50087,1,2,2:0:0:0:
256,160,50237,2,0,L|256:320,1,142.500005435944,2|2,2:0|2:0,2:0:0:0:
368,224,50687,2,0,L|354:293,1,71.2500027179719,2|2,2:0|2:0,2:0:0:0:
144,224,50987,2,0,L|157:293,1,71.2500027179719,10|0,1:2|2:0,2:0:0:0:
256,384,51287,1,2,2:0:0:0:
256,384,51587,5,2,1:2:0:0:
157,293,51737,2,0,L|87:306,1,71.2500027179719,2|2,2:0|2:0,2:0:0:0:
256,384,52037,1,2,2:0:0:0:
355,293,52187,2,0,L|424:306,1,71.2500027179719,10|0,1:2|2:0,2:0:0:0:
258,384,52487,1,2,2:0:0:0:
157,293,52637,2,0,P|121:233|142:168,1,142.500005435944,2|2,2:0|2:0,2:0:0:0:
256,80,53087,2,0,L|256:151,1,71.2500027179719,2|2,2:0|2:0,2:0:0:0:
355,293,53387,2,0,P|390:233|369:168,1,142.500005435944,10|2,1:2|2:0,2:0:0:0:
256,192,53987,5,2,1:2:0:0:
369,168,54137,2,0,L|519:140,1,142.500005435944,2|2,2:0|2:0,2:0:0:0:
143,168,54587,2,0,L|2:141,1,142.500005435944,10|2,1:2|2:0,2:0:0:0:
256,192,55037,1,0,2:0:0:0:
369,168,55187,6,0,L|382:98,1,71.2500027179719,2|0,1:2|2:0,2:0:0:0:
299,123,55487,2,0,L|312:53,1,71.2500027179719,2|0,2:0|2:0,2:0:0:0:
143,168,55787,6,0,L|129:98,1,71.2500027179719,10|0,1:2|2:0,2:0:0:0:
213,123,56087,2,0,L|199:53,1,71.2500027179719,2|0,2:2|2:0,2:0:0:0:
192,256,56387,6,0,B|256:288|256:288|320:256,1,142.500005435944,2|2,1:2|2:0,2:0:0:0:
368,192,56837,1,0,2:0:0:0:
320,128,56987,6,0,B|256:96|256:96|192:128,1,142.500005435944,10|2,1:2|2:0,2:0:0:0:
144,192,57437,1,0,2:0:0:0:
192,288,57587,6,0,B|256:320|256:320|320:288,1,142.500005435944,2|2,1:2|2:0,2:0:0:0:
400,192,58037,1,0,2:0:0:0:
320,96,58187,6,0,B|256:64|256:64|192:96,1,142.500005435944,10|2,1:2|2:0,2:0:0:0:
112,192,58637,1,0,2:0:0:0:
256,224,58787,6,0,L|256:80,1,142.500005435944,6|2,1:3|2:0,2:0:0:0:
256,0,59237,1,0,2:0:0:0:
176,144,59387,2,0,L|106:157,1,71.2500027179719,10|0,1:2|2:0,2:0:0:0:
336,144,59687,2,0,L|406:157,1,71.2500027179719,2|0,2:0|2:0,2:0:0:0:
193,288,59987,6,0,L|123:301,1,71.2500027179719,2|0,1:2|0:0,2:0:0:0:
192,368,60287,2,0,L|122:381,1,71.2500027179719,2|0,2:0|2:0,0:0:0:0:
319,288,60587,6,0,L|388:301,1,71.2500027179719,10|0,1:2|2:0,2:0:0:0:
320,368,60887,2,0,L|389:381,1,71.2500027179719,2|0,2:0|2:0,2:0:0:0:
113,256,61187,6,0,B|81:192|81:192|113:128,1,142.500005435944,2|2,1:2|2:0,2:0:0:0:
256,192,61637,1,0,2:0:0:0:
399,128,61787,2,0,B|431:192|431:192|399:256,1,142.500005435944,10|2,1:2|2:0,2:0:0:0:
256,192,62237,1,0,2:0:0:0:
320,368,62387,6,0,L|390:381,1,71.2500027179719,2|0,1:2|0:0,2:0:0:0:
320,288,62687,2,0,L|390:301,1,71.2500027179719,2|0,2:0|2:0,0:0:0:0:
192,368,62987,6,0,L|122:381,1,71.2500027179719,10|0,1:2|0:0,2:0:0:0:
192,288,63287,2,0,L|122:301,1,71.2500027179719,2|0,2:0|2:0,0:0:0:0:
399,128,63587,6,0,L|330:146,1,71.2500027179719,2|0,1:2|2:0,2:0:0:0:
256,192,63887,1,2,2:0:0:0:
113,128,64037,6,0,L|181:146,1,71.2500027179719,2|10,2:0|1:2,2:0:0:0:
256,192,64337,1,2,2:0:0:0:
256,352,64487,6,0,L|256:280,1,71.2500027179719,2|2,2:0|2:0,2:0:0:0:
96,224,64787,2,0,P|64:285|91:348,1,142.500005435944,2|2,1:2|2:0,2:0:0:0:
415,223,65387,2,0,P|446:284|420:348,1,142.500005435944,10|2,1:2|2:0,2:0:0:0:
167,130,65987,6,0,B|132:83|191:40|191:40|259:59|243:118,1,213.750008153916,6|0,1:2|2:0,2:0:0:0:
320,205,66587,2,0,B|336:264|268:283|268:283|209:240|243:193,1,213.750008153916,10|0,1:2|2:0,2:0:0:0:
415,278,67187,2,0,P|440:249|446:212,1,71.2500027179719,2|0,1:2|2:0,2:0:0:0:
507,166,67487,2,0,P|478:141|441:135,1,71.2500027179719,2|0,2:0|2:0,2:0:0:0:
394,74,67787,2,0,P|369:103|363:140,1,71.2500027179719,10|0,1:2|2:0,2:0:0:0:
302,186,68087,2,0,P|331:211|368:217,1,71.2500027179719,2|0,2:0|2:0,2:0:0:0:
512,311,68387,6,0,P|407:303|317:358,1,213.750008153916,2|0,1:2|2:0,2:0:0:0:
176,376,68987,2,0,P|160:285|251:300,1,213.750008153916,10|0,1:2|2:0,2:0:0:0:
316,357,69587,2,0,P|332:325|336:282,1,71.2500027179719,2|0,1:2|2:0,2:0:0:0:
393,226,69887,2,0,P|361:210|317:206,1,71.2500027179719,2|0,2:0|2:0,2:0:0:0:
261,150,70187,2,0,P|245:181|241:225,1,71.2500027179719,10|0,1:2|2:0,2:0:0:0:
184,281,70487,2,0,P|215:296|259:300,1,71.2500027179719,2|0,2:0|2:0,2:0:0:0:
435,161,70787,6,0,B|497:57|497:57|401:72,1,213.750008153916,2|0,1:2|2:0,2:0:0:0:
335,130,71387,2,0,B|276:159|229:116|247:94|201:51|145:80,1,213.750008153916,10|0,1:2|2:0,2:0:0:0:
76,35,71987,2,0,P|65:68|69:103,1,71.2500027179719,2|0,1:2|2:0,2:0:0:0:
30,181,72287,2,0,P|65:176|98:187,1,71.2500027179719,2|0,2:0|2:0,2:0:0:0:
167,233,72587,2,0,P|178:200|174:165,1,71.2500027179719,10|0,1:2|2:0,2:0:0:0:
146,80,72887,2,0,P|179:90|214:86,1,71.2500027179719,2|0,2:0|2:0,2:0:0:0:
284,6,73187,6,0,L|299:147,1,142.500005435944,2|2,1:2|2:0,2:0:0:0:
357,217,73637,1,2,2:0:0:0:
190,294,73787,2,0,L|174:152,1,142.500005435944,10|2,1:2|2:0,2:0:0:0:
362,294,74387,6,0,P|294:310|262:371,1,142.500005435944,2|2,1:2|2:0,2:0:0:0:
268,233,74837,1,2,2:0:0:0:
208,290,74987,2,0,P|162:308|111:300,1,71.2500027179719,10|2,1:2|2:0,2:0:0:0:
44,297,75287,2,0,P|60:328|64:364,1,71.2500027179719,2|0,2:0|2:0,2:0:0:0:
102,233,75587,6,0,L|115:87,1,142.500005435944,2|2,1:2|2:0,2:0:0:0:
181,36,76037,1,2,2:0:0:0:
194,121,76187,2,0,L|335:133,1,142.500005435944,10|2,1:2|2:0,2:0:0:0:
495,205,76637,1,2,2:0:0:0:
432,132,76787,2,0,P|410:159|402:194,1,71.2500027179719,2|0,1:2|2:0,2:0:0:0:
418,296,77087,2,0,P|390:274|355:266,1,71.2500027179719,2|0,2:0|2:0,2:0:0:0:
258,282,77387,2,0,P|279:254|287:219,1,71.2500027179719,10|0,1:2|2:0,2:0:0:0:
265,117,77687,2,0,P|292:138|327:146,1,71.2500027179719,2|0,2:0|2:0,2:0:0:0:
418,243,77987,6,0,L|433:384,1,142.500005435944,2|2,1:2|2:0,2:0:0:0:
512,315,78437,1,2,2:0:0:0:
345,373,78587,2,0,P|309:370|276:383,1,71.2500027179719,10|0,1:2|2:0,2:0:0:0:
215,317,78887,1,2,2:0:0:0:
158,384,79037,1,2,2:0:0:0:
298,293,79187,2,0,L|280:151,1,142.500005435944,2|2,1:2|2:0,2:0:0:0:
420,54,79787,2,0,L|437:195,1,142.500005435944,10|2,1:2|2:0,2:0:0:0:
512,262,80387,6,0,P|444:278|409:338,1,142.500005435944,2|2,1:2|2:0,2:0:0:0:
343,286,80837,1,2,2:0:0:0:
270,316,80987,2,0,L|180:303,1,71.2500027179719,10|0,1:2|2:0,2:0:0:0:
129,259,81287,2,0,L|119:330,1,71.2500027179719,2|0,2:0|2:0,2:0:0:0:
52,203,81587,2,0,L|31:344,1,142.500005435944,2|2,1:2|2:0,2:0:0:0:
256,192,82187,2,0,L|276:50,1,142.500005435944,10|2,1:2|2:0,2:0:0:0:
191,85,82787,6,0,L|143:90,1,47.5,4|0,1:2|2:0,2:0:0:0:
61,74,83087,2,0,L|66:121,1,47.5,10|8,2:3|2:3,2:0:0:0:
154,184,83387,2,0,L|143:89,1,95,10|10,1:3|2:3,2:0:0:0:
59,298,83987,2,0,L|69:203,1,95,6|6,1:3|2:3,2:0:0:0:
166,372,84437,1,0,2:0:0:0:
164,359,84587,2,0,L|153:264,1,95,2|2,1:2|2:0,2:0:0:0:
239,298,85187,6,0,L|285:305,1,47.5,4|0,1:3|2:0,2:0:0:0:
366,299,85487,2,0,L|358:345,1,47.5,10|8,2:3|2:3,2:0:0:0:
317,226,85787,2,0,L|223:211,1,95,10|10,1:3|2:3,2:0:0:0:
138,170,86387,2,0,L|152:263,1,95,6|6,1:3|2:3,2:0:0:0:
206,130,86987,2,0,P|220:111|238:95,1,47.5,2|0,1:2|2:0,2:0:0:0:
301,145,87287,2,0,P|324:148|346:156,1,47.5,2|2,2:0|2:0,2:0:0:0:
421,100,87587,6,0,L|435:193,1,95,4|10,1:3|2:3,2:0:0:0:
390,255,88037,1,10,2:3:0:0:
446,306,88187,6,0,L|451:353,1,47.5,10|10,1:3|2:3,2:0:0:0:
371,337,88487,2,0,L|376:384,1,47.5,10|10,2:3|2:3,2:0:0:0:
289,236,88787,6,0,L|294:283,1,47.5,6|2,1:3|2:0,2:0:0:0:
214,267,89087,2,0,L|219:314,1,47.5,6|2,2:3|2:0,2:0:0:0:
139,157,89387,6,0,L|144:204,1,47.5,2|2,1:2|2:0,2:0:0:0:
64,188,89687,2,0,L|69:235,1,47.5,2|0,2:0|2:0,2:0:0:0:
0,117,89987,5,4,1:3:0:0:
0,117,90287,5,8,2:3:0:0:
2,133,90437,1,10,2:3:0:0:
69,235,90587,6,0,L|64:188,1,47.5,10|10,1:3|2:3,2:0:0:0:
144,204,90887,2,0,L|139:157,1,47.5,10|10,2:3|2:3,2:0:0:0:
219,314,91187,6,0,L|214:267,1,47.5,6|2,1:3|2:0,2:0:0:0:
294,283,91487,2,0,L|289:236,1,47.5,6|2,2:3|2:0,2:0:0:0:
376,384,91787,6,0,L|371:337,1,47.5,2|2,1:2|2:0,2:0:0:0:
452,352,92087,2,0,L|446:304,1,47.5,2|2,2:0|2:0,2:0:0:0:
366,154,92387,6,0,L|377:248,1,95,4|10,1:3|2:3,2:0:0:0:
289,154,92837,1,8,2:3:0:0:
279,156,92987,2,0,L|232:162,1,47.5,10|8,1:3|2:3,2:0:0:0:
226,86,93287,2,0,L|272:79,1,47.5,10|8,2:3|2:3,2:0:0:0:
354,59,93587,2,0,L|365:153,1,95,6|6,1:3|2:3,2:0:0:0:
171,208,94187,2,0,L|160:302,1,95,2|2,1:2|2:0,2:0:0:0:
270,360,94787,6,0,P|316:356|355:381,1,95,4|10,1:3|2:3,2:0:0:0:
433,353,95237,1,8,2:3:0:0:
429,343,95387,2,0,L|417:271,1,47.5,10|8,1:3|2:3,2:0:0:0:
500,292,95687,2,0,L|512:220,1,47.5,10|8,2:3|2:3,2:0:0:0:
512,145,95987,6,0,P|473:170|426:166,1,95,14|14,1:3|2:3,2:0:0:0:
142,65,96587,6,0,P|180:39|227:43,1,95,10|10,1:3|2:3,2:0:0:0:
294,86,97037,1,10,2:3:0:0:
187,148,97187,6,0,L|47:175,1,142.500005435944,6|2,1:2|2:0,2:0:0:0:
256,192,97637,1,2,2:0:0:0:
197,254,97787,2,0,P|211:286|217:321,1,71.2500027179719,10|2,1:2|2:0,2:0:0:0:
318,251,98087,2,0,P|350:236|385:230,1,71.2500027179719,2|2,2:0|2:0,2:0:0:0:
315,130,98387,2,0,P|300:97|294:62,1,71.2500027179719,2|2,1:2|2:0,2:0:0:0:
194,133,98687,2,0,P|161:147|126:153,1,71.2500027179719,2|2,2:0|2:0,2:0:0:0:
197,254,98987,2,0,P|211:286|217:321,1,71.2500027179719,10|2,1:2|2:0,2:0:0:0:
256,192,99287,5,2,2:0:0:0:
372,189,99587,6,0,L|511:216,1,142.500005435944,2|2,1:2|2:0,2:0:0:0:
294,62,100037,1,2,2:0:0:0:
194,133,100187,2,0,P|161:147|126:153,1,71.2500027179719,10|2,1:2|2:0,2:0:0:0:
315,130,100487,2,0,P|300:97|294:62,1,71.2500027179719,2|2,2:0|2:0,2:0:0:0:
318,251,100787,2,0,P|350:236|385:230,1,71.2500027179719,2|2,1:2|2:0,2:0:0:0:
197,253,101087,2,0,P|211:286|217:321,1,71.2500027179719,2|2,2:0|2:0,2:0:0:0:
194,133,101387,2,0,P|161:147|126:153,1,71.2500027179719,10|2,1:2|2:0,2:0:0:0:
36,134,101687,6,0,L|50:239,1,106.875004076958,2|0,2:0|2:0,2:0:0:0:
33,259,101987,6,0,P|97:285|126:348,1,142.500005435944,2|2,1:2|2:0,2:0:0:0:
197,253,102437,1,2,2:0:0:0:
267,304,102587,2,0,L|337:294,1,71.2500027179719,10|0,1:2|2:0,2:0:0:0:
423,315,102887,2,0,L|413:244,1,71.2500027179719,2|2,2:0|2:0,2:0:0:0:
297,208,103187,6,0,P|361:181|390:118,1,142.500005435944,2|2,1:2|2:0,2:0:0:0:
512,72,103637,1,2,2:0:0:0:
459,17,103787,2,0,L|480:157,1,142.500005435944,10|2,1:2|2:0,2:0:0:0:
512,295,104387,6,0,P|447:321|418:384,1,142.500005435944,2|2,1:2|2:0,2:0:0:0:
368,280,104837,1,2,2:0:0:0:
236,345,104987,2,0,P|270:338|306:334,1,71.2500027179719,10|0,1:2|2:0,2:0:0:0:
163,283,105287,2,0,P|128:289|92:293,1,71.2500027179719,2|2,2:0|2:0,2:0:0:0:
151,157,105587,6,0,P|215:183|244:246,1,142.500005435944,2|10,1:2|2:0,2:0:0:0:
0,384,106187,2,0,P|64:357|93:294,1,142.500005435944,10|10,1:2|2:0,2:0:0:0:
96,22,106787,6,0,L|105:92,1,71.2500027179719,6|0,1:2|2:0,2:0:0:0:
43,236,107087,2,8,L|8:246,3,35.625001358986,10|8|8|8,2:0|2:0|2:3|2:3,2:0:0:0:
93,294,107387,6,0,L|255:320,1,142.500005435944,10|10,1:2|2:0,2:0:0:0:
436,384,107987,6,0,P|419:352|417:317,1,71.2500027179719,6|0,1:2|2:0,2:0:0:0:
299,120,108287,2,0,P|296:155|280:186,1,71.2500027179719,6|0,2:0|2:0,2:0:0:0:
372,226,108587,2,0,L|534:200,1,142.500005435944,10|2,1:2|2:0,2:0:0:0:
284,50,109187,6,0,L|299:120,1,71.2500027179719,6|0,1:2|2:0,2:0:0:0:
177,91,109487,6,8,L|212:99,3,35.625001358986,10|8|8|8,2:0|2:0|2:3|2:3,2:0:0:0:
180,176,109787,6,0,L|165:245,1,71.2500027179719,10|8,1:2|2:3,2:0:0:0:
346,277,110087,2,0,L|331:207,1,71.2500027179719,10|8,2:0|2:3,2:0:0:0:
180,176,110387,6,0,L|110:161,1,71.2500027179719,6|0,1:2|2:0,2:0:0:0:
272,116,110687,2,0,L|286:46,1,71.2500027179719,6|0,2:0|2:0,2:0:0:0:
332,208,110987,2,0,L|401:222,1,71.2500027179719,10|0,1:2|2:0,2:0:0:0:
240,268,111287,2,0,L|225:337,1,71.2500027179719,2|2,2:0|2:0,2:0:0:0:
180,176,111587,6,0,L|110:161,1,71.2500027179719,6|0,1:2|2:0,2:0:0:0:
32,198,111887,2,8,L|24:163,3,35.625001358986,10|8|8|8,2:0|2:0|2:3|2:3,2:0:0:0:
69,95,112187,2,0,L|83:25,1,71.2500027179719,10|8,1:2|2:3,2:0:0:0:
180,176,112487,2,0,L|194:245,1,71.2500027179719,10|8,2:0|2:3,2:0:0:0:
75,377,112787,6,0,P|131:337|199:352,1,142.500005435944,6|6,1:2|2:0,2:0:0:0:
437,6,113387,2,0,P|380:46|312:31,1,142.500005435944,10|2,1:2|2:0,2:0:0:0:
256,256,113987,6,0,L|254:362,2,106.875004076958,4|2|2,0:2|2:0|2:0,2:0:0:0:
256,176,115187,5,2,2:0:0:0:
280,378,116387,6,0,B|310:396|340:377|349:362|350:349|350:349|397:56|397:56|401:12|440:1|440:1|454:32|431:94|391:109|386:98|291:86|236:138|192:276|285:328|291:370|610:350|448:132|376:195,1,1092.5,4|0,2:0|2:0,2:0:0:0:
86,309,123587,5,4,2:0:0:0:
391,201,124787,5,4,2:0:0:0:
449,330,125987,6,0,L|463:236,1,95,6|8,2:3|2:3,2:0:0:0:
444,160,126437,1,8,2:3:0:0:
434,158,126587,2,0,P|411:163|395:180,1,47.5,10|8,2:3|2:3,2:0:0:0:
333,227,126887,2,0,P|338:249|355:265,1,47.5,8|10,2:3|2:3,2:0:0:0:
449,330,127187,5,6,2:3:0:0:
256,384,127487,1,6,2:3:0:0:
62,319,128387,6,0,L|47:225,1,95,6|10,2:3|2:3,2:0:0:0:
78,158,128837,1,8,2:3:0:0:
78,158,128912,1,8,2:3:0:0:
77,158,128987,2,0,P|100:163|116:180,1,47.5,10|8,2:3|2:3,2:0:0:0:
180,227,129287,2,0,P|174:249|157:265,1,47.5,10|10,2:3|2:3,2:0:0:0:
62,319,129587,5,4,2:3:0:0:
256,384,129887,1,14,2:3:0:0:
352,288,130187,6,0,L|354:264,3,23.75,10|8|10|8,2:3|2:3|2:3|2:3,2:0:0:0:
429,280,130487,6,0,L|431:256,3,23.75,10|8|8|8,2:3|2:3|2:3|2:3,2:0:0:0:
480,192,130787,5,4,2:3:0:0:
480,192,131087,6,0,L|477:168,3,23.75,10|0|8|8,2:3|2:0|2:3|2:3,2:0:0:0:
394,131,131387,6,0,P|371:136|355:153,1,47.5,10|8,2:3|2:3,2:0:0:0:
292,200,131687,2,0,P|297:222|314:238,1,47.5,8|10,2:3|2:3,2:0:0:0:
432,256,131987,5,6,2:3:0:0:
256,384,132287,1,6,2:3:0:0:
256,0,133187,6,0,L|256:47,1,47.5,6|0,2:3|2:0,2:0:0:0:
256,124,133487,6,0,L|256:156,3,23.75,8|0|8|8,2:3|2:0|2:3|2:3,2:0:0:0:
257,219,133787,6,0,L|257:266,1,47.5,8|8,2:3|2:3,2:0:0:0:
256,336,134087,5,10,2:3:0:0:
256,312,134237,1,8,2:3:0:0:
352,256,134387,6,0,L|416:256,1,47.5,6|0,2:3|2:0,2:0:0:0:
160,256,134687,2,0,L|112:256,1,47.5,14|0,2:3|2:0,2:0:0:0:
256,96,134987,5,14,2:3:0:0:
256,0,135137,1,10,2:3:0:0:
176,48,135287,1,10,2:3:0:0:
336,48,135437,1,8,2:3:0:0:
256,192,135587,5,2,2:0:0:0:
256,208,136787,5,2,2:0:0:0:
256,224,137987,5,2,2:0:0:0:
256,240,139187,5,2,2:0:0:0:
256,256,140387,5,2,2:0:0:0:
256,272,141587,5,2,2:0:0:0:
256,288,142187,5,2,2:0:0:0:
176,120,142787,6,0,L|189:190,1,71.2500027179719,6|0,1:2|2:0,2:0:0:0:
336,120,143087,5,2,2:0:0:0:
192,32,143237,1,2,2:0:0:0:
336,120,143387,2,0,L|322:190,1,71.2500027179719,6|0,1:2|2:0,2:0:0:0:
96,128,143687,5,2,2:0:0:0:
288,32,143837,1,2,2:0:0:0:
96,128,143987,2,0,L|109:198,1,71.2500027179719,6|2,1:2|2:0,2:0:0:0:
89,278,144287,2,0,L|159:264,1,71.2500027179719,2|2,2:0|2:0,2:0:0:0:
416,128,144587,6,0,L|402:198,1,71.2500027179719,6|2,1:2|2:0,2:0:0:0:
423,278,144887,2,0,L|352:264,1,71.2500027179719,2|2,2:0|2:0,2:0:0:0:
256,96,145187,6,0,L|256:0,1,71.2500027179719,6|0,1:2|2:0,2:0:0:0:
352,160,145487,5,2,2:0:0:0:
160,160,145637,1,2,2:0:0:0:
352,160,145787,2,0,L|384:96,1,71.2500027179719,6|0,1:2|2:0,2:0:0:0:
160,160,146087,5,2,2:0:0:0:
352,160,146237,1,2,2:0:0:0:
160,160,146387,2,0,L|128:96,1,71.2500027179719,6|0,1:2|2:0,2:0:0:0:
256,32,146687,5,2,2:0:0:0:
256,224,146837,1,2,2:0:0:0:
160,160,146987,6,0,L|90:173,1,71.2500027179719,6|0,1:2|2:0,2:0:0:0:
352,160,147287,2,0,L|422:173,1,71.2500027179719,2|2,2:0|2:0,2:0:0:0:
256,384,147587,6,0,L|256:304,1,71.2500027179719,6|2,1:2|2:0,2:0:0:0:
325,273,147887,6,8,L|341:241,3,35.625001358986,8|8|10|8,2:3|2:3|2:3|2:3,2:3:0:0:
187,273,148187,2,8,L|171:241,3,35.625001358986,8|8|8|8,2:3|2:3|2:3|2:3,2:3:0:0:
256,224,148487,6,0,L|256:152,1,71.2500027179719,10|10,2:3|2:3,2:0:0:0:
335,112,148787,5,4,2:3:0:0:
256,0,148937,1,10,2:3:0:0:
335,112,149087,6,0,P|351:80|346:46,1,71.2500027179719,14|10,2:3|2:3,2:0:0:0:
165,46,149387,2,0,P|160:80|176:112,1,71.2500027179719,10|8,1:3|2:3,2:0:0:0:
256,0,149687,5,2,1:2:0:0:
58,47,149987,5,6,1:2:0:0:
23,120,150137,2,0,P|69:126|111:107,1,95,2|2,2:0|2:0,2:0:0:0:
197,70,150437,1,2,2:0:0:0:
156,0,150587,2,0,L|140:217,1,190,10|2,1:2|2:0,2:0:0:0:
44,226,151037,6,0,P|83:251|103:293,1,95,2|2,2:0|1:2,2:0:0:0:
222,193,151337,1,2,2:0:0:0:
175,264,151487,2,0,L|268:278,1,95,2|2,2:0|2:0,2:0:0:0:
111,333,151787,2,0,L|298:362,1,190,10|2,1:2|2:0,2:0:0:0:
358,189,152237,1,0,2:0:0:0:
443,330,152387,5,6,1:2:0:0:
478,259,152537,2,0,P|432:253|390:272,1,95,2|2,2:0|2:0,2:0:0:0:
304,309,152837,1,2,2:0:0:0:
345,379,152987,2,0,L|361:162,1,190,10|2,1:2|2:0,2:0:0:0:
322,91,153437,2,0,P|365:110|412:105,1,95,2|2,2:0|1:2,2:0:0:0:
478,57,153737,1,2,2:0:0:0:
457,195,153887,2,0,P|474:152|512:125,1,95,2|2,2:0|2:0,2:0:0:0:
358,189,154187,2,0,P|386:225|390:271,1,95,10|2,1:2|2:0,2:0:0:0:
381,40,154487,5,2,2:0:0:0:
381,40,154787,5,6,1:2:0:0:
302,146,154937,2,0,B|250:172|208:134|224:114|183:76|133:102,1,190,2|2,2:0|2:0,2:0:0:0:
82,45,155387,2,0,B|8:17|8:17|43:122,1,190,10|2,1:2|2:0,2:0:0:0:
0,199,155837,2,0,P|89:216|122:301,1,190,2|2,2:0|2:0,2:0:0:0:
83,383,156287,2,0,L|179:372,1,95,2|2,2:0|2:0,2:0:0:0:
275,383,156587,2,0,P|252:341|254:294,1,95,10|0,1:2|2:0,2:0:0:0:
188,263,156887,1,2,2:0:0:0:
188,263,157187,6,0,L|0:284,1,190,6|2,1:2|2:0,2:0:0:0:
250,49,157787,6,0,B|296:19|339:30|370:93|354:98|349:117|376:170|421:188|471:165,1,285,10|0,1:2|2:0,2:0:0:0:
460,89,158387,2,0,P|366:104|274:127,1,190,2|2,1:2|2:0,2:0:0:0:
322,195,158837,1,0,2:0:0:0:
221,0,158987,6,0,B|175:-30|132:-18|101:45|117:50|122:69|95:122|50:139|-6:102,1,285,10|0,1:2|2:0,2:0:0:0:
6,31,159587,6,0,P|98:55|191:70,1,190,6|2,1:2|2:0,2:0:0:0:
460,89,160187,2,0,P|366:104|274:128,1,190,10|2,1:2|2:0,2:0:0:0:
294,42,160637,1,0,0:0:0:0:
191,70,160787,6,0,P|163:108|162:154,1,95,2|0,1:2|2:0,2:0:0:0:
133,17,161087,2,0,P|179:21|220:0,1,95,2|0,2:0|2:0,2:0:0:0:
76,83,161387,6,0,L|101:271,1,190,10|2,1:2|2:0,2:0:0:0:
13,199,161837,1,0,0:0:0:0:
6,286,161987,6,0,P|96:302|138:383,1,190,6|2,1:2|2:0,2:0:0:0:
228,372,162437,1,0,0:0:0:0:
347,194,162587,2,0,P|256:210|214:291,1,190,10|2,1:2|2:0,2:0:0:0:
234,127,163037,1,0,0:0:0:0:
318,109,163187,6,0,P|345:147|346:193,1,95,2|0,1:2|2:0,2:0:0:0:
376,56,163487,2,0,P|329:60|288:38,1,95,2|0,2:0|2:0,2:0:0:0:
392,132,163787,2,0,P|411:89|451:64,1,95,10|0,1:2|2:0,2:0:0:0:
318,109,164087,2,0,P|345:147|346:193,1,95,2|0,2:0|2:0,2:0:0:0:
239,101,164387,6,0,L|144:90,1,95,6|0,1:2|2:0,2:0:0:0:
22,156,164687,2,0,L|116:166,1,95,2|0,2:0|2:0,2:0:0:0:
239,101,164987,1,10,1:2:0:0:
71,248,165287,6,0,B|38:277|-9:291|-9:291|21:385,1,190,2|2,2:0|1:2,2:0:0:0:
116,166,165737,1,0,2:0:0:0:
229,313,165887,6,0,P|201:274|200:228,1,95,2|0,2:0|2:0,2:0:0:0:
171,366,166187,2,0,P|217:361|258:383,1,95,10|0,1:2|2:0,2:0:0:0:
136,300,166487,6,0,L|161:111,1,190,2|2,2:0|1:2,2:0:0:0:
239,218,166937,1,0,2:0:0:0:
283,71,167087,6,0,P|310:109|311:155,1,95,2|0,2:0|2:0,2:0:0:0:
252,0,167387,2,0,P|294:22|341:18,1,95,10|0,1:2|2:0,2:0:0:0:
376,84,167687,6,0,L|350:271,1,190,2|2,2:0|1:2,2:0:0:0:
260,111,168137,1,0,2:0:0:0:
256,273,168287,6,0,P|260:319|238:360,1,95,2|0,2:0|2:0,2:0:0:0:
87,168,168587,2,0,L|276:193,1,190,14|2,1:3|2:0,2:0:0:0:
344,160,169037,1,2,2:0:0:0:
428,298,169187,5,6,1:2:0:0:
370,238,169337,2,0,P|348:279|350:326,1,95,2|2,2:0|2:0,2:0:0:0:
444,220,169637,1,2,2:0:0:0:
430,131,169787,6,0,P|390:156|343:159,1,95,10|2,1:2|2:0,2:0:0:0:
512,99,170087,1,2,2:0:0:0:
464,31,170237,2,0,L|443:219,1,190,2|2,2:0|2:0,2:0:0:0:
371,76,170687,5,2,2:0:0:0:
443,219,170837,1,2,2:0:0:0:
464,31,170987,5,10,1:2:0:0:
443,219,171137,1,2,2:0:0:0:
290,106,171287,1,2,2:0:0:0:
84,86,171587,5,2,1:2:0:0:
142,146,171737,2,0,P|163:104|161:57,1,95,2|2,2:0|2:0,2:0:0:0:
68,164,172037,1,2,2:0:0:0:
81,251,172187,2,0,P|121:226|168:224,1,95,10|0,1:2|2:0,2:0:0:0:
142,146,172487,1,2,2:0:0:0:
68,164,172637,2,0,L|48:353,1,190,2|2,2:0|2:0,2:0:0:0:
149,308,173087,5,2,2:0:0:0:
167,223,173237,1,2,2:0:0:0:
48,352,173387,2,0,P|134:324|204:382,1,190,10|2,1:2|2:0,2:0:0:0:
169,82,173987,5,2,1:2:0:0:
210,146,174137,2,0,B|262:172|304:134|288:114|329:76|379:102,1,190,2|2,2:0|2:0,2:0:0:0:
430,45,174587,2,0,B|504:17|504:17|469:122,1,190,10|2,1:2|2:0,2:0:0:0:
358,189,175037,1,2,2:0:0:0:
210,146,175187,6,0,P|227:189|218:235,1,95,2|0,1:2|2:0,2:0:0:0:
358,220,175487,2,0,P|311:214|274:184,1,95,2|0,2:0|2:0,2:0:0:0:
219,311,175787,2,0,P|247:273|291:258,1,95,10|0,1:2|2:0,2:0:0:0:
343,135,176087,1,2,2:0:0:0:
300,343,176387,6,0,L|488:364,1,190,2|2,1:2|2:0,2:0:0:0:
262,49,176987,6,0,B|216:19|173:30|142:93|158:98|163:117|136:170|91:188|41:165,1,285,10|0,1:2|2:0,2:0:0:0:
52,89,177587,2,0,P|146:104|238:127,1,190,2|2,1:2|2:0,2:0:0:0:
321,83,178037,1,0,2:0:0:0:
400,327,178187,6,0,B|354:357|311:345|280:282|296:277|301:258|274:205|229:188|173:225,1,285,14|0,1:2|2:0,2:0:0:0:
185,296,178787,2,0,P|277:272|370:257,1,190,6|2,1:2|2:0,2:0:0:0:
444,124,179237,1,0,2:0:0:0:
364,115,179387,2,0,P|400:143|417:187,1,95,10|0,1:2|2:0,2:0:0:0:
403,46,179687,2,0,P|359:62|312:55,1,95,2|0,2:0|2:0,2:0:0:0:
265,0,179987,6,0,L|289:188,1,190,2|2,1:2|2:0,2:0:0:0:
163,337,180587,2,0,L|138:148,1,190,10|2,1:2|2:0,2:0:0:0:
71,292,181037,6,0,L|58:197,1,95,2|2,2:0|1:2,2:0:0:0:
174,256,181337,1,2,2:0:0:0:
101,384,181487,2,0,P|56:367|10:374,1,95,2|0,2:0|2:0,2:0:0:0:
163,337,181787,2,0,L|257:324,1,95,10|0,1:2|2:0,2:0:0:0:
340,372,182087,6,0,P|340:304|394:261,1,142.5,2|0,2:0|2:0,2:0:0:0:
413,338,182387,6,0,L|389:149,1,190,2|2,1:2|2:0,2:0:0:0:
174,0,182987,2,0,L|197:188,1,190,10|2,1:2|2:0,2:0:0:0:
99,66,183437,2,0,L|110:160,1,95,2|6,2:0|1:2,2:0:0:0:
285,247,183737,1,2,2:0:0:0:
285,247,183887,2,0,P|278:202|296:152,1,95,2|0,2:0|2:0,2:0:0:0:
254,81,184187,2,0,P|298:97|344:90,1,95,10|0,1:2|2:0,2:0:0:0:
413,57,184487,2,0,P|396:101|403:147,1,95,2|0,2:0|2:0,2:0:0:0:
488,110,184787,6,0,L|466:310,1,190,2|2,1:2|2:0,2:0:0:0:
170,384,185387,2,0,L|190:195,1,190,10|2,1:2|2:0,2:0:0:0:
343,37,185987,6,0,B|474:9|474:9|402:146,1,285,2|2,1:2|2:0,2:0:0:0:
337,194,186587,6,0,P|366:240|368:280,1,95,10|0,1:2|2:0,2:0:0:0:
180,115,186887,2,0,P|209:69|211:28,1,95,2|0,2:0|2:0,2:0:0:0:
189,195,187187,6,0,L|1:223,1,190,2|2,1:2|3:2,2:0:0:0:
119,127,187637,1,0,3:0:0:0:
322,195,187787,6,0,L|512:224,1,190,14|2,1:3|3:2,2:0:0:0:
393,127,188237,1,0,3:0:0:0:
304,272,188387,6,0,P|326:312|323:359,1,95,6|0,1:2|2:0,2:0:0:0:
208,272,188687,2,0,P|185:312|188:359,1,95,10|8,2:0|2:3,2:0:0:0:
322,195,188987,2,0,P|368:192|412:225,1,95,10|8,1:2|2:3,2:0:0:0:
190,195,189287,2,0,P|144:192|99:225,1,95,10|10,2:0|2:3,2:0:0:0:
368,112,189587,6,0,L|384:16,1,95,6|2,1:2|2:0,2:0:0:0:
144,112,189887,2,0,L|128:18,1,95,6|2,2:0|2:0,2:0:0:0:
256,16,190187,2,0,L|256:206,1,190,10|2,1:2|2:0,2:0:0:0:
38,142,190637,5,2,2:0:0:0:
38,142,190712,1,2,2:0:0:0:
38,142,190787,2,0,L|54:238,1,95,6|0,1:2|2:0,2:0:0:0:
19,337,191087,2,0,P|61:316|108:320,1,95,10|8,2:0|2:3,2:0:0:0:
207,366,191387,2,0,L|183:225,1,142.5,10|0,1:2|2:0,2:0:0:0:
183,225,191687,2,0,P|156:204|148:178,1,47.5,10|0,2:0|0:0,0:0:0:0:
221,127,191837,5,10,2:3:0:0:
221,127,191912,1,2,2:0:0:0:
220,126,191987,2,0,P|248:163|290:184,1,95,6|2,1:2|2:0,2:0:0:0:
359,257,192287,2,0,P|312:262|272:288,1,95,14|2,2:0|2:0,2:0:0:0:
167,315,192587,2,0,P|185:271|182:224,1,95,10|10,1:2|2:3,2:0:0:0:
354,83,192887,2,0,P|351:130|369:173,1,95,10|0,2:0|0:0,0:0:0:0:
214,93,193187,6,0,P|231:49|229:3,1,95,6|0,1:2|2:0,2:0:0:0:
481,97,193487,2,0,P|414:116|353:82,1,142.5,10|8,2:0|2:3,2:0:0:0:
353,82,193787,2,0,P|360:128|345:172,1,95,10|8,1:2|2:3,2:0:0:0:
217,242,194087,2,0,P|263:235|306:254,1,95,10|8,2:0|2:3,2:0:0:0:
342,384,194387,6,0,P|337:361|337:337,1,47.5,6|0,1:2|0:0,2:0:0:0:
355,317,194537,2,0,P|372:301|393:289,1,47.5,2|0,2:0|0:0,0:0:0:0:
501,218,194687,2,0,P|455:225|412:206,1,95,14|10,2:0|2:3,2:0:0:0:
337,178,194987,2,0,L|148:201,1,190,10|10,1:2|2:0,2:0:0:0:
172,291,195437,5,10,2:3:0:0:
172,291,195512,1,2,2:0:0:0:
172,291,195587,1,6,1:2:0:0:
68,364,195737,2,0,P|86:321|77:275,1,95,2|10,2:0|2:0,2:0:0:0:
45,183,196037,2,0,P|88:201|134:192,1,95,10|10,2:3|1:2,2:0:0:0:
305,221,196337,1,8,2:3:0:0:
253,291,196487,2,0,L|266:384,1,95,10|8,2:0|2:3,2:0:0:0:
248,147,196787,6,0,L|261:53,1,95,6|2,1:2|2:0,2:0:0:0:
261,53,197012,1,2,2:0:0:0:
261,53,197087,1,14,2:0:0:0:
283,257,197237,1,2,2:0:0:0:
211,217,197387,6,0,L|117:230,1,95,10|10,1:2|2:3,2:0:0:0:
1,181,197687,2,0,P|25:220|19:266,1,95,10|8,2:0|2:3,2:0:0:0:
74,337,197987,1,6,1:2:0:0:
73,337,198287,6,0,P|114:314|161:318,1,95,10|8,2:0|2:3,2:0:0:0:
161,318,198512,1,8,2:3:0:0:
161,318,198587,2,0,L|182:182,1,95,10|8,1:2|2:3,2:0:0:0:
102,142,198887,2,0,L|87:235,1,95,10|10,2:0|2:3,2:0:0:0:
180,139,199187,6,0,P|191:118|194:94,1,47.5,6|0,1:2|0:0,2:0:0:0:
239,24,199337,2,0,P|252:44|271:58,1,47.5,2|0,2:0|0:0,0:0:0:0:
328,211,199487,2,0,P|293:178|247:168,1,95,14|10,2:0|2:3,2:0:0:0:
313,48,199787,2,0,P|301:94|314:139,1,95,10|8,1:2|2:3,2:0:0:0:
290,275,200087,2,0,P|333:259|379:270,1,95,10|8,2:0|2:3,2:0:0:0:
441,228,200387,1,6,1:2:0:0:
339,337,200687,6,8,L|345:384,3,47.5,10|8|8|8,2:0|2:0|2:3|2:3,2:0:0:0:
264,367,200987,6,0,L|170:352,1,95,10|8,1:2|2:3,2:0:0:0:
54,368,201287,6,0,P|69:348|74:326,1,47.5,10|0,2:0|0:0,2:0:0:0:
93,322,201437,2,0,P|83:299|67:283,1,47.5,10|0,2:3|0:0,0:0:0:0:
138,228,201587,6,0,L|231:242,1,95,6|2,1:2|2:0,2:0:0:0:
344,319,201887,6,0,P|329:299|324:277,1,47.5,14|0,2:0|0:0,2:0:0:0:
305,273,202037,2,0,P|315:250|331:234,1,47.5,2|0,2:0|0:0,0:0:0:0:
269,169,202187,2,0,L|260:74,1,95,10|0,1:2|0:0,0:0:0:0:
345,41,202487,5,10,2:0:0:0:
170,125,202637,1,2,0:0:0:0:
330,234,202787,1,4,2:0:0:0:
256,192,202937,12,0,206987,2:0:0:0:
