osu file format v14

[General]
AudioFilename: audio.mp3
AudioLeadIn: 0
PreviewTime: 35941
Countdown: 0
SampleSet: Soft
StackLeniency: 0.7
Mode: 0
LetterboxInBreaks: 0
WidescreenStoryboard: 1

[Editor]
DistanceSpacing: 1
BeatDivisor: 4
GridSize: 32
TimelineZoom: 1

[Metadata]
Title:Kaibutsu (TV Size)
TitleUnicode:怪物 (TV Size)
Artist:YOASOBI
ArtistUnicode:YOASOBI
Creator:eiri-
Version:Wanpachi's Normal
Source:BEASTARS
Tags:Ayyri Wanpachi Cycopton Battle ビースターズ Japanese Anime Furry Opening Pop 幾田りら Ikuta Rira Lilas Ayase Monster
BeatmapID:2753522
BeatmapSetID:1329273

[Difficulty]
HPDrainRate:4
CircleSize:3
OverallDifficulty:4.5
ApproachRate:5
SliderMultiplier:1
SliderTickRate:1

[Events]
//Background and Video events
0,0,"Legoshi Louis 785.jpg",0,0
Video,200,"OP.mp4"
//Break Periods
//Storyboard Layer 0 (Background)
//Storyboard Layer 1 (Fail)
//Storyboard Layer 2 (Pass)
//Storyboard Layer 3 (Foreground)
//Storyboard Layer 4 (Overlay)
//Storyboard Sound Samples

[TimingPoints]
1706,352.941176470588,4,2,1,40,1,0
2412,352.941176470588,4,2,1,60,1,0
13706,-100,4,2,1,70,0,0
25000,-111.111111111111,4,2,1,60,0,0
30647,-100,4,2,1,75,0,0
35941,-100,4,2,1,60,0,0
36294,-90.9090909090909,4,2,1,80,0,1
56059,-100,4,2,1,80,0,0
67353,-90.9090909090909,4,2,1,80,0,1
75823,-100,4,2,1,80,0,0
84293,-111.111111111111,4,2,1,70,0,0
87117,-100,4,2,1,90,0,0

[Colours]
Combo1 : 241,73,73
Combo2 : 69,215,231
Combo3 : 221,55,105
Combo4 : 140,72,215

[HitObjects]
466,338,2411,6,0,P|408:357|359:336,1,100,10|10,0:0|0:0,0:0:0:0:
301,275,3117,2,0,P|243:256|194:277,1,100,10|10,0:0|0:0,0:0:0:0:
135,337,3823,2,0,P|124:288|106:241,1,100,10|8,0:0|0:0,0:0:0:0:
116,191,4353,1,2,0:0:0:0:
49,116,4706,1,2,0:0:0:0:
111,37,5059,6,0,P|173:52|229:46,1,100,2|2,0:0|0:0,0:0:0:0:
251,24,5588,1,8,0:0:0:0:
344,58,5941,2,0,P|364:101|341:154,1,100,10|10,0:0|0:0,0:0:0:0:
308,240,6647,2,0,P|367:251|430:272,1,100,10|8,0:0|0:0,0:0:0:0:
435,302,7176,2,0,P|414:360|360:363,1,100,2|2,0:0|0:0,0:0:0:0:
334,350,7706,1,10,0:0:0:0:
235,368,8059,6,0,P|162:349|110:341,1,100,10|10,0:0|0:0,0:0:0:0:
67,274,8764,2,0,P|140:255|192:247,1,100,10|10,0:0|0:0,0:0:0:0:
222,168,9470,2,0,P|199:126|228:88,1,100,10|10,0:0|0:0,0:0:0:0:
277,85,10000,1,2,0:0:0:0:
370,120,10353,1,2,0:0:0:0:
465,89,10706,6,0,P|448:149|445:201,1,100,2|2,0:0|0:0,0:0:0:0:
480,221,11235,1,10,0:0:0:0:
403,285,11588,1,8,0:0:0:0:
307,256,11941,2,0,P|283:265|259:272,1,50,10|2,0:0|0:0,0:0:0:0:
225,308,12294,2,0,P|178:289|130:275,1,100,10|10,0:0|0:0,0:0:0:0:
80,282,12823,1,2,0:0:0:0:
25,198,13176,1,2,0:0:0:0:
121,82,13706,6,0,P|172:67|209:123,1,100,14|2,0:0|1:2,0:0:0:0:
246,121,14235,1,2,0:0:0:0:
246,121,14411,2,0,P|226:179|224:229,1,100,10|2,0:0|1:2,0:0:0:0:
299,282,15117,2,0,P|365:279|385:337,1,100,10|0,0:0|1:0,0:0:0:0:
394,350,15647,1,2,0:0:0:0:
488,318,16000,1,2,0:0:0:0:
470,219,16353,6,0,P|487:160|493:119,1,100,2|2,0:0|0:0,0:0:0:0:
462,81,16882,1,0,1:0:0:0:
376,132,17235,2,0,P|328:109|322:56,1,100,10|2,0:0|1:2,0:0:0:0:
286,28,17764,1,2,0:0:0:0:
286,28,17941,2,0,P|263:16|239:10,1,50,10|2,0:0|0:0,0:0:0:0:
168,81,18470,2,0,P|123:103|74:115,1,100,2|2,0:0|0:0,0:0:0:0:
24,112,19000,1,2,1:2:0:0:
3,209,19353,6,0,P|23:257|82:253,1,100,10|2,0:0|1:2,0:0:0:0:
112,243,19882,1,2,0:0:0:0:
112,243,20059,2,0,P|132:299|143:343,1,100,10|2,0:0|1:2,0:0:0:0:
186,357,20588,2,0,P|234:364|266:328,1,100,2|2,0:0|0:0,0:0:0:0:
268,282,21117,1,2,1:2:0:0:
268,282,21294,1,2,0:0:0:0:
363,251,21647,2,0,P|395:259|424:262,1,50,2|2,0:0|1:2,0:0:0:0:
459,275,22000,6,0,P|496:234|482:189,1,100,2|2,0:0|0:0,0:0:0:0:
450,159,22529,1,2,1:2:0:0:
489,67,22882,1,10,0:0:0:0:
400,21,23235,2,0,P|374:27|336:33,1,50,2|2,1:2|0:0,0:0:0:0:
301,21,23588,1,10,0:0:0:0:
234,95,23941,1,2,1:2:0:0:
289,178,24294,2,0,P|277:228|271:290,1,100,10|2,0:0|1:2,0:0:0:0:
295,379,25000,5,10,0:1:0:0:
160,366,25529,2,0,P|137:368|115:374,2,44.999998626709,10|2|10,1:1|0:0|0:1,0:0:0:0:
165,279,26235,1,10,0:1:0:0:
165,279,26411,2,0,P|120:284|76:295,1,89.9999972534181,2|2,0:0|1:2,0:0:0:0:
32,307,26941,1,2,1:2:0:0:
4,221,27294,2,0,P|38:184|28:113,1,89.9999972534181,10|2,0:1|0:0,0:0:0:0:
29,102,27823,6,0,P|86:83|134:79,1,89.9999972534181,10|2,0:1|1:2,0:0:0:0:
193,34,28529,2,0,P|215:37|236:45,1,44.999998626709,2|10,0:0|0:1,0:0:0:0:
311,105,29059,1,10,0:1:0:0:
311,105,29235,2,0,P|346:71|399:78,1,89.9999972534181,2|2,0:0|1:2,0:0:0:0:
415,104,29764,1,2,1:2:0:0:
462,180,30117,2,0,P|484:176|506:175,2,44.999998626709,2|10|2,0:0|0:1|0:0,0:0:0:0:
428,218,30647,6,0,P|443:281|438:330,1,100,14|2,0:0|1:2,0:0:0:0:
351,355,31353,1,10,0:0:0:0:
351,355,31529,1,2,0:0:0:0:
290,275,31882,2,0,P|237:285|222:336,1,100,2|2,0:0|0:0,0:0:0:0:
228,372,32411,1,2,1:2:0:0:
228,372,32588,2,0,P|164:357|111:352,1,100,2|2,1:2|0:0,0:0:0:0:
80,359,33117,1,2,1:2:0:0:
10,287,33470,6,0,P|4:252|41:200,1,100,10|2,0:0|1:2,0:0:0:0:
134,169,34176,1,10,0:0:0:0:
134,169,34353,2,0,P|117:114|115:55,1,100,2|2,0:0|0:0,0:0:0:0:
148,36,34882,2,0,B|202:28|242:4|242:4|249:59|273:98|273:98|312:75|367:67,1,300,8|2,0:0|0:1,0:0:0:0:
361,177,36294,5,14,0:0:0:0:
361,177,36470,2,0,P|354:228|423:244,1,110.000003356934,2|2,0:0|0:0,0:0:0:0:
449,229,37000,1,10,0:0:0:0:
463,119,37353,1,2,1:2:0:0:
463,119,37529,2,0,P|443:67|436:13,1,110.000003356934,2|2,0:0|0:0,0:0:0:0:
382,0,38059,2,0,P|354:3|329:13,1,55.0000016784668,2|2,1:2|0:0,0:0:0:0:
292,53,38411,1,10,0:0:0:0:
185,26,38764,1,2,1:2:0:0:
106,102,39117,5,14,0:0:0:0:
106,102,39294,2,0,P|116:153|122:221,1,110.000003356934,2|2,0:0|0:0,0:0:0:0:
106,263,39823,1,10,0:0:0:0:
194,337,40176,1,2,1:2:0:0:
194,337,40353,2,0,P|245:332|241:259,1,110.000003356934,2|2,0:0|0:0,0:0:0:0:
279,230,40882,2,0,P|309:218|360:211,1,55.0000016784668,2|2,1:2|0:0,0:0:0:0:
373,178,41235,2,0,P|399:184|425:194,2,55.0000016784668,10|2|2,0:0|0:0|1:2,0:0:0:0:
306,89,41941,6,0,P|336:57|411:76,2,110.000003356934,14|2|10,0:0|1:2|0:0,0:0:0:0:
200,120,43000,1,2,1:2:0:0:
121,43,43353,2,0,P|71:67|15:82,1,110.000003356934,14|2,0:0|1:2,0:0:0:0:
80,172,44059,1,10,0:0:0:0:
36,272,44411,1,2,1:2:0:0:
142,299,44764,6,0,P|180:333|163:386,2,110.000003356934,14|2|10,0:0|1:2|0:0,0:0:0:0:
234,238,45823,1,2,1:2:0:0:
234,238,46000,2,0,P|286:259|371:268,1,110.000003356934,2|2,0:0|0:0,0:0:0:0:
388,244,46529,1,2,1:2:0:0:
388,244,46706,2,0,P|404:184|372:154,1,110.000003356934,2|2,0:0|1:2,0:0:0:0:
320,170,47235,1,2,1:2:0:0:
234,238,47588,6,0,P|245:292|246:360,1,110.000003356934,14|0,0:0|1:0,0:0:0:0:
193,359,48117,1,2,0:0:0:0:
193,359,48294,2,0,P|166:353|132:353,1,55.0000016784668,10|2,0:0|0:0,0:0:0:0:
64,278,48823,1,2,0:0:0:0:
64,278,49000,2,0,P|36:278|9:284,2,55.0000016784668,10|2|2,0:0|0:0|1:2,0:0:0:0:
106,243,49529,2,0,P|125:183|85:158,1,110.000003356934,2|2,0:0|0:0,0:0:0:0:
40,174,50059,1,2,1:2:0:0:
40,174,50235,6,0,P|32:113|20:51,1,110.000003356934,2|2,0:0|0:0,0:0:0:0:
56,22,50764,1,2,1:2:0:0:
56,22,50941,1,2,0:0:0:0:
157,64,51294,2,0,P|184:59|211:55,1,55.0000016784668,2|2,0:0|1:2,0:0:0:0:
250,16,51647,2,0,P|304:22|358:32,1,110.000003356934,2|2,0:0|0:0,0:0:0:0:
397,71,52176,1,2,1:2:0:0:
444,170,52529,2,0,P|439:197|435:224,1,55.0000016784668,10|2,0:0|0:0,0:0:0:0:
398,264,52882,2,0,P|402:291|406:318,1,55.0000016784668,2|2,1:2|0:0,0:0:0:0:
425,368,53235,6,0,P|479:363|500:306,2,110.000003356934,14|2|10,0:0|1:2|0:0,0:0:0:0:
320,335,54294,1,2,1:2:0:0:
217,375,54647,2,0,P|181:364|98:353,1,110.000003356934,14|2,0:0|1:2,0:0:0:0:
16,294,55353,1,10,0:0:0:0:
96,218,55706,1,2,1:2:0:0:
73,120,56059,5,14,0:0:0:0:
256,192,56235,12,10,58176,0:0:0:0:
252,75,58882,5,14,0:0:0:0:
340,28,59235,2,0,P|389:28|430:55,2,100,2|10|2,1:2|0:0|1:2,0:0:0:0:
252,75,60294,1,10,0:0:0:0:
171,15,60647,1,2,1:2:0:0:
91,75,61000,2,0,P|101:127|106:205,1,100,10|2,0:0|1:2,0:0:0:0:
82,271,61706,6,0,P|121:230|180:246,1,100,14|2,0:0|1:2,0:0:0:0:
232,302,62411,2,0,P|281:308|330:317,1,100,10|2,0:0|1:2,0:0:0:0:
421,360,63117,2,0,P|448:322|436:261,1,100,14|2,0:0|1:2,0:0:0:0:
458,172,63823,1,10,0:0:0:0:
361,145,64176,1,2,1:2:0:0:
409,57,64529,6,0,P|458:52|510:44,2,100,14|2|10,0:0|1:2|0:0,0:0:0:0:
323,6,65588,1,2,1:2:0:0:
249,73,65941,2,0,P|197:71|171:22,1,100,14|0,0:0|1:0,0:0:0:0:
133,12,66470,1,2,0:0:0:0:
133,12,66647,2,0,P|127:60|116:128,1,100,8|2,0:0|1:2,0:0:0:0:
66,209,67353,5,14,0:0:0:0:
66,209,67529,2,0,P|95:259|148:236,1,110.000003356934,2|2,0:0|0:0,0:0:0:0:
179,211,68059,1,10,0:0:0:0:
179,211,68235,1,2,0:0:0:0:
288,245,68588,1,2,0:0:0:0:
288,245,68764,2,0,P|289:272|286:304,2,55.0000016784668,10|2|2,0:0|0:0|1:2,0:0:0:0:
313,195,69294,2,0,P|371:182|396:240,1,110.000003356934,2|2,0:0|0:0,0:0:0:0:
441,250,69823,1,2,1:2:0:0:
441,250,70000,6,0,P|425:304|418:363,1,110.000003356934,2|2,0:0|0:0,0:0:0:0:
367,364,70529,1,2,1:2:0:0:
367,364,70706,1,2,0:0:0:0:
261,333,71059,2,0,P|232:337|200:344,1,55.0000016784668,2|2,0:0|1:2,0:0:0:0:
159,370,71411,2,0,P|114:335|129:290,1,110.000003356934,2|2,0:0|0:0,0:0:0:0:
176,264,71941,1,2,1:2:0:0:
91,193,72294,2,0,P|83:166|82:139,1,55.0000016784668,10|2,0:0|0:0,0:0:0:0:
118,97,72647,2,0,P|118:69|126:43,1,55.0000016784668,2|2,1:2|0:0,0:0:0:0:
83,12,73000,6,0,P|53:58|-1:45,2,110.000003356934,14|2|10,0:0|1:2|0:0,0:0:0:0:
195,27,74059,1,2,1:2:0:0:
301,0,74411,2,0,P|358:22|413:25,1,110.000003356934,14|2,0:0|1:2,0:0:0:0:
468,116,75117,1,10,0:0:0:0:
377,178,75470,1,2,0:0:0:0:
420,279,75823,6,0,P|459:282|507:294,2,75,14|2|2,0:1|0:1|0:1,0:0:0:0:
371,290,76529,2,0,P|323:245|327:209,1,100,10|2,0:1|1:1,0:0:0:0:
347,170,77059,1,2,0:1:0:0:
347,170,77235,2,0,P|386:167|434:155,2,75,14|2|2,0:1|0:1|0:1,0:0:0:0:
305,142,77941,1,10,0:1:0:0:
213,181,78294,1,2,1:1:0:0:
144,107,78647,6,0,P|149:56|151:28,2,75,14|2|2,0:1|0:1|0:1,0:0:0:0:
100,131,79353,2,0,P|60:196|57:241,1,100,10|2,0:1|1:1,0:0:0:0:
86,258,79882,1,2,0:1:0:0:
86,258,80059,2,0,P|81:309|79:337,2,75,14|2|2,0:1|0:1|0:1,0:0:0:0:
134,245,80764,1,10,0:1:0:0:
217,299,81117,1,2,1:1:0:0:
300,244,81470,6,0,P|285:194|285:160,2,75,14|2|2,0:1|0:1|0:1,0:0:0:0:
337,277,82176,2,0,P|362:234|422:242,1,100,10|2,0:1|1:1,0:0:0:0:
450,259,82706,1,2,0:1:0:0:
450,259,82882,2,0,P|435:309|435:343,2,75,14|2|2,0:1|0:1|0:1,0:0:0:0:
497,243,83588,1,10,0:1:0:0:
504,143,83941,1,2,1:1:0:0:
441,78,84294,6,0,P|436:44|435:10,2,67.4999979400635,14|2|2,0:1|0:1|0:1,0:0:0:0:
399,95,85000,2,0,P|355:61|323:73,1,89.9999972534181,2|2,0:1|0:1,0:0:0:0:
248,115,85706,2,0,P|243:148|242:182,2,67.4999979400635,10|2|2,0:1|0:1|0:1,0:0:0:0:
206,98,86412,2,0,P|162:132|130:120,1,89.9999972534181,2|2,0:1|0:1,0:0:0:0:
104,96,86941,1,2,0:1:0:0:
104,96,87117,5,14,0:1:0:0:
