osu file format v14

[General]
AudioFilename: audio.mp3
AudioLeadIn: 0
PreviewTime: 35941
Countdown: 0
SampleSet: Soft
StackLeniency: 0.5
Mode: 0
LetterboxInBreaks: 0
WidescreenStoryboard: 0

[Editor]
Bookmarks: 1706,2412,8059,13706,19353,25000,30647,36294,47235,47588,56059,61706,67353,75823,80059,84294,87117
DistanceSpacing: 0.9
BeatDivisor: 4
GridSize: 32
TimelineZoom: 2.1

[Metadata]
Title:Kaibutsu (TV Size)
TitleUnicode:怪物 (TV Size)
Artist:YOASOBI
ArtistUnicode:YOASOBI
Creator:eiri-
Version:Love
Source:BEASTARS
Tags:Ayyri Wanpachi Cycopton Battle ビースターズ Japanese Anime Furry Opening Pop 幾田りら Ikuta Rira Lilas Ayase Monster
BeatmapID:2753521
BeatmapSetID:1329273

[Difficulty]
HPDrainRate:5
CircleSize:5
OverallDifficulty:8.5
ApproachRate:9
SliderMultiplier:1.6
SliderTickRate:1

[Events]
//Background and Video events
0,0,"Legoshi Louis 785.jpg",0,0
Video,200,"OP.mp4"
//Break Periods
//Storyboard Layer 0 (Background)
//Storyboard Layer 1 (Fail)
//Storyboard Layer 2 (Pass)
//Storyboard Layer 3 (Foreground)
//Storyboard Layer 4 (Overlay)
//Storyboard Sound Samples

[TimingPoints]
1706,352.941176470588,4,2,1,40,1,0
1706,-1000,4,2,1,40,0,0
2412,352.941176470588,4,2,1,60,1,0
2412,-133.333333333333,4,2,1,60,0,0
13353,-200,4,2,1,60,0,0
13706,-125,4,2,1,70,0,0
25000,-111.111111111111,4,2,1,60,0,0
30647,-100,4,2,1,75,0,0
35941,-100,4,2,1,60,0,0
36294,-66.6666666666667,4,2,1,80,0,1
47235,-66.6666666666667,4,2,1,80,0,0
47588,-66.6666666666667,4,2,1,80,0,1
56059,-80,4,2,1,80,0,0
67353,-66.6666666666667,4,2,1,80,0,1
75823,-66.6666666666667,4,2,1,80,0,0
84293,-80,4,2,1,70,0,0
87117,-80,4,2,1,90,0,0

[Colours]
Combo1 : 241,73,73
Combo2 : 69,215,231
Combo3 : 221,55,105
Combo4 : 140,72,215

[HitObjects]
414,366,1706,6,2,L|419:342,1,24,2|0,0:0|0:0,0:1:0:0:
415,312,2412,5,10,0:0:0:0:
315,288,2588,1,0,0:0:0:0:
385,218,2764,5,10,0:0:0:0:
485,194,2940,1,2,0:0:0:0:
415,124,3118,5,10,0:0:0:0:
315,100,3294,1,0,0:0:0:0:
385,30,3471,5,10,0:0:0:0:
485,6,3647,1,2,0:0:0:0:
427,101,3823,6,0,L|417:31,2,60.0000022888184,10|0|8,0:0|0:0|0:0,0:0:0:0:
303,176,4353,2,0,P|281:170|221:163,1,60.0000022888184,2|8,0:0|0:0,0:0:0:0:
175,225,4706,2,0,P|153:231|93:238,1,60.0000022888184,2|8,0:0|0:0,0:0:0:0:
0,192,5059,1,2,0:0:0:0:
0,192,5411,5,2,0:0:0:0:
96,160,5588,1,8,0:0:0:0:
169,256,5764,5,2,0:0:0:0:
73,224,5941,1,10,0:0:0:0:
0,320,6117,5,2,0:0:0:0:
96,288,6294,1,10,0:0:0:0:
169,384,6470,5,2,0:0:0:0:
73,352,6647,2,0,L|6:365,1,60.0000022888184,10|2,0:0|0:0,0:0:0:0:
46,375,7176,6,0,L|113:362,2,60.0000022888184,2|10|2,0:0|0:0|0:0,0:0:0:0:
11,290,7706,1,10,0:0:0:0:
46,375,7882,1,2,0:0:0:0:
11,290,8059,5,10,0:0:0:0:
117,319,8235,1,0,0:0:0:0:
128,224,8411,5,10,0:0:0:0:
234,195,8587,1,2,0:0:0:0:
245,290,8764,5,10,0:0:0:0:
351,319,8940,1,2,0:0:0:0:
362,224,9117,5,10,0:0:0:0:
468,195,9293,1,2,0:0:0:0:
479,290,9470,5,10,0:0:0:0:
345,204,9647,1,0,0:0:0:0:
484,219,9823,1,10,0:0:0:0:
333,337,10000,1,2,0:0:0:0:
333,337,10353,6,0,L|412:319,1,60.0000022888184,2|8,0:0|0:0,0:0:0:0:
311,268,10706,2,0,P|250:251|178:240,1,120.000004577637,2|2,0:0|0:0,0:0:0:0:
194,242,11235,2,0,L|203:157,2,60.0000022888184,10|0|8,0:0|0:0|0:0,0:0:0:0:
132,202,11764,1,2,0:0:0:0:
132,202,11940,2,0,L|123:117,1,60.0000022888184,10|2,0:0|0:0,0:0:0:0:
224,96,12294,5,10,0:0:0:0:
128,64,12470,1,2,0:0:0:0:
224,96,12647,5,10,0:0:0:0:
128,64,12823,1,2,0:0:0:0:
128,64,13176,1,2,0:0:0:0:
224,96,13353,6,0,L|227:67,1,20,2|0,0:3|0:0,0:0:0:0:
226,76,13706,5,14,0:0:0:0:
258,168,13882,1,0,0:0:0:0:
316,128,14059,5,2,1:2:0:0:
191,93,14235,1,2,0:0:0:0:
170,164,14411,5,10,0:0:0:0:
302,55,14588,1,2,0:0:0:0:
210,226,14764,5,2,1:2:0:0:
235,31,14941,1,2,0:0:0:0:
327,201,15117,6,0,P|342:139|374:63,1,128,10|0,0:0|1:0,0:0:0:0:
366,79,15647,2,0,L|374:150,1,64,2|8,0:0|0:0,0:0:0:0:
289,193,16000,2,0,L|281:264,1,64,2|0,0:0|1:0,0:0:0:0:
456,301,16353,1,2,0:0:0:0:
456,301,16706,5,2,0:0:0:0:
428,208,16882,1,0,1:0:0:0:
384,268,17059,5,2,0:0:0:0:
510,206,17235,1,10,0:0:0:0:
470,147,17411,5,2,0:0:0:0:
454,313,17588,1,2,1:2:0:0:
440,113,17764,1,2,0:0:0:0:
463,288,17941,5,10,0:0:0:0:
479,178,18117,1,2,0:0:0:0:
479,178,18470,6,0,L|494:247,2,64,2|10|2,0:0|0:0|0:0,0:0:0:0:
440,113,19000,2,0,L|455:44,1,64,2|2,1:2|0:0,0:0:0:0:
507,117,19353,6,0,P|473:144|411:146,1,96,10|0,0:0|0:0,0:0:0:0:
364,115,19706,2,0,P|330:88|268:86,1,96,2|0,1:2|0:0,0:0:0:0:
242,140,20059,2,0,P|252:165|258:205,2,64,10|2|2,0:0|0:0|1:2,0:0:0:0:
52,172,20588,6,0,P|115:173|178:189,1,128,2|2,0:0|0:0,0:0:0:0:
129,244,21117,1,2,1:2:0:0:
238,300,21294,1,2,0:0:0:0:
238,300,21647,6,0,L|232:372,1,64,2|2,0:0|1:2,0:0:0:0:
328,380,22000,2,0,P|376:363|367:288,1,128,2|2,0:0|0:0,0:0:0:0:
317,251,22529,2,0,L|311:179,1,64,2|0,1:2|0:0,0:0:0:0:
253,155,22882,1,10,0:0:0:0:
253,155,23059,2,0,L|259:83,1,64,2|0,0:0|1:0,0:0:0:0:
224,32,23411,1,2,0:0:0:0:
147,194,23588,6,0,P|103:183|56:182,1,64,10|0,0:0|0:0,0:0:0:0:
20,114,23941,2,0,P|61:95|107:86,1,64,2|0,1:2|0:0,0:0:0:0:
169,26,24294,2,0,P|128:7|82:-2,1,64,10|0,0:0|0:0,0:0:0:0:
253,100,24647,2,0,L|236:-8,1,96,2|0,1:2|0:0,0:0:0:0:
238,5,25000,5,10,0:1:0:0:
416,32,25353,1,2,1:2:0:0:
416,32,25529,2,0,L|495:21,2,71.9999978027344,10|2|10,1:1|0:0|0:1,0:0:0:0:
320,96,26235,1,10,0:1:0:0:
320,96,26411,6,0,P|338:147|344:187,1,71.9999978027344,2|2,0:0|0:0,0:0:0:0:
325,238,26764,1,2,1:2:0:0:
448,192,26941,1,2,1:2:0:0:
480,352,27294,1,10,0:1:0:0:
480,352,27470,2,0,L|490:260,1,71.9999978027344,2|2,1:2|0:0,0:0:0:0:
368,380,27823,5,10,0:1:0:0:
327,203,28176,1,2,1:2:0:0:
327,203,28353,2,0,L|417:212,1,71.9999978027344,10|2,1:1|0:0,0:0:0:0:
288,128,28706,1,10,0:1:0:0:
181,274,29059,1,10,0:1:0:0:
181,274,29235,6,0,L|164:176,1,71.9999978027344,2|2,0:0|0:0,0:0:0:0:
112,153,29588,1,2,1:2:0:0:
224,64,29764,2,0,L|218:150,1,71.9999978027344,2|10,1:2|0:1,0:0:0:0:
55,102,30117,1,2,0:0:0:0:
142,79,30294,1,10,0:1:0:0:
64,224,30470,1,2,0:0:0:0:
64,224,30647,6,0,P|91:273|117:343,1,120,14|0,0:0|0:0,0:0:0:0:
129,379,31000,1,2,1:2:0:0:
177,250,31176,1,2,1:2:0:0:
242,303,31353,1,10,0:0:0:0:
184,226,31529,2,0,L|202:116,1,80,2|0,0:0|1:0,0:0:0:0:
149,45,31882,6,0,L|255:28,1,80,2|8,0:0|0:0,0:0:0:0:
326,108,32235,1,2,0:0:0:0:
235,164,32411,1,2,1:2:0:0:
326,108,32588,2,0,L|247:95,1,80,2|8,1:2|0:0,0:0:0:0:
109,131,32941,1,2,0:0:0:0:
157,53,33117,1,2,1:2:0:0:
198,184,33294,1,2,0:0:0:0:
150,25,33470,6,0,L|25:46,1,120,10|0,0:0|0:0,0:0:0:0:
41,109,33823,2,0,L|166:88,1,120,2|0,1:2|0:0,0:0:0:0:
233,124,34176,1,10,0:0:0:0:
184,202,34353,2,0,P|131:171|146:135,1,80,2|0,0:0|1:0,0:0:0:0:
310,206,34706,1,2,0:0:0:0:
267,268,35059,5,2,0:0:0:0:
271,149,35235,1,10,0:0:0:0:
288,293,35411,1,2,0:0:0:0:
261,122,35588,1,10,0:0:0:0:
241,380,35941,1,2,0:1:0:0:
271,4,36294,5,14,0:0:0:0:
335,91,36470,2,0,P|283:27|236:43,1,120.000004577637,2|0,0:0|1:0,0:0:0:0:
278,161,36823,1,2,0:0:0:0:
214,248,36999,2,0,P|266:184|313:200,1,120.000004577637,10|0,0:0|0:0,0:0:0:0:
271,318,37353,1,2,1:2:0:0:
192,127,37529,6,0,P|314:144|474:157,1,240.000009155274,2|2,0:0|0:0,0:0:0:0:
505,93,38059,1,2,1:2:0:0:
470,225,38235,1,2,0:0:0:0:
435,32,38411,2,0,L|290:52,1,120.000004577637,10|0,0:0|0:0,0:0:0:0:
298,204,38764,2,0,P|361:167|349:122,1,120.000004577637,2|0,1:2|0:0,0:0:0:0:
160,64,39117,5,14,0:0:0:0:
210,151,39294,2,0,P|197:82|156:6,1,120.000004577637,2|0,0:0|1:0,0:0:0:0:
352,64,39647,1,2,0:0:0:0:
302,151,39824,2,0,P|315:82|356:6,1,120.000004577637,10|0,0:0|0:0,0:0:0:0:
256,192,40176,1,2,1:2:0:0:
256,32,40353,2,0,L|256:168,1,120.000004577637,2|8,0:0|0:0,0:0:0:0:
256,352,40706,5,2,0:0:0:0:
383,335,40882,1,2,1:2:0:0:
240,273,41059,1,2,0:0:0:0:
329,379,41235,1,10,0:0:0:0:
352,192,41411,1,2,0:0:0:0:
378,310,41588,1,2,1:2:0:0:
390,220,41764,1,2,0:0:0:0:
224,288,41941,6,0,P|152:274|53:262,1,120.000004577637,14|0,0:0|0:0,0:0:0:0:
352,160,42294,2,0,P|280:174|181:186,1,120.000004577637,2|0,1:2|0:0,0:0:0:0:
416,384,42647,2,0,P|344:370|245:358,1,120.000004577637,10|0,0:0|0:0,0:0:0:0:
498,206,43000,2,0,L|474:-1,1,180.000006866455,2|0,1:2|0:0,0:0:0:0:
492,55,43353,6,0,L|477:200,1,120.000004577637,14|0,0:0|0:0,0:0:0:0:
352,20,43706,2,0,L|388:162,1,120.000004577637,2|0,1:2|0:0,0:0:0:0:
138,82,44059,2,0,L|153:227,1,120.000004577637,10|0,0:0|0:0,0:0:0:0:
278,47,44412,2,0,L|242:189,1,120.000004577637,2|0,1:2|0:0,0:0:0:0:
352,320,44764,6,0,P|253:290|90:275,1,240.000009155274,14|2,0:0|1:2,0:0:0:0:
32,320,45294,1,2,0:0:0:0:
64,192,45470,2,0,L|32:51,1,120.000004577637,10|0,0:0|0:0,0:0:0:0:
49,218,45823,1,2,1:2:0:0:
232,142,46000,6,0,L|205:420,1,240.000009155274,2|2,0:0|0:0,0:0:0:0:
141,316,46529,1,2,1:2:0:0:
352,288,46706,1,2,0:0:0:0:
289,368,46882,1,10,0:0:0:0:
261,213,47059,1,2,1:2:0:0:
261,213,47147,1,2,1:2:0:0:
261,213,47235,1,2,1:2:0:0:
480,256,47411,1,2,1:2:0:0:
480,256,47500,1,2,1:2:0:0:
480,256,47588,6,0,P|455:102|456:6,1,240.000009155274,14|0,0:0|1:0,0:0:0:0:
278,96,48117,1,2,0:0:0:0:
330,173,48294,2,0,P|381:139|461:125,2,120.000004577637,10|2|0,0:0|0:0|1:0,0:0:0:0:
256,288,48823,1,2,0:0:0:0:
208,49,49000,5,10,0:0:0:0:
346,81,49176,1,2,0:0:0:0:
165,188,49353,1,2,1:2:0:0:
165,188,49529,2,0,L|179:54,1,120.000004577637,2|8,0:0|0:0,0:0:0:0:
256,256,49882,5,2,0:0:0:0:
96,192,50059,1,2,1:2:0:0:
312,144,50235,2,0,L|450:167,1,120.000004577637,2|8,0:0|0:0,0:0:0:0:
242,277,50588,5,2,0:0:0:0:
82,213,50765,1,2,1:2:0:0:
298,165,50941,2,0,L|436:188,1,120.000004577637,2|8,0:0|0:0,0:0:0:0:
228,298,51294,5,2,0:0:0:0:
201,119,51470,1,2,1:2:0:0:
164,334,51647,2,0,P|97:304|23:297,1,120.000004577637,2|8,0:0|0:0,0:0:0:0:
246,259,52000,1,2,0:0:0:0:
271,349,52176,6,0,P|281:248|258:141,1,180.000006866455,2|0,1:2|0:0,0:0:0:0:
246,130,52529,1,10,0:0:0:0:
102,185,52706,1,2,0:0:0:0:
234,194,52882,1,2,1:2:0:0:
162,221,53059,1,2,0:0:0:0:
221,267,53235,6,0,L|204:47,1,180.000006866455,14|0,0:0|0:0,0:0:0:0:
221,98,53588,2,0,P|171:152|129:127,1,120.000004577637,2|0,1:2|0:0,0:0:0:0:
72,16,53941,2,0,P|200:30|238:93,1,180.000006866455,10|0,0:0|0:0,0:0:0:0:
230,48,54294,2,0,P|154:62|132:120,1,120.000004577637,2|0,1:2|0:0,0:0:0:0:
310,142,54647,6,0,P|326:67|426:19,1,180.000006866455,14|0,0:0|0:0,0:0:0:0:
402,29,55000,2,0,P|405:110|421:158,1,120.000004577637,2|0,1:2|0:0,0:0:0:0:
488,253,55353,2,0,P|421:224|306:217,1,180.000006866455,10|0,0:0|0:0,0:0:0:0:
325,227,55706,2,0,P|347:297|349:353,1,120.000004577637,2|0,1:2|0:0,0:0:0:0:
431,183,56059,6,0,L|199:212,2,200,14|0|10,0:0|1:0|0:0,0:0:0:0:
503,111,56941,1,2,0:0:0:0:
412,7,57117,2,0,L|429:135,1,100,2|0,1:2|0:0,0:0:0:0:
458,300,57470,6,0,P|421:232|320:250,1,150,10|0,0:0|0:0,0:0:0:0:
367,237,57823,2,0,P|385:299|383:349,1,100,2|0,1:2|0:0,0:0:0:0:
229,377,58176,2,0,P|154:348|54:333,1,150,10|0,0:0|0:0,0:0:0:0:
90,346,58529,2,0,P|166:323|222:324,1,100,2|0,1:2|0:0,0:0:0:0:
346,358,58882,6,0,L|364:171,1,150,14|0,0:0|0:0,0:0:0:0:
368,164,59235,2,0,P|328:200|266:187,1,100,2|0,1:2|0:0,0:0:0:0:
224,81,59588,2,0,P|346:68|406:45,1,150,10|0,0:0|0:0,0:0:0:0:
360,34,59941,2,0,L|340:161,1,100,2|0,1:2|0:0,0:0:0:0:
192,192,60294,6,0,P|110:170|20:157,1,150,10|0,0:0|0:0,0:0:0:0:
41,171,60647,2,0,L|55:295,1,100,2|0,1:2|0:0,0:0:0:0:
156,356,61000,2,0,L|175:196,1,150,10|0,0:0|0:0,0:0:0:0:
182,234,61353,2,0,L|196:358,1,100,2|0,1:2|0:0,0:0:0:0:
352,374,61706,6,0,P|417:332|396:251,1,150,14|0,0:0|0:0,0:0:0:0:
372,260,62059,2,0,P|330:200|337:148,1,100,2|0,1:2|0:0,0:0:0:0:
486,91,62411,2,0,P|427:58|332:51,1,150,10|0,0:0|0:0,0:0:0:0:
361,80,62764,2,0,P|409:38|484:32,1,100,2|0,1:2|0:0,0:0:0:0:
421,176,63117,6,0,P|328:164|245:77,1,200,14|2,0:0|1:2,0:0:0:0:
217,5,63647,1,2,0:0:0:0:
31,93,63823,2,0,P|121:79|198:82,1,150,10|0,0:0|0:0,0:0:0:0:
158,104,64176,2,0,P|148:181|150:232,1,100,2|0,1:2|0:0,0:0:0:0:
320,288,64529,6,0,P|383:267|370:173,1,150,14|0,0:0|0:0,0:0:0:0:
363,173,64882,2,0,P|344:237|360:270,1,100,2|0,1:2|0:0,0:0:0:0:
501,150,65235,2,0,P|465:91|372:47,1,150,10|0,0:0|0:0,0:0:0:0:
403,66,65588,2,0,L|421:182,1,100,2|0,1:2|0:0,0:0:0:0:
319,306,65941,6,0,P|213:288|97:283,1,200,14|0,0:0|1:0,0:0:0:0:
22,369,66470,2,0,P|104:344|85:261,1,150,2|0,0:0|0:0,0:0:0:0:
80,259,66823,1,2,0:0:0:0:
190,212,67000,1,2,1:2:0:0:
23,150,67176,1,2,0:0:0:0:
160,32,67353,5,14,0:0:0:0:
228,142,67529,2,0,L|213:280,1,120.000004577637,2|0,0:0|1:0,0:0:0:0:
50,302,67882,1,2,0:0:0:0:
160,370,68058,2,0,L|298:355,2,120.000004577637,10|2|0,0:0|0:0|1:0,0:0:0:0:
32,289,68588,1,2,0:0:0:0:
164,236,68764,5,10,0:0:0:0:
81,380,68941,1,2,0:0:0:0:
57,166,69117,1,2,1:2:0:0:
78,356,69294,2,0,P|46:267|18:229,1,120.000004577637,2|8,0:0|0:0,0:0:0:0:
224,192,69647,5,2,0:0:0:0:
288,32,69824,1,2,1:2:0:0:
372,226,70000,2,0,L|519:208,1,120.000004577637,2|8,0:0|0:0,0:0:0:0:
233,209,70353,5,2,0:0:0:0:
297,49,70530,1,2,1:2:0:0:
381,243,70706,2,0,L|528:225,1,120.000004577637,2|8,0:0|0:0,0:0:0:0:
242,226,71058,5,2,0:0:0:0:
306,66,71235,1,2,1:2:0:0:
390,260,71411,2,0,L|537:242,1,120.000004577637,2|8,0:0|0:0,0:0:0:0:
251,243,71765,1,2,0:0:0:0:
276,333,71941,6,0,P|286:232|263:125,1,180.000006866455,2|0,1:2|0:0,0:0:0:0:
251,114,72294,1,8,0:0:0:0:
107,169,72471,1,2,0:0:0:0:
239,178,72647,1,2,1:2:0:0:
167,205,72824,1,2,0:0:0:0:
226,251,73000,6,0,L|209:31,1,180.000006866455,14|0,0:0|0:0,0:0:0:0:
205,82,73353,2,0,L|43:116,1,120.000004577637,2|0,1:2|0:0,0:0:0:0:
320,160,73706,2,0,P|397:129|364:16,1,180.000006866455,10|0,0:0|0:0,0:0:0:0:
383,45,74059,2,0,P|378:103|406:168,1,120.000004577637,2|0,1:2|0:0,0:0:0:0:
501,248,74411,6,0,P|471:364|381:363,1,180.000006866455,14|0,0:0|0:0,0:0:0:0:
394,356,74764,2,0,P|415:300|410:241,1,120.000004577637,2|0,1:2|0:0,0:0:0:0:
224,320,75117,2,0,P|143:308|21:300,1,180.000006866455,10|0,0:0|0:0,0:0:0:0:
0,350,75470,1,2,0:0:0:0:
0,350,75823,6,0,P|26:283|33:222,1,120.000004577637,14|0,0:1|0:0,0:0:0:0:
78,163,76088,2,0,P|49:97|10:49,1,120.000004577637,2|0,0:1|0:0,0:0:0:0:
58,55,76353,2,0,P|86:-10|111:-42,1,60.0000022888184,2|0,0:1|0:0,0:0:0:0:
246,57,76529,2,0,P|177:48|102:54,1,120.000004577637,10|0,0:1|0:0,0:0:0:0:
288,128,76882,1,2,1:1:0:0:
96,192,77059,1,2,0:1:0:0:
320,256,77235,6,0,L|300:105,1,120.000004577637,14|0,0:1|0:0,0:0:0:0:
374,126,77500,2,0,L|394:277,1,120.000004577637,2|0,0:1|0:0,0:0:0:0:
360,280,77764,2,0,L|346:390,1,60.0000022888184,2|0,0:1|0:0,0:0:0:0:
198,373,77941,2,0,P|265:346|229:292,1,120.000004577637,10|0,0:1|0:0,0:0:0:0:
109,354,78294,1,2,1:1:0:0:
259,312,78470,1,2,0:1:0:0:
82,361,78647,6,0,P|44:277|52:221,1,120.000004577637,14|0,0:1|0:0,0:0:0:0:
0,170,78911,2,0,P|32:83|77:49,1,120.000004577637,2|0,0:1|0:0,0:0:0:0:
56,93,79176,2,0,P|66:121|70:150,1,60.0000022888184,2|0,0:1|0:0,0:0:0:0:
37,280,79353,2,0,P|118:252|194:249,1,120.000004577637,10|0,0:1|0:0,0:0:0:0:
320,288,79706,1,2,1:1:0:0:
225,338,79882,1,2,0:1:0:0:
276,172,80059,6,0,L|250:21,1,120.000004577637,14|0,0:1|0:0,0:0:0:0:
325,40,80324,2,0,L|350:190,1,120.000004577637,2|0,0:1|0:0,0:0:0:0:
316,194,80588,2,0,L|305:304,1,60.0000022888184,2|0,0:1|0:0,0:0:0:0:
158,293,80765,2,0,P|224:263|186:210,1,120.000004577637,10|2,0:1|0:1,0:0:0:0:
68,277,81118,1,2,1:1:0:0:
256,160,81294,1,2,0:1:0:0:
14,93,81470,6,0,P|73:64|146:64,1,120.000004577637,14|0,0:1|0:0,0:0:0:0:
215,15,81735,2,0,P|277:36|328:87,1,120.000004577637,2|0,0:1|0:0,0:0:0:0:
338,41,82000,2,0,P|365:29|394:22,1,60.0000022888184,2|0,0:1|0:0,0:0:0:0:
401,152,82176,2,0,P|336:120|365:57,1,120.000004577637,10|0,0:1|0:0,0:0:0:0:
500,116,82529,1,2,1:1:0:0:
448,288,82706,1,2,0:1:0:0:
312,155,82882,6,0,L|286:4,1,120.000004577637,14|0,0:1|0:0,0:0:0:0:
361,23,83147,2,0,L|386:173,1,120.000004577637,2|0,0:1|0:0,0:0:0:0:
352,177,83411,2,0,L|341:287,1,60.0000022888184,2|0,0:1|0:0,0:0:0:0:
194,276,83588,2,0,P|260:246|222:193,1,120.000004577637,10|2,0:1|0:1,0:0:0:0:
102,254,83941,1,2,1:1:0:0:
253,212,84117,1,2,0:1:0:0:
75,261,84294,6,0,P|37:183|50:111,2,150,14|2|2,0:1|0:1|0:1,0:0:0:0:
165,296,85000,2,0,P|135:369|84:380,1,100,2|2,0:1|0:1,0:0:0:0:
75,261,85353,1,2,0:1:0:0:
256,320,85529,1,2,0:1:0:0:
437,261,85706,6,0,P|475:183|462:111,2,150,10|2|2,0:1|0:1|0:1,0:0:0:0:
347,296,86412,2,0,P|377:369|428:380,1,100,2|2,0:1|0:1,0:0:0:0:
437,261,86764,1,2,0:1:0:0:
256,320,86940,1,2,0:1:0:0:
256,64,87117,5,14,0:1:0:0:
