osu file format v14

[General]
AudioFilename: audio.mp3
AudioLeadIn: 0
PreviewTime: 35941
Countdown: 0
SampleSet: Soft
StackLeniency: 0.7
Mode: 0
LetterboxInBreaks: 0
WidescreenStoryboard: 1

[Editor]
DistanceSpacing: 1.7
BeatDivisor: 4
GridSize: 32
TimelineZoom: 1

[Metadata]
Title:Kaibutsu (TV Size)
TitleUnicode:怪物 (TV Size)
Artist:YOASOBI
ArtistUnicode:YOASOBI
Creator:eiri-
Version:Battle's Hard
Source:BEASTARS
Tags:Ayyri Wanpachi Cycopton Battle ビースターズ Japanese Anime Furry Opening Pop 幾田りら Ikuta Rira Lilas Ayase Monster
BeatmapID:2753520
BeatmapSetID:1329273

[Difficulty]
HPDrainRate:4.5
CircleSize:4
OverallDifficulty:6.5
ApproachRate:8
SliderMultiplier:1.5
SliderTickRate:1

[Events]
//Background and Video events
0,0,"Legoshi Louis 785.jpg",0,0
Video,200,"OP.mp4"
//Break Periods
//Storyboard Layer 0 (Background)
//Storyboard Layer 1 (Fail)
//Storyboard Layer 2 (Pass)
//Storyboard Layer 3 (Foreground)
//Storyboard Layer 4 (Overlay)
//Storyboard Sound Samples

[TimingPoints]
1706,352.941176470588,4,2,1,40,1,0
1706,-133.333333333333,4,2,1,40,0,0
2412,352.941176470588,4,2,1,60,1,0
2412,-133.333333333333,4,2,1,60,0,0
13706,-100,4,2,1,70,0,0
25000,-133.333333333333,4,2,1,60,0,0
30647,-100,4,2,1,75,0,0
35941,-100,4,2,1,60,0,0
36294,-100,4,2,1,80,0,1
56059,-111.111111111111,4,2,1,80,0,0
67353,-100,4,2,1,80,0,1
75823,-100,4,2,1,80,0,0
84293,-111.111111111111,4,2,1,70,0,0
87117,-100,4,2,1,90,0,0

[Colours]
Combo1 : 241,73,73
Combo2 : 69,215,231
Combo3 : 221,55,105
Combo4 : 140,72,215

[HitObjects]
29,362,1706,6,2,B|94:353|56:311|146:308,1,112.500004291535,2|0,0:0|0:0,0:1:0:0:
193,240,2236,1,2,0:0:0:0:
126,180,2412,6,0,P|116:138|125:116,2,56.2500021457673,10|0|10,0:0|0:0|0:0,0:0:0:0:
217,68,2941,1,2,0:0:0:0:
217,68,3117,2,0,P|227:110|218:132,2,56.2500021457673,10|0|10,0:0|0:0|0:0,0:0:0:0:
145,4,3647,1,2,0:0:0:0:
145,4,3823,2,0,B|197:22|197:22|271:0,1,112.500004291535,10|8,0:0|0:0,0:0:0:0:
335,64,4353,2,0,B|390:47|390:47|442:65,1,112.500004291535,2|2,0:0|0:0,0:0:0:0:
223,218,5059,6,0,P|214:140|238:113,1,112.500004291535,2|2,0:0|0:0,0:0:0:0:
314,176,5588,2,0,L|383:169,1,56.2500021457673,8|2,0:0|0:0,0:0:0:0:
469,270,5941,2,0,L|400:263,1,56.2500021457673,10|2,0:0|0:0,0:0:0:0:
348,342,6294,2,0,P|281:320|236:346,1,112.500004291535,10|10,0:0|0:0,0:0:0:0:
153,379,6823,1,2,0:0:0:0:
23,229,7176,1,2,0:0:0:0:
23,229,7353,2,0,P|11:275|24:300,1,56.2500021457673,10|2,0:0|0:0,0:0:0:0:
120,280,7706,2,0,P|116:231|95:208,1,56.2500021457673,10|2,0:0|0:0,0:0:0:0:
62,137,8059,6,0,L|36:62,1,56.2500021457673,10|0,0:0|0:0,0:0:0:0:
143,73,8411,2,0,L|185:25,1,56.2500021457673,10|2,0:0|0:0,0:0:0:0:
247,106,8764,2,0,L|314:105,2,56.2500021457673,10|2|10,0:0|0:0|0:0,0:0:0:0:
170,183,9294,1,2,0:0:0:0:
170,183,9470,2,0,P|141:242|161:286,1,112.500004291535,10|10,0:0|0:0,0:0:0:0:
251,373,10000,2,0,P|253:321|242:305,1,56.2500021457673,2|8,0:0|0:0,0:0:0:0:
350,295,10353,2,0,P|326:245|311:237,1,56.2500021457673,2|8,0:0|0:0,0:0:0:0:
249,180,10706,6,0,P|227:118|256:58,1,112.500004291535,2|2,0:0|0:0,0:0:0:0:
314,5,11235,1,10,0:0:0:0:
314,5,11411,1,2,0:0:0:0:
493,175,11764,2,0,L|420:176,1,56.2500021457673,2|10,0:0|0:0,0:0:0:0:
342,154,12117,1,2,0:0:0:0:
342,154,12294,2,0,P|337:200|349:225,2,56.2500021457673,10|2|10,0:0|0:0|0:0,0:0:0:0:
244,48,12823,2,0,P|270:109|259:163,1,112.500004291535,2|2,0:0|0:0,0:0:0:0:
87,240,13529,5,2,0:0:0:0:
39,163,13706,2,0,P|85:143|125:157,1,75,14|0,0:0|0:0,0:0:0:0:
181,199,14059,2,0,L|170:289,1,75,2|2,1:2|0:0,0:0:0:0:
255,306,14411,2,0,L|276:395,2,75,10|2|2,0:0|0:0|1:2,0:0:0:0:
335,260,14941,1,2,0:0:0:0:
335,260,15117,2,0,P|388:227|474:255,1,150,10|0,0:0|1:0,0:0:0:0:
499,85,15647,2,0,P|470:126|445:134,1,75,2|8,0:0|0:0,0:0:0:0:
369,88,16000,2,0,P|305:77|254:108,1,112.5,2|0,0:0|0:0,0:0:0:0:
227,123,16353,6,0,P|147:160|81:133,1,150,2|2,0:0|0:0,0:0:0:0:
59,78,16882,2,0,P|91:127|92:153,1,75,0|2,1:0|0:0,0:0:0:0:
27,300,17235,2,0,P|36:250|60:230,1,75,10|2,0:0|0:0,0:0:0:0:
140,252,17588,1,2,1:2:0:0:
187,176,17764,1,2,0:0:0:0:
269,241,17941,1,10,0:0:0:0:
269,241,18117,2,0,B|244:310|244:310|263:387,1,150,2|2,0:0|0:0,0:0:0:0:
428,340,18647,2,0,L|348:334,1,75,10|2,0:0|0:0,0:0:0:0:
357,244,19000,2,0,L|431:238,1,75,2|2,1:2|0:0,0:0:0:0:
492,171,19353,6,0,P|487:85|433:56,1,150,10|2,0:0|1:2,0:0:0:0:
354,82,19882,1,2,0:0:0:0:
354,82,20059,2,0,P|309:110|280:111,1,75,10|2,0:0|0:0,0:0:0:0:
213,63,20411,1,2,1:2:0:0:
145,122,20588,2,0,B|158:177|158:177|151:215|151:215|165:267,1,150,2|2,0:0|0:0,0:0:0:0:
113,341,21117,1,2,1:2:0:0:
25,313,21294,1,2,0:0:0:0:
238,220,21647,2,0,L|263:308,1,75,2|2,0:0|1:2,0:0:0:0:
320,357,22000,6,0,P|374:326|466:359,1,150,2|2,0:0|0:0,0:0:0:0:
512,278,22529,1,2,1:2:0:0:
512,278,22706,1,2,0:0:0:0:
294,144,23059,2,0,P|283:106|299:72,2,75,2|0|2,0:0|1:0|0:0,0:0:0:0:
365,17,23588,2,0,P|300:55|230:13,1,150,10|2,0:0|1:2,0:0:0:0:
93,169,24294,2,0,P|158:131|228:173,1,150,10|2,0:0|1:2,0:0:0:0:
303,250,25000,1,10,0:1:0:0:
152,368,25353,6,0,L|144:312,1,56.2500021457673,2|10,1:2|1:1,0:0:0:0:
58,284,25706,1,2,0:0:0:0:
58,284,25882,2,0,P|71:238|148:212,1,112.500004291535,10|10,0:1|0:1,0:0:0:0:
218,187,26411,2,0,P|209:137|208:111,2,56.2500021457673,2|2|2,0:0|0:0|1:2,0:0:0:0:
303,231,26941,2,0,P|281:296|283:357,1,112.500004291535,2|10,1:2|0:1,0:0:0:0:
383,377,27470,2,0,P|378:333|377:313,1,56.2500021457673,2|2,1:2|0:0,0:0:0:0:
463,279,27823,1,10,0:1:0:0:
463,87,28176,6,0,P|414:117|397:117,1,56.2500021457673,2|10,1:2|1:1,0:0:0:0:
346,51,28529,1,2,0:0:0:0:
346,51,28706,2,0,P|284:32|222:55,1,112.500004291535,10|10,0:1|0:1,0:0:0:0:
165,104,29235,2,0,P|152:61|151:39,2,56.2500021457673,2|2|2,0:0|0:0|1:2,0:0:0:0:
231,173,29764,2,0,P|203:245|206:296,1,112.500004291535,2|2,1:2|0:0,0:0:0:0:
237,369,30294,2,0,L|158:369,1,56.2500021457673,10|2,0:1|0:0,0:0:0:0:
61,370,30647,6,0,P|32:297|76:214,1,150,14|2,0:0|1:2,0:0:0:0:
124,163,31176,1,2,1:2:0:0:
214,199,31353,2,0,P|256:219|294:213,2,75,10|2|0,0:0|0:0|1:0,0:0:0:0:
75,81,31882,2,0,P|137:61|208:113,1,150,2|2,0:0|0:0,0:0:0:0:
214,199,32411,1,2,1:2:0:0:
214,199,32588,2,0,P|185:268|183:292,1,75,2|8,1:2|0:0,0:0:0:0:
316,362,32941,1,2,0:0:0:0:
316,362,33118,2,0,P|287:293|285:269,1,75,2|2,1:2|0:0,0:0:0:0:
372,225,33470,6,0,P|443:213|512:130,1,150,10|2,0:0|1:2,0:0:0:0:
470,72,34000,1,0,1:0:0:0:
470,72,34176,2,0,P|438:57|372:59,1,75,10|2,0:0|0:0,0:0:0:0:
319,110,34529,2,0,P|267:125|239:124,1,75,0|2,1:0|0:0,0:0:0:0:
155,88,34882,2,0,B|129:176|179:153|157:236,2,150,8|10|10,0:0|0:0|0:0,0:0:0:0:
224,8,35941,1,2,0:1:0:0:
346,77,36294,5,14,0:0:0:0:
346,77,36470,2,0,P|414:81|438:59,1,75,2|0,0:0|1:0,0:0:0:0:
507,193,36823,1,2,0:0:0:0:
507,193,37000,2,0,P|436:177|348:213,1,150,10|2,0:0|1:2,0:0:0:0:
295,270,37529,2,0,B|213:279|250:326|164:337,1,150,2|2,0:0|0:0,0:0:0:0:
68,322,38059,2,0,P|36:283|31:252,1,75,2|2,1:2|0:0,0:0:0:0:
117,215,38411,2,0,P|117:152|186:97,1,150,10|2,0:0|1:2,0:0:0:0:
291,264,39117,5,14,0:0:0:0:
291,264,39294,2,0,P|253:315|256:339,1,75,2|0,0:0|1:0,0:0:0:0:
404,384,39647,1,2,0:0:0:0:
404,384,39824,2,0,P|366:333|369:309,1,75,10|0,0:0|0:0,0:0:0:0:
447,271,40176,1,2,1:2:0:0:
477,178,40353,2,0,P|428:100|356:108,1,150,2|2,0:0|0:0,0:0:0:0:
291,144,40882,2,0,P|245:171|217:166,1,75,2|2,1:2|0:0,0:0:0:0:
157,98,41235,1,10,0:0:0:0:
61,114,41411,1,2,0:0:0:0:
29,206,41588,2,0,P|42:241|52:288,1,75,2|2,1:2|0:0,0:0:0:0:
57,375,41941,6,0,B|144:371|113:320|209:312,1,150,14|2,0:0|1:2,0:0:0:0:
373,246,42647,2,0,B|286:242|317:191|221:183,1,150,10|2,0:0|1:2,0:0:0:0:
47,218,43353,2,0,P|23:180|24:125,1,75,14|0,0:0|0:0,0:0:0:0:
116,140,43706,2,0,P|118:74|146:45,1,75,2|0,1:2|0:0,0:0:0:0:
211,31,44059,2,0,L|374:21,1,150,10|2,0:0|1:2,0:0:0:0:
445,71,44588,1,0,0:0:0:0:
478,162,44764,6,0,B|464:197|464:197|478:245,1,75,14|0,0:0|0:0,0:0:0:0:
378,331,45117,2,0,B|392:296|392:296|378:248,1,75,2|2,1:2|0:0,0:0:0:0:
306,197,45470,2,0,B|219:207|258:258|155:260,1,150,10|2,0:0|1:2,0:0:0:0:
78,234,46000,2,0,P|46:161|92:104,1,150,2|2,0:0|0:0,0:0:0:0:
180,110,46529,1,2,1:2:0:0:
180,110,46706,2,0,P|162:45|169:25,1,75,2|10,0:0|0:0,0:0:0:0:
257,64,47059,1,2,1:2:0:0:
271,160,47236,2,0,P|230:214|230:235,1,75,2|2,1:2|1:2,0:0:0:0:
182,242,47500,1,2,1:2:0:0:
182,242,47588,6,0,P|228:308|225:400,1,150,14|0,0:0|1:0,0:0:0:0:
336,203,48117,1,2,0:0:0:0:
336,203,48294,2,0,P|311:251|314:284,2,75,10|2|0,0:0|0:0|1:0,0:0:0:0:
430,369,48823,1,2,0:0:0:0:
430,369,49000,2,0,P|405:321|408:288,1,75,10|2,0:0|0:0,0:0:0:0:
485,245,49353,1,2,1:2:0:0:
461,150,49529,2,0,B|380:161|416:103|304:112,1,150,2|2,0:0|0:0,0:0:0:0:
233,156,50059,1,2,1:2:0:0:
145,113,50235,6,0,P|170:38|242:52,1,150,2|2,0:0|0:0,0:0:0:0:
233,156,50764,1,2,1:2:0:0:
155,215,50941,2,0,P|180:290|252:276,1,150,2|2,0:0|0:0,0:0:0:0:
317,227,51470,1,2,1:2:0:0:
386,296,51647,2,0,P|372:344|384:377,1,75,2|8,0:0|0:0,0:0:0:0:
479,373,52000,1,2,0:0:0:0:
479,373,52176,2,0,P|493:325|481:292,1,75,2|0,1:2|0:0,0:0:0:0:
433,220,52529,2,0,L|342:207,1,75,10|2,0:0|0:0,0:0:0:0:
305,291,52882,2,0,L|245:233,1,75,2|2,1:2|0:0,0:0:0:0:
164,284,53235,6,0,P|136:210|184:153,1,150,14|2,0:0|1:2,0:0:0:0:
304,11,53941,2,0,P|332:85|284:142,1,150,10|2,0:0|1:2,0:0:0:0:
314,331,54647,2,0,P|296:272|303:250,1,75,14|0,0:0|0:0,0:0:0:0:
395,277,55000,2,0,P|406:223|436:208,1,75,2|0,1:2|0:0,0:0:0:0:
481,137,55353,2,0,P|407:174|327:124,1,150,10|2,0:0|1:2,0:0:0:0:
294,70,55882,1,2,0:0:0:0:
214,122,56059,6,0,B|130:134|177:174|86:188,1,134.999995880127,14|0,0:0|1:0,0:0:0:0:
5,277,56588,1,2,0:0:0:0:
5,277,56764,2,0,B|76:289|42:334|119:340,1,134.999995880127,10|2,0:0|1:2,0:0:0:0:
198,287,57294,1,2,0:0:0:0:
285,321,57470,2,0,P|265:378|278:401,1,67.4999979400635,10|0,0:0|0:0,0:0:0:0:
391,380,57823,2,0,P|391:346|371:319,1,67.4999979400635,2|0,1:2|0:0,0:0:0:0:
324,237,58176,2,0,B|315:204|315:204|341:158,1,67.4999979400635,10|0,0:0|0:0,0:0:0:0:
394,104,58529,2,0,B|465:108|431:155|514:159,1,134.999995880127,2|14,1:2|0:0,0:0:0:0:
283,18,59235,6,0,B|299:56|299:56|287:97,1,67.4999979400635,2|0,1:2|0:0,0:0:0:0:
198,100,59588,2,0,B|202:138|202:138|181:170,1,67.4999979400635,10|0,0:0|0:0,0:0:0:0:
98,127,59941,2,0,B|36:156|67:186|5:224,1,134.999995880127,2|10,1:2|0:0,0:0:0:0:
116,377,60647,2,0,P|101:329|109:306,1,67.4999979400635,2|0,1:2|0:0,0:0:0:0:
180,256,61000,2,0,P|235:270|251:296,1,67.4999979400635,10|0,0:0|0:0,0:0:0:0:
294,353,61353,2,0,L|380:355,1,67.4999979400635,2|0,1:2|0:0,0:0:0:0:
446,313,61706,6,0,P|464:232|434:176,1,134.999995880127,14|2,0:0|1:2,0:0:0:0:
366,132,62235,1,2,0:0:0:0:
366,132,62411,2,0,B|315:141|315:141|287:164|287:164|222:173,1,134.999995880127,10|2,0:0|1:2,0:0:0:0:
164,228,62941,1,2,0:0:0:0:
88,171,63117,2,0,P|68:118|129:66,1,134.999995880127,14|2,0:0|1:2,0:0:0:0:
212,96,63647,1,2,0:0:0:0:
212,96,63823,2,0,B|303:70,1,67.4999979400635,10|0,0:0|0:0,0:0:0:0:
350,17,64176,2,0,L|438:42,1,67.4999979400635,2|0,1:2|0:0,0:0:0:0:
478,105,64529,6,0,B|457:178|499:158|466:263,1,134.999995880127,14|2,0:0|1:2,0:0:0:0:
379,316,65059,1,2,0:0:0:0:
379,316,65235,2,0,B|358:243|400:263|367:158,1,134.999995880127,10|2,0:0|1:2,0:0:0:0:
303,119,65764,1,2,0:0:0:0:
231,181,65941,2,0,P|170:230|91:208,1,134.999995880127,14|0,0:0|1:0,0:0:0:0:
46,162,66470,1,2,0:0:0:0:
46,162,66559,1,2,0:0:0:0:
46,162,66647,2,0,P|27:96|18:81,1,67.4999979400635,10|2,0:0|0:0,0:0:0:0:
53,13,67000,1,2,1:2:0:0:
140,10,67176,1,2,0:0:0:0:
211,84,67353,5,14,0:0:0:0:
211,84,67529,2,0,B|304:97|264:49|376:59,1,150,2|2,0:0|0:0,0:0:0:0:
436,121,68059,1,10,0:0:0:0:
436,121,68235,2,0,P|464:33|409:-8,1,150,2|2,0:0|0:0,0:0:0:0:
340,157,68764,2,0,P|358:202|359:244,1,75,10|2,0:0|0:0,0:0:0:0:
434,291,69117,1,2,1:2:0:0:
359,353,69294,2,0,B|260:342|312:387|188:376,1,150,2|2,0:0|0:0,0:0:0:0:
130,326,69823,1,2,1:2:0:0:
53,384,70000,6,0,P|23:298|62:259,1,150,2|2,0:0|0:0,0:0:0:0:
130,326,70529,1,2,1:2:0:0:
208,267,70706,2,0,P|234:180|188:146,1,150,2|2,0:0|0:0,0:0:0:0:
100,162,71235,1,2,1:2:0:0:
11,122,71411,2,0,P|39:70|79:73,1,75,2|8,0:0|0:0,0:0:0:0:
128,9,71764,1,2,0:0:0:0:
128,9,71941,2,0,P|166:31|202:28,1,75,2|0,1:2|0:0,0:0:0:0:
292,14,72294,2,0,L|296:110,2,75,8|2|2,0:0|0:0|1:2,0:0:0:0:
381,62,72823,1,2,0:0:0:0:
381,62,73000,6,0,B|440:96|440:96|526:51,1,150,14|2,0:0|1:2,0:0:0:0:
362,183,73706,2,0,B|303:149|303:149|217:194,1,150,10|2,0:0|1:2,0:0:0:0:
496,296,74411,2,0,B|456:290|456:290|416:301,1,75,14|0,0:0|0:0,0:0:0:0:
277,369,74764,2,0,B|317:375|317:375|351:366,1,75,2|0,1:2|0:0,0:0:0:0:
422,299,75117,1,10,0:0:0:0:
344,241,75294,1,2,0:0:0:0:
419,179,75470,2,0,P|426:127|436:99,1,75,2|0,0:0|0:0,0:0:0:0:
450,9,75823,6,0,P|368:15|319:47,2,112.5,14|2|2,0:1|0:1|0:1,0:0:0:0:
287,93,76529,2,0,P|227:110|207:102,1,75,10|0,0:1|0:0,0:0:0:0:
112,29,76882,2,0,P|172:12|192:20,1,75,2|2,1:1|0:1,0:0:0:0:
217,106,77235,2,0,P|202:181|203:238,2,112.5,14|2|2,0:1|0:1|0:1,0:0:0:0:
110,214,77941,2,0,P|121:259|136:295,1,75,10|0,0:1|0:0,0:0:0:0:
203,383,78294,2,0,P|216:348|225:312,1,75,2|2,1:1|0:1,0:0:0:0:
316,277,78647,6,0,P|400:250|454:256,2,112.5,14|2|2,0:1|0:1|0:1,0:0:0:0:
230,228,79353,2,0,P|203:169|208:143,1,75,10|0,0:1|0:0,0:0:0:0:
282,102,79706,2,0,P|299:40|318:17,1,75,2|2,1:1|0:1,0:0:0:0:
402,28,80059,2,0,B|458:51|458:51|525:28,2,112.5,14|2|2,0:1|0:1|0:1,0:0:0:0:
304,31,80764,1,10,0:1:0:0:
275,124,80941,1,2,0:1:0:0:
351,184,81117,1,2,1:1:0:0:
437,139,81294,1,2,0:1:0:0:
496,216,81470,6,0,P|472:293|479:343,2,112.5,14|2|2,0:1|0:1|0:1,0:0:0:0:
388,379,82176,2,0,P|376:329|356:307,1,75,10|0,0:1|0:0,0:0:0:0:
293,208,82529,2,0,P|281:258|261:280,1,75,2|2,1:1|0:1,0:0:0:0:
178,318,82882,2,0,P|97:315|41:335,2,112.5,14|2|2,0:1|0:1|0:1,0:0:0:0:
187,220,83588,2,0,P|136:220|100:214,1,75,10|2,0:1|0:1,0:0:0:0:
7,129,83941,2,0,P|44:124|81:125,1,75,2|2,1:1|0:1,0:0:0:0:
187,103,84294,6,0,P|180:40|219:-7,2,101.249996910095,14|2|2,0:1|0:1|0:1,0:0:0:0:
257,185,85000,2,0,P|240:224|246:258,1,67.4999979400635,2|2,0:1|0:1,0:0:0:0:
350,248,85353,2,0,P|350:214|335:184,1,67.4999979400635,2|2,0:1|0:1,0:0:0:0:
410,107,85706,2,0,P|430:61|420:13,2,101.249996910095,10|2|2,0:1|0:1|0:1,0:0:0:0:
335,184,86411,1,2,0:1:0:0:
432,231,86588,1,2,0:1:0:0:
348,298,86764,1,2,0:1:0:0:
444,346,86941,1,2,0:1:0:0:
317,384,87117,5,14,0:1:0:0:
