osu file format v14

[General]
AudioFilename: audio.mp3
AudioLeadIn: 0
PreviewTime: 35853
Countdown: 0
SampleSet: Normal
StackLeniency: 0.2
Mode: 0
LetterboxInBreaks: 0
WidescreenStoryboard: 0

[Editor]
Bookmarks: 2412,13695,25000,36294,56059,75823,87117
DistanceSpacing: 1.2
BeatDivisor: 4
GridSize: 8
TimelineZoom: 1

[Metadata]
Title:Kaibutsu (TV Size)
TitleUnicode:怪物 (TV Size)
Artist:YOASOBI
ArtistUnicode:YOASOBI
Creator:Sonnyc
Version:Expert
Source:BEASTARS
Tags:ビースターズ Japanese Anime Furry Opening Pop 幾田りら Ikuta Rira Lilas Ayase Monster
BeatmapID:2784282
BeatmapSetID:1344390

[Difficulty]
HPDrainRate:6
CircleSize:6
OverallDifficulty:9
ApproachRate:9
SliderMultiplier:1.91
SliderTickRate:1

[Events]
//Background and Video events
0,0,"bg.jpg",0,0
//Break Periods
//Storyboard Layer 0 (Background)
//Storyboard Layer 1 (Fail)
//Storyboard Layer 2 (Pass)
//Storyboard Layer 3 (Foreground)
//Storyboard Layer 4 (Overlay)
//Storyboard Sound Samples

[TimingPoints]
2401,352.941176470588,4,2,1,40,1,0
13695,-100,4,2,1,60,0,0
24989,-100,4,1,1,40,0,0
30636,-100,4,1,1,60,0,0
34871,-100,4,1,1,30,0,0
35929,-100,4,2,1,40,0,0
36283,-100,4,1,1,70,0,1
56048,-100,4,1,1,70,0,0
75812,-100,4,1,1,60,0,0
84282,-100,4,2,1,40,0,0
87105,-100,4,1,1,70,0,0

[Colours]
Combo1 : 136,196,255
Combo2 : 179,102,255
Combo3 : 251,151,223
Combo4 : 255,255,128

[HitObjects]
256,24,1695,5,2,0:0:0:0:
320,376,2224,5,0,0:0:0:0:
256,376,2401,1,2,0:0:0:0:
192,376,2577,1,0,0:0:0:0:
256,312,2753,1,2,0:0:0:0:
320,376,2930,1,0,0:0:0:0:
384,312,3106,5,2,0:0:0:0:
320,312,3283,1,0,0:0:0:0:
192,312,3459,1,2,0:0:0:0:
128,312,3636,1,0,0:0:0:0:
256,216,3812,6,0,B|256:344,1,95.5,2|0,0:0|0:0,0:0:0:0:
256,376,4165,1,0,0:0:0:0:
448,312,4342,5,2,0:0:0:0:
64,312,4695,1,2,0:0:0:0:
320,216,5048,6,0,B|309:137|198:137|191:226,1,191,2|0,0:0|0:0,0:0:0:0:
256,248,5577,1,2,0:0:0:0:
192,344,5753,5,0,0:0:0:0:
256,312,5930,1,2,0:0:0:0:
320,344,6106,1,0,0:0:0:0:
256,376,6283,1,2,0:0:0:0:
384,344,6459,5,0,0:0:0:0:
256,248,6636,1,2,0:0:0:0:
128,344,6812,1,0,0:0:0:0:
256,152,7165,6,0,B|256:280,1,95.5,2|0,0:0|0:0,0:0:0:0:
256,312,7518,1,0,0:0:0:0:
352,248,7695,5,2,0:0:0:0:
320,184,7871,1,0,0:0:0:0:
160,248,8048,1,2,0:0:0:0:
192,184,8224,1,0,0:0:0:0:
352,248,8400,5,2,0:0:0:0:
320,312,8577,1,0,0:0:0:0:
160,248,8753,1,2,0:0:0:0:
192,312,8930,1,0,0:0:0:0:
256,344,9106,1,2,0:0:0:0:
256,152,9283,5,0,0:0:0:0:
256,216,9459,1,2,0:0:0:0:
256,280,9636,1,0,0:0:0:0:
256,344,9812,5,0,0:0:0:0:
256,344,9989,1,2,0:0:0:0:
32,192,10342,1,2,0:0:0:0:
256,40,10695,1,2,0:0:0:0:
480,192,11048,1,0,0:0:0:0:
192,280,12106,5,0,0:0:0:0:
256,216,12283,1,2,0:0:0:0:
320,280,12459,1,0,0:0:0:0:
256,344,12636,1,0,0:0:0:0:
256,280,12812,1,2,0:0:0:0:
256,280,13165,1,0,0:0:0:0:
352,64,13518,5,0,0:0:0:0:
480,56,13695,1,6,0:0:0:0:
416,128,13871,1,0,0:0:0:0:
288,136,14048,1,10,0:0:0:0:
160,64,14224,1,0,0:0:0:0:
32,56,14400,1,2,0:0:0:0:
96,128,14577,1,0,0:0:0:0:
224,136,14753,1,10,0:0:0:0:
256,56,14930,1,0,0:0:0:0:
256,192,15106,6,0,B|256:320,1,95.5,2|0,0:0|0:0,0:0:0:0:
256,352,15459,1,8,0:0:0:0:
128,288,15636,2,0,B|134:239|134:239|170:208,1,95.5,2|0,0:0|0:0,0:0:0:0:
384,288,15989,2,0,B|378:239|378:239|342:208,1,95.5,0|8,0:0|0:0,0:0:0:0:
256,288,16342,6,0,B|256:64,1,191,2|2,0:0|0:0,0:0:0:0:
256,32,16871,1,10,0:0:0:0:
192,96,17048,1,0,0:0:0:0:
320,224,17224,1,2,0:0:0:0:
192,224,17400,1,2,0:0:0:0:
320,96,17577,1,10,0:0:0:0:
256,32,17753,1,0,0:0:0:0:
192,160,17930,5,2,0:0:0:0:
256,160,18106,2,0,B|352:160,1,95.5,0|8,0:0|0:0,0:0:0:0:
448,288,18459,6,0,B|353:288,1,95.5,2|0,0:0|0:0,0:0:0:0:
256,288,18812,1,2,0:0:0:0:
160,288,18989,1,10,0:0:0:0:
96,288,19165,1,0,0:0:0:0:
160,160,19342,6,0,L|204:178|224:224,1,95.5,2|0,0:0|0:0,0:0:0:0:
352,160,19695,2,0,L|308:178|288:224,1,95.5,10|0,0:0|0:0,0:0:0:0:
256,288,20048,1,2,0:0:0:0:
256,96,20224,1,2,0:0:0:0:
256,288,20400,1,8,0:0:0:0:
160,152,20577,22,0,L|222:168|222:168|235:187|235:187|340:218,1,191,2|2,0:0|0:0,0:0:0:0:
256,96,21106,1,10,0:0:0:0:
352,152,21283,2,0,L|290:168|290:168|277:187|277:187|172:218,2,191,2|2|2,0:0|0:0|0:0,0:0:0:0:
256,352,22342,1,0,0:0:0:0:
256,32,23400,37,0,0:0:0:0:
256,32,23577,1,2,0:0:0:0:
32,192,23930,1,2,0:0:0:0:
256,352,24283,1,2,0:0:0:0:
480,192,24636,1,2,0:0:0:0:
256,32,24989,1,0,0:0:0:0:
256,192,25342,5,8,0:0:0:0:
256,192,25518,1,8,0:0:0:0:
192,40,26048,1,8,0:0:0:0:
256,192,26753,1,8,0:0:0:0:
256,192,26930,1,8,0:0:0:0:
320,40,27459,1,8,0:0:0:0:
256,192,28165,5,8,0:0:0:0:
256,192,28342,1,8,0:0:0:0:
48,96,28871,1,8,0:0:0:0:
256,192,29577,1,8,0:0:0:0:
256,192,29753,1,8,0:0:0:0:
464,96,30283,1,8,0:0:0:0:
512,368,30636,5,4,0:0:0:0:
448,368,30989,1,8,0:0:0:0:
448,368,31165,1,8,0:0:0:0:
448,368,31342,1,0,0:0:0:0:
384,368,31695,1,8,0:0:0:0:
320,368,32048,1,0,0:0:0:0:
256,368,32400,1,8,0:0:0:0:
256,368,32577,1,8,0:0:0:0:
256,368,32753,1,0,0:0:0:0:
192,368,33106,1,8,0:0:0:0:
128,368,33459,1,0,0:0:0:0:
64,368,33812,1,8,0:0:0:0:
64,368,33989,1,8,0:0:0:0:
64,368,34165,1,0,0:0:0:0:
0,368,34518,1,8,0:0:0:0:
256,192,34871,37,0,0:0:0:0:
256,192,35224,1,0,0:0:0:0:
256,192,35577,1,0,0:0:0:0:
256,24,35930,21,2,0:0:0:0:
256,320,36283,5,4,0:0:0:0:
192,368,36459,2,0,B|127:385|96:304,1,95.5,2|0,0:0|0:0,0:0:0:0:
256,320,36812,1,0,0:0:0:0:
320,368,36989,2,0,B|385:385|416:304,1,95.5,2|0,0:0|0:0,0:0:0:0:
256,320,37342,1,0,0:0:0:0:
320,96,37518,6,0,B|313:150|256:159|256:159|201:147|188:91,1,191,2|2,0:0|0:0,0:0:0:0:
128,64,38048,1,0,0:0:0:0:
384,64,38224,1,2,0:0:0:0:
256,320,38400,21,0,0:0:0:0:
256,0,38753,1,2,0:0:0:0:
256,320,39106,5,0,0:0:0:0:
192,288,39283,2,0,B|139:310|146:371,1,95.5,2|0,0:0|0:0,0:0:0:0:
256,320,39636,1,0,0:0:0:0:
320,288,39812,2,0,B|373:310|366:371,1,95.5,2|0,0:0|0:0,0:0:0:0:
256,192,40165,5,0,0:0:0:0:
256,192,40342,1,0,0:0:0:0:
336,16,40695,5,2,0:0:0:0:
432,144,40871,1,0,0:0:0:0:
392,304,41048,1,2,0:0:0:0:
256,368,41224,1,0,0:0:0:0:
120,304,41400,1,2,0:0:0:0:
80,144,41577,1,0,0:0:0:0:
176,16,41753,1,2,0:0:0:0:
176,16,41930,1,0,0:0:0:0:
288,288,42283,6,0,B|288:160,1,95.5,2|0,0:0|0:0,0:0:0:0:
224,288,42636,2,0,B|224:160,1,95.5
384,224,42989,2,0,B|352:128,1,95.5,2|0,0:0|0:0,0:0:0:0:
128,224,43342,2,0,B|160:128,1,95.5
448,64,43695,2,0,B|352:32,1,95.5,2|0,0:0|0:0,0:0:0:0:
64,64,44048,2,0,B|160:32,1,95.5,2|0,0:0|0:0,0:0:0:0:
512,352,44400,6,0,B|468:352|468:352|452:344|452:344|416:344,1,95.5,2|0,0:0|0:0,0:0:0:0:
0,192,44753,2,0,B|96:192,1,95.5,2|0,0:0|0:0,0:0:0:0:
512,32,45106,2,0,B|468:32|468:32|452:40|452:40|416:40,1,95.5,2|0,0:0|0:0,0:0:0:0:
95,192,45459,1,0,0:0:0:0:
395,331,45812,5,0,0:0:0:0:
331,139,45989,2,0,B|288:171|288:226|288:226|327:253|317:317,1,191,2|2,0:0|0:0,0:0:0:0:
256,352,46518,1,0,0:0:0:0:
181,139,46695,2,0,B|224:171|224:226|224:226|185:253|195:317,1,191,2|2,0:0|0:0,0:0:0:0:
117,331,47224,1,0,0:0:0:0:
288,32,47577,6,0,B|256:123|256:123|224:32,1,191,6|0,0:0|0:0,0:0:0:0:
352,128,48106,5,0,0:0:0:0:
160,128,48283,1,2,0:0:0:0:
256,192,48459,2,0,B|256:320,1,95.5
288,32,48812,5,2,0:0:0:0:
160,128,48989,1,0,0:0:0:0:
352,128,49165,1,0,0:0:0:0:
224,32,49342,1,2,0:0:0:0:
256,192,49518,2,0,B|256:320,1,95.5,2|0,0:0|0:0,0:0:0:0:
416,96,49871,5,0,0:0:0:0:
416,352,50048,1,2,0:0:0:0:
416,96,50224,2,0,B|416:224,1,95.5,2|0,0:0|0:0,0:0:0:0:
96,96,50577,5,0,0:0:0:0:
96,352,50753,1,2,0:0:0:0:
96,96,50930,2,0,B|96:224,1,95.5,2|0,0:0|0:0,0:0:0:0:
256,256,51283,37,0,0:0:0:0:
256,0,51459,1,2,0:0:0:0:
256,256,51636,2,0,B|256:383,1,95.5,2|0,0:0|0:0,0:0:0:0:
256,128,51989,1,2,0:0:0:0:
256,128,52165,1,0,0:0:0:0:
192,384,52518,37,2,0:0:0:0:
256,352,52695,1,0,0:0:0:0:
320,384,52871,1,2,0:0:0:0:
416,320,53048,37,0,0:0:0:0:
416,320,53224,1,0,0:0:0:0:
96,64,53577,1,2,0:0:0:0:
512,192,53930,1,0,0:0:0:0:
0,192,54283,1,2,0:0:0:0:
416,64,54636,1,2,0:0:0:0:
96,320,54989,1,0,0:0:0:0:
256,0,55342,1,0,0:0:0:0:
256,192,55695,1,2,0:0:0:0:
256,384,56048,1,6,0:0:0:0:
256,192,56136,12,4,58871,0:0:0:0:
192,64,59224,37,0,0:0:0:0:
128,128,59577,1,2,0:0:0:0:
43,97,59930,1,2,0:0:0:0:
320,64,60636,1,2,0:0:0:0:
384,128,60989,1,2,0:0:0:0:
469,97,61342,1,0,0:0:0:0:
480,352,61695,5,0,0:0:0:0:
480,32,62048,1,2,0:0:0:0:
32,32,62400,1,0,0:0:0:0:
32,352,62753,1,2,0:0:0:0:
256,192,63106,5,2,0:0:0:0:
256,192,63812,1,0,0:0:0:0:
256,288,64165,1,2,0:0:0:0:
32,352,64518,37,2,0:0:0:0:
32,32,64871,1,2,0:0:0:0:
480,32,65224,1,0,0:0:0:0:
480,352,65577,1,2,0:0:0:0:
256,192,65930,5,2,0:0:0:0:
256,352,66459,1,2,0:0:0:0:
256,80,66812,21,0,0:0:0:0:
160,16,66989,1,2,0:0:0:0:
256,80,67165,1,0,0:0:0:0:
352,16,67342,1,0,0:0:0:0:
256,80,67518,2,0,B|256:208,1,95.5,2|0,0:0|0:0,0:0:0:0:
160,112,67871,5,0,0:0:0:0:
352,112,68048,1,0,0:0:0:0:
256,176,68224,2,0,B|256:304,1,95.5,2|0,0:0|0:0,0:0:0:0:
352,240,68577,5,0,0:0:0:0:
160,368,68753,1,0,0:0:0:0:
160,240,68930,1,2,0:0:0:0:
352,368,69106,1,2,0:0:0:0:
256,272,69283,2,0,B|256:400,1,95.5,2|0,0:0|0:0,0:0:0:0:
448,128,69636,5,0,0:0:0:0:
448,384,69812,1,2,0:0:0:0:
448,128,69989,2,0,B|448:0,1,95.5,2|0,0:0|0:0,0:0:0:0:
64,128,70343,5,0,0:0:0:0:
64,384,70519,1,2,0:0:0:0:
64,128,70695,2,0,B|64:0,1,95.5,2|0,0:0|0:0,0:0:0:0:
256,272,71048,37,0,0:0:0:0:
256,16,71224,1,2,0:0:0:0:
256,272,71401,2,0,B|256:400,1,95.5,2|0,0:0|0:0,0:0:0:0:
256,144,71753,1,2,0:0:0:0:
256,144,71930,1,0,0:0:0:0:
192,336,72283,37,2,0:0:0:0:
256,368,72459,1,0,0:0:0:0:
320,336,72636,1,2,0:0:0:0:
416,304,72812,37,0,0:0:0:0:
416,304,72989,1,0,0:0:0:0:
96,304,73342,1,2,0:0:0:0:
0,152,73695,1,0,0:0:0:0:
512,152,74048,1,2,0:0:0:0:
0,152,74400,1,2,0:0:0:0:
96,0,74753,1,2,0:0:0:0:
416,0,75106,1,0,0:0:0:0:
96,0,75459,1,2,0:0:0:0:
160,320,75812,6,0,B|123:318|96:352|96:352|0:352,2,143.25,4|0|0,0:0|0:0|0:0,0:0:0:0:
288,320,76518,1,0,0:0:0:0:
224,320,76695,1,2,0:0:0:0:
288,320,76871,1,0,0:0:0:0:
224,320,77048,1,2,0:0:0:0:
352,320,77224,2,0,B|389:318|416:352|416:352|512:352,2,143.25,2|2|2,0:0|0:0|0:0,0:0:0:0:
160,320,77930,1,2,0:0:0:0:
352,320,78106,1,2,0:0:0:0:
160,320,78283,1,2,0:0:0:0:
352,320,78459,1,2,0:0:0:0:
320,192,78636,6,0,B|423:192|423:192|468:233,2,143.25
256,224,79342,1,0,0:0:0:0:
256,160,79518,1,2,0:0:0:0:
256,224,79695,1,0,0:0:0:0:
256,160,79871,1,2,0:0:0:0:
192,192,80048,2,0,B|89:192|89:192|44:233,2,143.25,2|2|2,0:0|0:0|0:0,0:0:0:0:
256,96,80753,1,2,0:0:0:0:
256,288,80930,1,2,0:0:0:0:
256,96,81106,1,2,0:0:0:0:
256,288,81283,1,2,0:0:0:0:
64,64,81459,6,0,B|68:20|112:4|112:4|224:4,2,143.25,2|2|2,0:0|0:0|0:0,0:0:0:0:
96,144,82165,1,2,0:0:0:0:
192,144,82342,1,2,0:0:0:0:
320,144,82518,1,2,0:0:0:0:
416,144,82695,1,2,0:0:0:0:
448,64,82871,2,0,B|444:20|400:4|400:4|288:4,2,143.25,2|2|2,0:0|0:0|0:0,0:0:0:0:
496,192,83577,1,2,0:0:0:0:
368,192,83753,1,2,0:0:0:0:
144,192,83930,1,2,0:0:0:0:
16,192,84106,1,2,0:0:0:0:
256,256,84283,5,6,0:0:0:0:
256,256,84548,1,2,0:0:0:0:
256,256,84812,1,2,0:0:0:0:
224,192,84989,2,0,B|224:64,1,95.5,2|2,0:0|0:0,0:0:0:0:
288,192,85342,2,0,B|288:64,1,95.5,2|2,0:0|0:0,0:0:0:0:
256,32,85695,1,2,0:0:0:0:
256,32,85959,1,2,0:0:0:0:
256,32,86224,1,2,0:0:0:0:
288,96,86400,2,0,B|288:224,1,95.5,2|2,0:0|0:0,0:0:0:0:
224,96,86753,2,0,B|224:224,1,95.5,2|2,0:0|0:0,0:0:0:0:
256,368,87106,5,6,0:0:0:0:
