osu file format v14

[General]
AudioFilename: audio.mp3
AudioLeadIn: 0
PreviewTime: 35737
Countdown: 0
SampleSet: Soft
StackLeniency: 1
Mode: 0
LetterboxInBreaks: 0
WidescreenStoryboard: 1

[Editor]
Bookmarks: 2252,13546,24840,36134,47428,55899,67193,75663
DistanceSpacing: 1.8
BeatDivisor: 4
GridSize: 8
TimelineZoom: 2.5

[Metadata]
Title:Kaibutsu (TV Size)
TitleUnicode:怪物 (TV Size)
Artist:YOASOBI
ArtistUnicode:YOASOBI
Creator:Ryuusei Aika
Version:yaspo's Extra
Source:BEASTARS
Tags:ビースターズ japanese furry anime op2 pop j-pop jpop opening theme 幾田りら Ikuta Rira Lilas Ayase Monster MoeAsuka Atrue SuperBox Fall Marle Calvaria Mariko Sakuragi Reiji Maigo SB hhjkl [Hatsune Miku] [Hatsune_Miku] Hatsune Miku Remapper _lai Kyrian 09kami Ducky- Acyl Acylica Bellicose wafer iWaifu KAMI NO KOTOBA Addy2607 KaedeharaKazuha Airincat Chompy Yooh Reywateil Amateurre Sparhten Ajisai- HabiHolic newton- Yuuma Ogura Yui fedora- UberFazz xidorn Pata-Mon PataMon Deca Wanpachi cycopton Gibune wiken Fuju Stratos Crystal OneShotFox Elcheer Fieryrage hypercyte hypercute Kittyadventure gokugohan12468 Kyouren Zelq ponbot Yuuma3 Mimari i love ganyu Flake yaspo Regraz Mafumafu bongo Moete Senseabel Senseable Kuse KuBsNia_ZhoYL_ wetdog123 eiri-
BeatmapID:2820253
BeatmapSetID:1335792

[Difficulty]
HPDrainRate:5.7
CircleSize:3.7
OverallDifficulty:8
ApproachRate:9
SliderMultiplier:1.80000000596046
SliderTickRate:1

[Events]
//Background and Video events
0,0,"furry.jpg",0,0
Video,-200,"OP.mp4"
//Break Periods
//Storyboard Layer 0 (Background)
//Storyboard Layer 1 (Fail)
//Storyboard Layer 2 (Pass)
//Storyboard Layer 3 (Foreground)
//Storyboard Layer 4 (Overlay)
//Storyboard Sound Samples

[TimingPoints]
-3395,352.941176470588,4,2,1,40,1,0
2252,-100,4,2,1,60,0,0
13546,-100,4,2,1,70,0,0
24840,-100,4,2,1,60,0,0
30487,-83.3333333333333,4,2,1,75,0,0
35781,-181.818181818181,4,2,1,60,0,0
36134,-76.9230769230769,4,2,1,80,0,0
55899,-100,4,2,1,80,0,0
67193,-76.9230769230769,4,2,1,80,0,0
75663,-100,4,3,1,80,0,0
84133,-100,4,2,1,70,0,0
86957,-100,4,2,1,90,0,0

[Colours]
Combo1 : 191,96,0
Combo2 : 143,32,255
Combo3 : 191,0,96
Combo4 : 0,80,159

[HitObjects]
25,147,2075,5,2,0:0:0:0:
25,147,2252,1,10,0:0:0:0:
77,233,2428,1,0,0:0:0:0:
166,199,2604,1,10,0:0:0:0:
38,143,2781,1,2,0:0:0:0:
135,35,2957,2,0,P|129:83|119:123,2,90.000000298023,10|0|10,0:0|0:0|0:0,0:0:0:0:
249,249,3487,1,2,0:0:0:0:
176,301,3663,2,0,P|81:320|27:392,1,180.000000596046,10|8,0:0|0:0,0:0:0:0:
183,320,4193,1,2,2:2:0:0:
272,310,4546,1,2,2:2:0:0:
355,344,4722,1,2,2:0:0:0:
458,216,4899,5,2,2:2:0:0:
463,322,5252,1,2,0:0:0:0:
371,361,5428,1,8,0:0:0:0:
478,229,5604,1,2,0:0:0:0:
364,177,5781,1,10,0:0:0:0:
455,44,5957,2,0,P|460:88|470:132,2,90.000000298023,2|10|2,0:0|0:0|0:0,0:0:0:0:
446,240,6487,1,10,0:0:0:0:
236,122,6663,2,0,P|266:166|286:207,1,90.000000298023,2|8,0:0|0:0,0:0:0:0:
237,357,7016,1,2,0:0:0:0:
324,371,7369,1,2,0:0:0:0:
235,371,7546,1,10,0:0:0:0:
150,334,7722,1,2,0:0:0:0:
11,354,7899,5,10,0:0:0:0:
110,257,8075,1,0,0:0:0:0:
18,129,8252,1,10,0:0:0:0:
0,209,8428,1,2,0:0:0:0:
0,209,8604,1,10,0:0:0:0:
129,173,8781,1,2,0:0:0:0:
254,224,8957,1,10,0:0:0:0:
335,97,9134,1,2,0:0:0:0:
245,52,9310,1,10,0:0:0:0:
245,52,9487,1,0,0:0:0:0:
277,241,9663,1,10,0:0:0:0:
224,74,9840,1,2,0:0:0:0:
13,364,10193,5,2,3:2:0:0:
5,291,10369,1,0,3:2:0:0:
46,233,10546,1,2,3:2:0:0:
118,252,10899,1,2,3:2:0:0:
126,324,11075,1,2,3:2:0:0:
84,383,11252,1,0,3:2:0:0:
196,77,11957,6,0,P|230:59|295:47,2,90.000000298023,2|2|2,0:0|0:0|0:0,0:0:0:0:
245,166,12487,1,2,0:0:0:0:
76,82,12663,2,0,P|142:81|215:201,1,180.000000596046,2|2,0:0|0:0,0:0:0:0:
389,281,13369,5,2,2:2:0:0:
219,370,13546,1,14,0:0:0:0:
369,368,13722,1,0,0:0:0:0:
469,237,13898,1,2,1:2:0:0:
383,377,14075,1,2,0:0:0:0:
268,205,14252,1,10,0:0:0:0:
268,205,14428,1,2,0:0:0:0:
225,193,14516,1,0,0:0:0:0:
189,204,14604,2,0,P|182:259|190:313,1,90.000000298023,2|2,1:2|0:0,0:0:0:0:
475,160,14957,2,0,P|383:140|350:54,1,180.000000596046,10|0,0:0|1:0,0:0:0:0:
388,0,15487,1,2,3:3:0:0:
265,48,15840,1,2,3:2:0:0:
229,48,15928,1,0,3:0:0:0:
196,32,16016,1,0,3:2:0:0:
101,27,16193,5,2,0:0:0:0:
6,154,16546,1,2,0:0:0:0:
152,225,16722,1,0,1:0:0:0:
23,138,16898,1,2,0:0:0:0:
15,359,17075,1,10,0:0:0:0:
15,359,17252,1,2,0:0:0:0:
48,370,17340,1,0,0:0:0:0:
83,365,17428,2,0,P|93:320|94:261,1,90.000000298023,2|2,1:2|0:0,0:0:0:0:
236,218,17781,1,10,0:0:0:0:
0,143,17957,2,0,P|36:117|57:75,1,90.000000298023,2|0,0:0|1:0,0:0:0:0:
80,0,18310,1,2,3:0:0:0:
159,57,18663,1,2,3:2:0:0:
193,67,18752,1,0,3:2:0:0:
228,64,18840,1,2,3:2:0:0:
343,46,19016,1,2,0:0:0:0:
343,46,19193,5,10,0:0:0:0:
203,172,19369,1,0,0:0:0:0:
375,227,19546,1,2,1:2:0:0:
512,121,19722,1,0,0:0:0:0:
342,71,19898,1,10,0:0:0:0:
362,218,20075,1,2,0:0:0:0:
335,215,20163,1,0,0:0:0:0:
308,213,20251,1,2,1:2:0:0:
74,253,20428,1,2,0:0:0:0:
74,253,20781,1,2,0:0:0:0:
165,377,20957,1,2,1:2:0:0:
211,128,21134,1,2,0:0:0:0:
36,142,21487,5,2,3:2:0:0:
8,75,21663,1,2,1:2:0:0:
44,12,21840,1,2,3:2:0:0:
122,20,22193,1,2,3:2:0:0:
150,87,22369,1,2,1:2:0:0:
114,150,22546,1,0,3:0:0:0:
0,159,22722,1,10,0:0:0:0:
158,225,22899,1,2,3:2:0:0:
158,225,22987,1,0,3:0:0:0:
158,225,23075,1,0,1:0:0:0:
85,339,23251,6,0,P|40:358|-14:369,2,90.000000298023,2|10|0,0:0|0:0|0:0,0:0:0:0:
186,369,23693,1,0,3:0:0:0:
186,369,23781,2,0,P|104:317|95:204,1,180.000000596046,2|10,1:2|0:0,0:0:0:0:
290,131,24487,1,2,1:2:0:0:
490,20,24840,5,10,0:1:0:0:
448,240,25193,1,2,1:2:0:0:
256,251,25369,1,8,1:1:0:0:
302,306,25546,1,2,0:0:0:0:
450,255,25722,2,0,L|472:143,1,90.000000298023,8|0,0:1|1:2,0:0:0:0:
187,318,26075,1,8,0:1:0:0:
141,263,26252,1,2,0:0:0:0:
13,370,26428,1,2,0:0:0:0:
189,346,26604,1,2,1:2:0:0:
151,232,26781,1,2,1:2:0:0:
214,50,27134,5,8,0:1:0:0:
32,12,27310,1,2,1:2:0:0:
0,90,27487,1,2,0:0:0:0:
222,26,27663,1,8,0:1:0:0:
298,54,28016,1,0,1:2:0:0:
500,147,28193,1,8,1:1:0:0:
468,69,28370,1,0,0:0:0:0:
327,155,28546,2,0,L|290:72,1,90.000000298023,8|0,0:1|1:2,0:0:0:0:
165,249,28899,1,8,0:1:0:0:
32,363,29075,1,2,0:0:0:0:
0,285,29252,1,2,0:0:0:0:
170,166,29428,1,2,1:2:0:0:
57,0,29604,1,2,1:2:0:0:
29,78,29957,1,2,0:0:0:0:
99,210,30134,1,8,0:1:0:0:
280,215,30310,2,0,P|287:190|281:155,1,45.0000001490115,2|0,0:0|0:0,0:0:0:0:
374,11,30487,6,0,P|459:3|490:150,1,215.999994123458,14|2,0:0|1:2,0:0:0:0:
512,106,31016,1,2,1:2:0:0:
289,222,31193,1,10,0:0:0:0:
382,364,31369,2,0,P|435:314|413:228,1,161.999995592594,2|0,0:0|0:0,0:0:0:0:
292,202,31722,2,0,L|448:201,1,107.999997061729,2|8,0:0|0:0,0:0:0:0:
499,194,32075,1,2,0:0:0:0:
314,77,32252,1,2,1:2:0:0:
314,77,32428,2,0,L|282:195,1,107.999997061729,2|8,1:2|0:0,0:0:0:0:
150,54,32781,1,2,0:0:0:0:
261,199,32957,1,2,1:2:0:0:
157,354,33134,1,2,0:0:0:0:
30,217,33310,2,0,P|59:123|199:82,1,215.999994123458,10|2,0:0|1:2,0:0:0:0:
352,272,33840,1,0,1:0:0:0:
507,45,34016,2,0,P|454:35|389:4,2,107.999997061729,10|2|0,0:0|0:0|1:0,0:0:0:0:
365,262,34546,5,2,0:0:0:0:
376,247,34899,1,2,0:0:0:0:
464,264,35075,1,10,0:0:0:0:
429,337,35252,1,2,0:0:0:0:
360,278,35428,1,10,0:0:0:0:
435,46,35781,6,0,L|355:59,1,74.2500025117992,2|0,0:1|0:0,0:0:0:0:
299,16,36134,6,0,P|275:50|270:86,1,58.4999975157976,14|0,0:0|0:0,0:0:0:0:
127,256,36310,2,2,P|62:213|27:104,1,175.499992547393,2|0,0:0|0:0,0:1:0:0:
239,42,36663,2,0,P|238:76|228:108,1,58.4999975157976,2|0,0:3|0:0,0:0:0:0:
55,335,36840,2,2,P|145:300|232:312,1,175.499992547393,10|0,0:0|0:0,0:1:0:0:
253,360,37193,2,0,P|242:338|241:290,1,58.4999975157976,2|0,1:3|0:0,0:0:0:0:
491,143,37369,2,2,P|431:211|377:297,1,175.499992547393,2|0,0:0|0:0,0:1:0:0:
344,363,37722,5,2,0:0:0:0:
487,260,37899,2,0,P|483:235|475:203,1,58.4999975157976,10|0,1:3|0:0,0:0:0:0:
237,187,38075,1,6,0:3:0:0:
343,47,38252,2,0,P|337:101|318:182,1,116.999995031595,10|0,0:0|0:0,0:0:0:0:
460,378,38604,2,0,P|455:321|463:239,1,116.999995031595,2|0,1:2|0:0,0:0:0:0:
330,68,38957,6,0,P|283:75|243:99,1,58.4999975157976,10|0,0:2|0:0,0:0:0:0:
167,230,39134,2,0,P|93:213|77:150,1,116.999995031595,2|0,0:0|1:0,0:2:0:0:
12,14,39487,2,0,P|2:49|0:93,1,58.4999975157976,2|0,0:3|0:0,0:0:0:0:
122,256,39663,2,0,L|247:238,1,116.999995031595,10|0,0:0|0:0,0:2:0:0:
317,196,40016,2,0,P|327:231|329:275,1,58.4999975157976,2|0,1:3|0:0,0:0:0:0:
100,362,40193,2,0,P|87:309|85:235,1,116.999995031595,2|8,0:0|0:0,0:2:0:0:
320,355,40546,5,2,0:0:0:0:
478,230,40722,2,0,P|450:213|420:209,1,58.4999975157976,10|0,1:3|0:0,0:0:0:0:
206,305,40899,2,0,B|246:291|246:291|229:260,1,58.4999975157976,10|0,0:3|0:0,0:0:0:0:
54,57,41075,2,0,B|56:36|56:36|94:41,1,58.4999975157976,4|0,0:3|0:0,0:0:0:0:
26,226,41252,1,6,0:3:0:0:
174,165,41428,1,2,1:2:0:0:
192,339,41604,1,6,0:3:0:0:
168,146,41781,6,0,P|129:189|105:243,1,116.999995031595,10|0,0:0|0:0,0:0:0:0:
405,373,42134,2,0,P|395:315|369:263,1,116.999995031595,2|0,1:2|0:0,0:0:0:0:
246,110,42487,1,10,0:0:0:0:
246,110,42663,1,0,0:0:0:0:
512,192,42840,6,2,P|430:176|357:112,1,175.499992547393,2|0,1:2|0:0,0:1:0:0:
171,6,43193,2,2,P|53:67|30:128,1,175.499992547393,10|0,0:0|0:0,0:1:0:0:
43,296,43546,2,2,P|124:311|198:376,1,175.499992547393,2|0,1:2|0:0,0:1:0:0:
299,370,43899,2,0,P|301:337|280:275,1,58.4999975157976,10|0,0:3|0:0,0:0:0:0:
219,191,44075,1,4,0:3:0:0:
490,1,44252,2,0,P|473:118|382:158,1,175.499992547393,2|0,1:2|0:0,0:0:0:0:
286,121,44604,6,0,P|271:53|273:-8,1,116.999995031595,10|0,0:0|0:0,0:0:0:0:
485,249,44957,2,0,P|481:308|459:372,1,116.999995031595,2|2,1:2|0:0,0:0:0:0:
264,153,45310,1,10,0:0:0:0:
264,153,45487,1,0,0:0:0:0:
321,251,45663,5,2,1:2:0:0:
56,357,45840,2,0,B|17:309|87:245|40:173,1,175.499992547393,2|0,0:0|0:0,0:0:0:0:
114,126,46193,1,2,0:2:0:0:
279,236,46369,1,2,1:2:0:0:
126,315,46546,2,0,P|148:261|193:218,1,116.999995031595,2|10,0:2|0:0,0:0:0:0:
373,62,46899,1,2,1:2:0:0:
382,107,46987,1,2,1:2:0:0:
395,151,47075,1,2,1:2:0:0:
416,192,47163,1,0,1:0:0:0:
441,231,47252,1,2,1:2:0:0:
466,270,47340,1,2,1:2:0:0:
500,301,47428,6,2,P|396:300|351:375,1,175.499992547393,14|0,0:0|0:0,0:1:0:0:
253,371,47781,1,0,1:0:0:0:
74,254,47957,2,0,P|118:237|148:212,1,58.4999975157976,2|0,0:0|0:0,0:0:0:0:
249,105,48134,2,0,P|276:88|312:50,1,58.4999975157976,10|0,0:0|0:0,0:0:0:0:
482,254,48310,2,0,P|428:215|405:147,1,116.999995031595,2|0,0:0|1:0,0:0:0:0:
333,4,48663,1,2,0:0:0:0:
499,18,48840,6,0,P|483:46|474:94,1,58.4999975157976,10|0,0:0|0:0,0:0:0:0:
263,105,49016,2,0,P|263:137|279:183,1,58.4999975157976,2|0,0:0|0:0,0:0:0:0:
478,228,49193,1,2,1:1:0:0:
140,192,49369,6,0,P|161:270|163:369,1,175.499992547393,2|0,0:1|0:0,0:1:0:0:
48,366,49722,2,0,P|37:338|35:309,1,58.4999975157976,2|0,0:1|0:0,0:0:0:0:
252,179,49899,2,0,P|257:150|270:124,1,58.4999975157976,2|0,1:1|0:0,0:0:0:0:
421,16,50075,2,0,P|400:94|398:193,1,175.499992547393,2|2,0:1|0:0,0:1:0:0:
492,255,50428,2,0,P|490:225|479:198,1,58.4999975157976,2|0,0:1|0:0,0:0:0:0:
262,85,50604,2,0,P|246:115|237:165,1,58.4999975157976,2|0,1:1|0:0,0:0:0:0:
42,232,50781,2,2,P|17:152|0:48,1,175.499992547393,2|0,0:1|0:0,0:1:0:0:
23,282,51134,2,0,P|54:266|91:259,1,58.4999975157976,2|0,0:1|0:0,0:0:0:0:
221,77,51310,2,0,P|249:80|297:101,1,58.4999975157976,2|0,1:1|0:0,0:0:0:0:
396,380,51487,2,2,P|442:306|499:239,1,175.499992547393,2|0,0:1|0:0,0:1:0:0:
503,105,51840,2,0,P|478:126|450:138,1,58.4999975157976,2|0,0:1|0:0,0:0:0:0:
221,77,52016,1,2,1:2:0:0:
221,77,52193,1,0,0:0:0:0:
223,304,52369,5,10,0:0:0:0:
348,181,52546,2,0,P|360:226|386:262,1,58.4999975157976,10|0,0:3|0:0,0:0:0:0:
512,286,52722,1,10,1:3:0:0:
376,375,52899,1,6,0:3:0:0:
241,129,53075,6,0,P|176:186|162:215,1,116.999995031595,10|0,0:0|0:0,0:0:0:0:
16,366,53428,2,0,P|-13:307|-13:223,1,116.999995031595,2|0,1:2|0:0,0:0:0:0:
70,66,53781,1,10,0:0:0:0:
70,66,53957,1,0,0:0:0:0:
394,171,54134,2,0,P|338:113|301:-16,1,175.499992547393,2|0,1:2|0:0,0:0:0:0:
169,245,54487,2,0,P|226:239|282:254,1,116.999995031595,10|0,0:0|0:0,0:0:0:0:
469,368,54840,2,0,P|509:292|511:197,1,175.499992547393,2|0,1:2|0:0,0:0:0:0:
487,236,55193,1,6,0:3:0:0:
289,280,55369,1,8,0:3:0:0:
177,103,55546,2,0,P|126:102|42:143,1,116.999995031595,10|0,1:3|0:0,0:0:0:0:
135,384,55899,6,0,P|2:271|25:172,1,270.000000894069,14|0,0:0|0:0,0:0:0:0:
238,47,56604,2,0,B|285:103|257:200|183:212|183:212|172:171|139:145,1,270.000000894069,10|0,0:0|0:0,0:0:0:0:
73,62,57310,2,0,P|116:74|189:79,1,90.000000298023,10|0,0:0|0:0,0:0:0:0:
445,82,57663,1,2,1:2:0:0:
372,173,57840,1,2,0:0:0:0:
353,146,57928,1,2,0:0:0:0:
343,114,58016,2,0,B|353:75|369:41|369:41|418:25,2,90.000000298023,10|0|2,0:0|0:0|1:2,0:0:0:0:
281,260,58546,1,0,0:0:0:0:
500,280,58722,6,0,B|474:249|411:248|411:248|397:270|349:278,1,135.000000447034,10|0,0:0|0:0,0:0:0:0:
371,285,59075,1,2,1:2:0:0:
140,265,59252,1,0,0:0:0:0:
45,369,59428,2,0,B|38:274,1,90.000000298023,10|0,0:0|0:0,0:0:0:0:
190,152,59781,2,0,B|191:203|191:203|242:244,1,90.000000298023,2|0,1:2|0:0,0:0:0:0:
0,71,60134,6,0,B|34:62|89:39|89:39|123:42|151:69,1,135.000000447034,10|0,0:0|0:0,0:0:0:0:
135,69,60487,1,2,1:2:0:0:
334,170,60664,1,0,0:0:0:0:
426,34,60840,1,10,0:0:0:0:
512,99,61016,1,0,0:0:0:0:
441,124,61193,1,2,1:2:0:0:
408,49,61369,1,0,0:0:0:0:
312,240,61546,6,0,B|294:227|294:227|275:169|309:79,1,135.000000447034,10|0,0:0|0:0,0:0:0:0:
244,55,61899,1,2,1:2:0:0:
415,234,62075,1,0,0:0:0:0:
459,89,62252,2,0,P|419:96|377:127,1,90.000000298023,10|0,0:0|0:0,0:0:0:0:
371,342,62604,2,0,P|402:315|423:268,1,90.000000298023,2|0,1:2|0:0,0:0:0:0:
170,177,62957,6,0,B|178:328|178:328|221:372,1,180.000000596046,10|2,0:0|1:2,0:0:0:0:
205,364,63487,1,2,0:0:0:0:
64,280,63663,2,0,B|85:253|85:253|166:263,1,90.000000298023,10|0,0:0|0:0,0:0:0:0:
499,271,64016,2,0,L|388:283,1,90.000000298023,2|0,1:2|0:0,0:0:0:0:
230,345,64369,5,10,0:0:0:0:
325,247,64546,1,2,0:0:0:0:
314,212,64634,1,2,0:0:0:0:
285,190,64722,1,2,1:2:0:0:
189,159,64899,1,0,0:0:0:0:
385,23,65075,2,0,P|312:26|255:60,1,135.000000447034,10|0,0:0|0:0,0:0:0:0:
170,15,65428,2,0,P|192:57|244:86,1,90.000000298023,2|0,1:2|0:0,0:0:0:0:
211,367,65781,6,0,B|175:329|175:329|173:274|213:228,1,135.000000447034,10|0,0:0|0:0,0:0:0:0:
315,231,66134,1,0,1:0:0:0:
37,73,66310,2,0,B|74:103|76:146|76:146|50:212,1,135.000000447034,2|0,0:0|0:0,0:0:0:0:
47,217,66663,1,2,0:0:0:0:
247,369,66840,1,2,1:2:0:0:
235,207,67016,1,2,0:0:0:0:
37,367,67193,6,0,P|65:352|118:348,1,58.4999975157976,14|0,0:0|0:0,0:0:0:0:
280,367,67369,2,0,P|261:318|274:240,1,116.999995031595,2|0,0:0|1:0,0:0:0:0:
315,157,67722,1,2,0:0:0:0:
490,317,67899,2,0,P|466:330|423:335,1,58.4999975157976,10|0,0:0|0:0,0:0:0:0:
165,294,68075,2,0,P|177:250|164:170,1,116.999995031595,2|0,0:0|1:0,0:0:0:0:
123,88,68428,1,2,0:0:0:0:
285,257,68604,1,10,0:0:0:0:
53,361,68781,6,0,P|38:335|31:302,1,58.4999975157976,2|0,0:1|0:0,0:0:0:0:
185,85,68958,2,0,P|175:112|172:141,1,58.4999975157976,2|0,1:1|0:0,0:0:0:0:
380,214,69134,2,0,P|387:126|412:42,1,175.499992547393,2|0,0:1|0:0,0:0:0:0:
511,157,69487,2,0,P|509:124|502:100,1,58.4999975157976,2|0,0:1|0:0,0:0:0:0:
282,283,69663,2,0,P|254:277|227:261,1,58.4999975157976,2|0,1:1|0:0,0:0:0:0:
48,64,69840,2,0,P|67:143|114:244,1,175.499992547393,2|0,0:1|0:0,0:0:0:0:
0,317,70193,2,0,P|3:287|-9:234,1,58.4999975157976,2|0,0:1|0:0,0:0:0:0:
195,130,70369,2,0,P|222:135|249:151,1,58.4999975157976,2|0,1:1|0:0,0:0:0:0:
456,350,70546,2,0,P|384:284|352:189,1,175.499992547393,2|0,0:1|0:0,0:0:0:0:
471,145,70899,2,0,P|441:128|387:118,1,58.4999975157976,2|0,0:1|0:0,0:0:0:0:
217,298,71075,2,0,P|203:278|192:244,1,58.4999975157976,2|0,1:1|0:0,0:0:0:0:
113,11,71252,2,0,P|41:77|9:172,1,175.499992547393,2|0,0:1|0:0,0:0:0:0:
95,252,71604,2,0,P|92:227|100:192,1,58.4999975157976,2|0,0:1|0:0,0:0:0:0:
259,14,71781,1,2,1:2:0:0:
259,14,71957,1,0,0:0:0:0:
512,113,72133,5,8,0:0:0:0:
360,224,72310,2,0,P|330:206|304:180,1,58.4999975157976,10|0,0:3|0:0,0:0:0:0:
250,118,72486,1,10,1:3:0:0:
479,219,72663,1,6,0:3:0:0:
418,3,72840,6,0,P|364:43|338:120,1,116.999995031595,10|0,0:0|0:0,0:0:0:0:
123,171,73193,2,0,P|177:211|203:288,1,116.999995031595,2|0,1:2|0:0,0:0:0:0:
393,312,73546,1,10,0:0:0:0:
393,312,73722,1,0,0:0:0:0:
130,378,73899,2,0,P|114:324|117:237,1,116.999995031595,2|0,1:2|0:0,0:0:0:0:
512,150,74252,6,0,P|416:169|336:234,1,175.499992547393,10|0,0:0|0:0,0:0:0:0:
217,0,74604,2,0,P|256:57|308:85,1,116.999995031595,2|0,1:2|0:0,0:0:0:0:
66,362,74957,2,0,P|81:275|67:187,1,175.499992547393,10|0,0:0|0:0,0:0:0:0:
169,112,75310,2,0,P|182:143|200:170,1,58.4999975157976,2|0,0:0|0:0,0:0:0:0:
435,352,75663,6,0,L|426:307,1,45.0000001490115,12|0,0:1|0:0,0:0:0:0:
320,40,75928,2,0,L|329:85,1,45.0000001490115,0|0,0:1|0:0,0:0:0:0:
288,165,76193,1,0,0:1:0:0:
439,112,76369,1,8,0:1:0:0:
455,273,76546,1,0,0:0:0:0:
288,187,76722,1,0,1:1:0:0:
208,326,76899,1,0,0:1:0:0:
16,166,77075,6,0,L|27:210,1,45.0000001490115,12|0,0:1|0:0,0:0:0:0:
28,368,77340,2,0,L|17:324,1,45.0000001490115,0|0,0:1|0:0,0:0:0:0:
108,277,77604,1,0,0:1:0:0:
201,209,77781,1,8,0:1:0:0:
330,384,77957,1,0,0:1:0:0:
353,272,78134,1,0,1:1:0:0:
455,203,78310,1,0,0:1:0:0:
459,365,78487,6,0,L|469:321,1,45.0000001490115,12|0,0:1|0:0,0:0:0:0:
277,68,78752,2,0,L|287:111,1,45.0000001490115,0|0,0:1|0:0,0:0:0:0:
340,5,79016,1,0,0:1:0:0:
431,128,79193,1,8,0:1:0:0:
233,193,79369,1,0,0:0:0:0:
241,60,79546,1,0,1:1:0:0:
109,18,79722,1,0,0:1:0:0:
10,195,79899,6,0,L|22:129,1,45.0000001490115,12|0,0:1|0:0,0:0:0:0:
67,350,80163,2,0,L|79:284,1,45.0000001490115,0|0,0:1|0:0,0:0:0:0:
168,364,80428,1,0,0:1:0:0:
254,263,80604,1,8,0:1:0:0:
458,154,80781,1,0,0:1:0:0:
350,98,80957,1,0,1:1:0:0:
284,0,81134,1,0,0:1:0:0:
450,220,81310,6,0,L|439:176,1,45.0000001490115,12|0,0:1|0:0,0:0:0:0:
196,2,81575,2,0,L|181:44,1,45.0000001490115,0|0,0:1|0:0,0:0:0:0:
99,91,81840,1,0,0:1:0:0:
251,150,82016,1,8,0:1:0:0:
407,12,82193,1,0,0:0:0:0:
269,38,82369,1,0,1:1:0:0:
414,200,82546,1,0,0:1:0:0:
223,353,82722,6,0,L|203:278,1,45.0000001490115,12|0,0:1|0:0,0:0:0:0:
87,205,82987,2,0,L|78:268,1,45.0000001490115,0|0,0:1|0:0,0:0:0:0:
0,304,83252,1,0,0:1:0:0:
115,374,83428,1,8,0:1:0:0:
290,236,83604,1,0,0:1:0:0:
243,109,83781,1,0,1:1:0:0:
512,47,83957,1,0,0:1:0:0:
254,72,84134,6,0,L|245:13,1,45.0000001490115,12|0,0:1|0:0,0:0:0:0:
393,109,84399,2,0,L|384:50,1,45.0000001490115,0|0,0:1|0:0,0:0:0:0:
330,168,84663,1,0,0:2:0:0:
403,133,84840,1,2,0:2:0:0:
453,296,85016,1,2,0:2:0:0:
249,261,85193,1,2,0:2:0:0:
249,261,85369,1,2,0:2:0:0:
162,338,85546,2,0,L|150:276,1,45.0000001490115,8|0,0:1|0:0,0:0:0:0:
61,361,85810,2,0,L|49:296,1,45.0000001490115,0|0,0:1|0:0,0:0:0:0:
91,186,86075,1,2,0:2:0:0:
241,282,86252,1,2,0:2:0:0:
434,204,86428,1,2,0:2:0:0:
335,294,86604,1,2,0:2:0:0:
152,269,86781,1,2,0:2:0:0:
255,12,86957,5,8,0:1:0:0:
