osu file format v14

[General]
AudioFilename: audio.mp3
AudioLeadIn: 0
PreviewTime:35737
Countdown: 0
SampleSet: Soft
StackLeniency: 0.5
Mode: 0
LetterboxInBreaks: 0
WidescreenStoryboard: 1

[Editor]
DistanceSpacing: 1.1
BeatDivisor: 4
GridSize: 8
TimelineZoom: 2.5

[Metadata]
Title:Kaibutsu (TV Size)
TitleUnicode:怪物 (TV Size)
Artist:YOASOBI
ArtistUnicode:YOASOBI
Creator:Ryuusei Aika
Version:wetdog123's Insane
Source:BEASTARS
Tags:ビースターズ japanese furry anime op2 pop j-pop jpop opening theme 幾田りら Ikuta Rira Lilas Ayase Monster MoeAsuka Atrue SuperBox Fall Marle Calvaria Mariko Sakuragi Reiji Maigo SB hhjkl [Hatsune Miku] [Hatsune_Miku] Hatsune Miku Remapper _lai Kyrian 09kami Ducky- Acyl Acylica Bellicose wafer iWaifu KAMI NO KOTOBA Addy2607 KaedeharaKazuha Airincat Chompy Yooh Reywateil Amateurre Sparhten Ajisai- HabiHolic newton- Yuuma Ogura Yui fedora- UberFazz xidorn Pata-Mon PataMon Deca Wanpachi cycopton Gibune wiken Fuju Stratos Crystal OneShotFox Elcheer Fieryrage hypercyte hypercute Kittyadventure gokugohan12468 Kyouren Zelq ponbot Yuuma3 Mimari i love ganyu Flake yaspo Regraz Mafumafu bongo Moete Senseabel Senseable Kuse KuBsNia_ZhoYL_ wetdog123 eiri-
BeatmapID:2820232
BeatmapSetID:1335792

[Difficulty]
HPDrainRate:5
CircleSize:4.1
OverallDifficulty:7.8
ApproachRate:9
SliderMultiplier:1.70000000596046
SliderTickRate:1

[Events]
//Background and Video events
0,0,"furry.jpg",0,0
Video,-200,"OP.mp4"
//Break Periods
//Storyboard Layer 0 (Background)
//Storyboard Layer 1 (Fail)
//Storyboard Layer 2 (Pass)
//Storyboard Layer 3 (Foreground)
//Storyboard Layer 4 (Overlay)
//Storyboard Sound Samples

[TimingPoints]
-3395,352.941176470588,4,2,1,40,1,0
1543,-100,4,2,1,40,0,0
1546,-100,4,2,1,40,0,0
2249,-125,4,2,1,40,0,0
2252,-125,4,2,1,60,0,0
13193,-100,4,2,1,60,0,0
13543,-100,4,2,1,60,0,0
13546,-100,4,2,1,70,0,0
24837,-100,4,2,1,70,0,0
24840,-100,4,2,1,60,0,0
29604,-100,4,2,1,60,0,0
30484,-100,4,2,1,60,0,0
30487,-100,4,2,1,75,0,0
35428,-100,4,2,1,75,0,0
35516,-100,4,2,1,75,0,0
35778,-100,4,2,1,75,0,0
35781,-142.857142857143,4,2,1,60,0,0
36131,-100,4,2,1,60,0,0
36134,-100,4,2,1,80,0,1
36222,-89.2857142857143,4,2,1,80,0,0
42046,-89.2857142857143,4,2,1,5,0,0
42134,-89.2857142857143,4,2,1,80,0,0
42399,-89.2857142857143,4,2,1,5,0,0
42487,-89.2857142857143,4,2,1,80,0,0
42752,-89.2857142857143,4,2,1,5,0,0
42840,-89.2857142857143,4,2,1,80,0,0
43104,-89.2857142857143,4,2,1,5,0,0
43193,-89.2857142857143,4,2,1,80,0,0
43457,-89.2857142857143,4,2,1,5,0,0
43545,-89.2857142857143,4,2,1,80,0,0
43810,-89.2857142857143,4,2,1,5,0,0
43898,-89.2857142857143,4,2,1,80,0,0
44163,-89.2857142857143,4,2,1,5,0,0
44252,-89.2857142857143,4,2,1,80,0,0
44516,-89.2857142857143,4,2,1,5,0,0
44604,-89.2857142857143,4,2,1,80,0,0
44869,-89.2857142857143,4,2,1,5,0,0
44957,-89.2857142857143,4,2,1,80,0,0
45222,-89.2857142857143,4,2,1,5,0,0
45310,-89.2857142857143,4,2,1,80,0,0
45575,-89.2857142857143,4,2,1,80,0,0
45840,-89.2857142857143,4,2,1,80,0,0
47428,-89.2857142857143,4,2,1,80,0,1
47516,-89.2857142857143,4,2,1,80,0,0
49193,-89.2857142857143,4,2,1,80,0,0
53075,-100,4,2,1,80,0,0
54134,-100,4,2,1,80,0,0
54487,-100,4,2,1,80,0,0
55899,-100,4,2,1,80,0,1
55987,-100,4,2,1,80,0,0
56428,-100,4,2,1,80,0,0
57310,-100,4,2,1,80,0,0
58193,-100,4,2,1,80,0,0
58369,-100,4,2,1,80,0,0
58546,-100,4,2,1,80,0,0
58722,-100,4,2,1,80,0,0
59252,-100,4,2,1,80,0,0
60134,-100,4,2,1,80,0,0
60663,-100,4,2,1,80,0,0
61016,-100,4,2,1,80,0,0
61192,-100,4,2,1,80,0,0
61369,-100,4,2,1,80,0,0
61546,-100,4,2,1,80,0,0
62075,-100,4,2,1,80,0,0
62957,-100,4,2,1,80,0,0
63486,-100,4,2,1,80,0,0
63840,-100,4,2,1,80,0,0
64722,-100,4,2,1,80,0,0
65075,-100,4,2,1,80,0,0
65428,-100,4,2,1,80,0,0
65781,-100,4,2,1,80,0,0
66663,-100,4,2,1,80,0,0
67193,-100,4,2,1,80,0,0
69487,-100,4,2,1,80,0,0
72310,-100,4,2,1,80,0,0
72487,-100,4,2,1,80,0,0
72663,-100,4,2,1,80,0,0
74252,-100,4,2,1,80,0,0
74957,-100,4,2,1,80,0,0
75310,-100,4,2,1,80,0,0
75663,-90.9090909090909,4,2,1,80,0,1
76193,-90.9090909090909,4,2,1,80,0,1
76369,-90.9090909090909,4,2,1,80,0,1
77075,-90.9090909090909,4,2,1,80,0,1
77781,-90.9090909090909,4,2,1,80,0,1
78487,-90.9090909090909,4,2,1,80,0,1
79193,-90.9090909090909,4,2,1,80,0,1
79899,-90.9090909090909,4,2,1,80,0,1
80605,-90.9090909090909,4,2,1,80,0,1
80781,-90.9090909090909,4,2,1,80,0,1
80957,-90.9090909090909,4,2,1,80,0,1
81134,-90.9090909090909,4,2,1,80,0,1
81310,-90.9090909090909,4,2,1,80,0,1
81575,-90.9090909090909,4,2,1,80,0,1
82016,-90.9090909090909,4,2,1,80,0,1
82722,-90.9090909090909,4,2,1,80,0,1
83428,-90.9090909090909,4,2,1,80,0,1
84130,-90.9090909090909,4,2,1,80,0,1
84134,-125,4,2,1,70,0,0
86957,-100,4,2,1,90,0,0

[Colours]
Combo1 : 191,96,0
Combo2 : 143,32,255
Combo3 : 191,0,96
Combo4 : 0,80,159

[HitObjects]
455,34,2252,6,0,L|451:125,1,68.0000002384184,10|0,0:0|0:0,0:0:0:0:
381,39,2604,2,0,L|377:130,1,68.0000002384184,10|2,0:0|0:0,0:0:0:0:
307,44,2957,2,0,L|303:135,1,68.0000002384184,10|0,0:0|0:0,0:0:0:0:
233,49,3310,2,0,L|229:140,1,68.0000002384184,10|2,0:0|0:0,0:0:0:0:
226,191,3663,2,0,P|154:180|74:182,1,136.000000476837,10|8,0:0|0:0,0:0:0:0:
22,213,4193,2,0,P|14:248|58:268,1,68.0000002384184,2|8,0:0|0:0,0:0:0:0:
106,292,4546,2,0,P|140:281|135:233,1,68.0000002384184,2|8,0:0|0:0,0:0:0:0:
133,180,4899,6,0,P|120:106|127:18,1,136.000000476837,2|2,0:0|0:0,0:0:0:0:
189,11,5428,1,8,0:0:0:0:
243,61,5604,1,2,0:0:0:0:
310,28,5781,1,10,0:0:0:0:
229,132,5957,1,2,0:0:0:0:
243,61,6134,1,10,0:0:0:0:
302,157,6310,1,2,0:0:0:0:
229,236,6487,2,0,P|218:269|241:376,1,136.000000476837,10|8,0:0|0:0,0:0:0:0:
313,379,7016,2,0,B|338:372|357:376|357:376|342:370|311:349,1,68.0000002384184,2|10,0:0|0:0,0:0:0:0:
291,299,7369,1,2,0:0:0:0:
414,326,7546,1,10,0:0:0:0:
274,307,7722,1,2,0:0:0:0:
359,241,7899,6,0,L|366:154,1,68.0000002384184,10|0,0:0|0:0,0:0:0:0:
434,234,8252,2,0,L|441:147,1,68.0000002384184,10|2,0:0|0:0,0:0:0:0:
289,171,8604,2,0,L|282:84,1,68.0000002384184,10|2,0:0|0:0,0:0:0:0:
214,164,8957,2,0,L|207:77,1,68.0000002384184,10|2,0:0|0:0,0:0:0:0:
327,24,9310,1,10,0:0:0:0:
327,24,9487,1,0,0:0:0:0:
238,16,9663,1,10,0:0:0:0:
416,36,9840,1,2,0:0:0:0:
416,36,10193,6,0,P|410:96|407:186,2,136.000000476837,2|2|2,0:0|0:0|0:0,0:0:0:0:
416,36,11075,2,0,P|452:11|462:42,2,68.0000002384184,10|0|8,0:0|0:0|0:0,0:0:0:0:
328,85,11604,2,0,P|290:92|285:63,2,68.0000002384184,2|10|2,0:0|0:0|0:0,0:0:0:0:
417,116,12134,1,10,0:0:0:0:
290,167,12310,1,2,0:0:0:0:
456,218,12487,1,10,0:0:0:0:
369,198,12663,2,0,P|362:242|348:362,1,136.000000476837,2|2,0:0|0:0,0:0:0:0:
381,363,13193,2,0,B|357:348|351:333|351:333|350:351|337:374,1,85.000000298023,2|2,0:3|0:0,0:0:0:0:
293,214,13546,5,10,0:0:0:0:
148,297,13722,1,0,0:0:0:0:
255,352,13899,1,2,1:2:0:0:
223,268,14075,1,2,0:0:0:0:
141,290,14252,1,10,0:0:0:0:
166,376,14428,1,2,0:0:0:0:
42,329,14604,1,2,1:2:0:0:
101,165,14781,1,2,0:0:0:0:
52,69,14957,2,0,L|76:244,1,170.000000596046,10|0,0:0|1:0,0:0:0:0:
174,93,15487,2,0,L|200:-3,1,85.000000298023,2|8,0:0|0:0,0:0:0:0:
237,212,15840,2,0,B|199:192|199:192|182:240,1,85.000000298023,2|0,0:0|1:0,0:0:0:0:
320,97,16193,6,0,B|338:33|338:33|342:16|363:22|358:40|358:40|341:103,1,170.000000596046,2|2,0:0|0:0,0:0:0:0:
323,200,16722,1,0,1:0:0:0:
465,170,16899,1,2,0:0:0:0:
448,90,17075,1,10,0:0:0:0:
433,248,17252,1,2,0:0:0:0:
283,215,17428,1,2,1:2:0:0:
396,326,17604,1,2,0:0:0:0:
370,170,17781,2,0,P|351:129|357:75,1,85.000000298023,10|2,0:0|0:0,0:0:0:0:
286,311,18134,2,0,P|327:343|346:399,1,85.000000298023,0|2,1:0|0:0,0:0:0:0:
350,244,18487,1,10,0:0:0:0:
124,214,18663,1,2,0:0:0:0:
273,235,18840,1,2,1:2:0:0:
51,206,19016,1,2,0:0:0:0:
202,211,19193,6,0,P|215:148|209:81,1,127.500000447035,10|0,0:0|0:0,0:0:0:0:
192,43,19546,2,0,P|160:10|109:0,1,85.000000298023,2|0,1:2|0:0,0:0:0:0:
47,135,19899,2,0,P|22:84|27:36,2,85.000000298023,10|2|2,0:0|0:0|1:2,0:0:0:0:
230,40,20428,2,0,P|186:1|104:63,1,170.000000596046,2|2,0:0|0:0,0:0:0:0:
121,153,20957,1,2,1:2:0:0:
121,153,21134,2,0,P|169:177|209:171,1,85.000000298023,2|8,0:0|0:0,0:0:0:0:
298,123,21487,6,0,P|376:129|481:157,2,170.000000596046,2|2|2,0:0|0:0|0:0,0:0:0:0:
231,77,22369,2,0,P|201:45|227:9,2,85.000000298023,2|0|10,1:2|0:0|0:0,0:0:0:0:
189,160,22899,2,0,P|224:180|204:220,2,85.000000298023,2|0|2,0:0|1:0|0:0,0:0:0:0:
97,113,23428,2,0,L|68:8,1,85.000000298023,10|0,0:0|0:0,0:0:0:0:
53,263,23781,2,0,L|84:180,1,85.000000298023,2|0,1:2|0:0,0:0:0:0:
238,381,24134,2,0,L|70:334,1,170.000000596046,10|2,0:0|1:2,0:0:0:0:
304,346,24840,5,10,0:1:0:0:
411,213,25193,1,2,1:2:0:0:
353,151,25369,2,0,L|342:62,1,85.000000298023,10|2,1:1|0:0,0:0:0:0:
411,213,25722,1,10,0:1:0:0:
177,167,26075,1,10,0:1:0:0:
137,242,26252,5,2,0:0:0:0:
177,167,26428,1,2,0:0:0:0:
129,96,26604,1,2,1:2:0:0:
157,15,26781,1,2,1:2:0:0:
389,29,27134,6,0,L|473:15,2,85.000000298023,10|2|2,0:1|1:2|0:0,0:0:0:0:
314,71,27663,5,10,0:1:0:0:
78,41,28016,1,2,1:2:0:0:
78,41,28193,2,0,L|170:61,1,85.000000298023,10|2,1:1|0:0,0:0:0:0:
175,133,28546,2,0,L|76:147,1,85.000000298023,10|0,0:1|1:2,0:0:0:0:
30,205,28899,1,10,0:1:0:0:
87,267,29075,5,2,0:0:0:0:
33,333,29252,1,2,0:0:0:0:
87,267,29428,1,2,1:2:0:0:
153,319,29604,1,2,1:2:0:0:
229,280,29781,2,0,L|321:266,1,85.000000298023,10|2,0:1|0:0,0:0:0:0:
343,196,30134,2,0,L|332:110,1,85.000000298023,10|2,0:1|0:0,0:0:0:0:
370,47,30399,1,0,0:0:0:0:
370,47,30487,6,0,P|437:38|487:124,1,170.000000596046,14|2,0:0|1:2,0:0:0:0:
488,115,31016,1,2,1:2:0:0:
468,228,31193,1,10,0:0:0:0:
468,228,31369,2,0,P|430:273|328:223,1,170.000000596046,2|2,0:0|0:0,0:0:0:0:
300,167,31899,2,0,P|257:157|242:196,1,85.000000298023,8|2,0:0|0:0,0:0:0:0:
233,290,32252,1,2,1:2:0:0:
233,290,32428,1,2,1:2:0:0:
154,325,32604,2,0,P|114:327|106:289,1,85.000000298023,8|2,0:0|0:0,0:0:0:0:
39,203,32957,1,2,1:2:0:0:
136,168,33134,1,2,0:0:0:0:
34,90,33310,6,0,P|42:44|130:14,1,127.500000447035,10|0,0:0|0:0,0:0:0:0:
166,13,33663,2,0,P|214:63|204:111,1,85.000000298023,2|0,1:2|1:0,0:0:0:0:
205,172,34016,2,0,P|210:218|256:245,1,85.000000298023,10|2,0:0|0:0,0:0:0:0:
328,245,34369,2,0,L|506:230,1,170.000000596046,0|8,1:0|0:0,0:0:0:0:
497,230,35075,1,10,0:0:0:0:
497,230,35428,1,10,0:0:0:0:
497,230,35781,2,0,B|490:200|490:200|474:225,1,59.4999983928203,2|0,0:1|0:0,0:0:0:0:
392,358,36134,5,14,0:0:0:0:
474,354,36310,2,0,P|416:281|325:305,1,190.40000299179,2|2,0:0|0:0,0:0:0:0:
234,247,36840,2,0,P|280:216|284:87,1,190.40000299179,10|2,0:0|1:2,0:0:0:0:
246,18,37369,2,0,P|199:8|201:46,1,95.2000014958952,2|8,0:0|0:0,0:0:0:0:
404,174,37722,1,2,0:0:0:0:
173,141,37899,1,2,1:2:0:0:
366,39,38075,1,2,0:0:0:0:
280,229,38252,2,0,P|287:279|304:332,1,95.2000014958952,10|0,0:0|0:0,0:0:0:0:
303,126,38604,2,0,B|288:80|288:80|264:128,1,95.2000014958952,2|0,1:2|0:0,0:0:0:0:
394,280,38957,1,10,0:0:0:0:
180,257,39134,6,0,B|54:284|156:326|9:351,1,190.40000299179,2|2,0:0|0:0,0:0:0:0:
84,196,39663,2,0,P|113:159|121:113,1,95.2000014958952,10|0,0:0|0:0,0:0:0:0:
112,0,40016,1,2,1:2:0:0:
270,140,40193,2,0,P|245:82|199:46,1,95.2000014958952,2|8,0:0|0:0,0:0:0:0:
270,286,40546,1,2,0:0:0:0:
451,161,40722,1,2,1:2:0:0:
484,0,40899,1,2,0:0:0:0:
411,33,41075,1,10,0:0:0:0:
360,148,41252,1,2,0:0:0:0:
412,320,41428,1,2,1:2:0:0:
500,375,41604,1,2,0:0:0:0:
444,247,41781,6,0,P|357:264|339:345,1,142.800002243843,10|0,0:0|0:0,0:0:0:0:
334,366,42134,2,0,L|163:354,1,142.800002243843,2|0,1:2|0:0,0:0:0:0:
188,347,42487,2,0,L|344:358,1,142.800002243843,10|0,0:0|0:0,0:0:0:0:
332,299,42840,2,0,P|371:242|440:238,1,142.800002243843,2|0,1:2|0:0,0:0:0:0:
473,191,43193,6,0,P|435:124|455:59,1,142.800002243843,10|0,0:0|0:0,0:0:0:0:
441,57,43546,2,0,P|425:126|455:189,1,142.800002243843,2|0,1:2|0:0,0:0:0:0:
427,240,43899,2,0,L|265:224,1,142.800002243843,10|0,0:0|0:0,0:0:0:0:
228,215,44252,2,0,P|214:146|149:107,1,142.800002243843,2|0,1:2|0:0,0:0:0:0:
99,104,44604,6,0,P|43:129|25:238,1,142.800002243843,10|0,0:0|0:0,0:0:0:0:
2,196,44957,2,0,P|24:129|85:96,1,142.800002243843,2|0,1:2|0:0,0:0:0:0:
130,98,45310,1,10,0:0:0:0:
100,363,45663,1,2,1:2:0:0:
32,310,45840,6,0,B|72:305|112:262|112:262|135:309|181:325,1,190.40000299179,2|2,0:0|0:0,0:0:0:0:
318,358,46369,1,2,1:2:0:0:
325,284,46546,2,0,B|295:264|268:210|268:210|272:254|261:311,1,190.40000299179,2|2,0:0|1:2,0:0:0:0:
436,293,47075,2,0,L|441:231,1,47.6000007479476,2|0,1:2|0:0,0:0:0:0:
456,140,47252,1,2,1:2:0:0:
456,140,47340,1,2,1:2:0:0:
455,140,47428,6,0,P|450:45|363:20,1,190.40000299179,14|0,0:0|1:0,0:0:0:0:
308,175,47957,1,2,0:0:0:0:
267,75,48134,1,10,0:0:0:0:
300,174,48310,2,0,P|317:222|302:286,1,95.2000014958952,2|0,0:0|1:0,0:0:0:0:
149,169,48663,1,2,0:0:0:0:
174,47,48840,5,10,0:0:0:0:
158,165,49016,1,2,0:0:0:0:
238,276,49193,1,2,1:2:0:0:
47,230,49369,2,0,P|9:259|-1:304,1,95.2000014958952,2|8,0:0|0:0,0:0:0:0:
264,104,49722,5,2,0:0:0:0:
40,139,49899,1,2,1:2:0:0:
271,109,50075,2,0,P|314:89|360:96,1,95.2000014958952,2|8,0:0|0:0,0:0:0:0:
81,44,50428,5,2,0:0:0:0:
242,202,50604,1,2,1:2:0:0:
84,37,50781,2,0,P|49:7|-2:6,1,95.2000014958952,2|8,0:0|0:0,0:0:0:0:
183,54,51134,5,2,0:0:0:0:
132,179,51310,1,2,1:2:0:0:
190,49,51487,2,0,P|242:30|283:27,1,95.2000014958952,2|8,0:0|0:0,0:0:0:0:
69,122,51840,1,2,0:0:0:0:
214,143,52016,2,0,P|252:168|279:218,1,95.2000014958952,2|0,1:2|0:0,0:0:0:0:
25,263,52369,1,10,0:0:0:0:
115,255,52546,1,2,0:0:0:0:
207,245,52722,1,2,1:2:0:0:
73,176,52899,1,2,0:0:0:0:
160,334,53075,6,0,L|243:351,1,85.000000298023,10|0,0:0|0:0,0:0:0:0:
422,296,53428,2,0,L|324:307,1,85.000000298023,2|0,1:2|0:0,0:0:0:0:
176,209,53781,2,0,P|128:163|86:142,1,85.000000298023,10|0,0:0|0:0,0:0:0:0:
365,176,54134,2,0,P|398:149|445:132,1,85.000000298023,2|0,1:2|0:0,0:0:0:0:
138,27,54487,2,0,P|194:82|210:106,1,85.000000298023,10|0,0:0|0:0,0:0:0:0:
386,10,54840,2,0,P|341:41|319:72,1,85.000000298023,2|0,1:2|0:0,0:0:0:0:
280,200,55193,2,0,L|269:113,1,85.000000298023,10|0,0:0|0:0,0:0:0:0:
305,338,55546,2,0,B|288:323|282:302|282:302|280:324|267:341,1,85.000000298023,2|0,1:2|0:0,0:0:0:0:
268,198,55899,6,0,L|246:19,1,170.000000596046,14|0,0:0|1:0,0:0:0:0:
333,55,56428,1,0,0:0:0:0:
175,121,56604,2,0,L|85:112,1,85.000000298023,10|2,0:0|0:0,0:0:0:0:
335,138,56957,2,0,L|425:147,1,85.000000298023,2|0,1:2|0:0,0:0:0:0:
160,219,57310,5,10,0:0:0:0:
144,311,57487,1,0,0:0:0:0:
254,231,57663,1,2,1:2:0:0:
249,324,57840,1,0,0:0:0:0:
347,224,58016,1,10,0:0:0:0:
367,315,58193,1,0,0:0:0:0:
355,214,58369,6,0,P|383:162|395:44,1,170.000000596046,2|10,1:2|0:0,0:0:0:0:
477,68,58899,1,0,0:0:0:0:
313,4,59075,2,0,P|286:35|298:78,1,85.000000298023,2|0,1:2|0:0,0:0:0:0:
223,145,59428,2,0,P|181:120|144:150,1,85.000000298023,10|0,0:0|0:0,0:0:0:0:
69,90,59781,2,0,P|102:44|44:10,1,127.500000447035,2|0,1:2|0:0,0:0:0:0:
2,25,60134,6,0,L|22:199,1,170.000000596046,10|2,0:0|1:2,0:0:0:0:
112,215,60663,1,0,0:0:0:0:
13,296,60840,1,10,0:0:0:0:
106,291,61016,1,0,0:0:0:0:
33,382,61193,1,2,1:2:0:0:
124,364,61369,1,0,0:0:0:0:
217,372,61546,6,0,P|244:282|261:251,1,127.500000447035,10|0,0:0|0:0,0:0:0:0:
255,308,61899,2,0,P|209:272|247:202,1,127.500000447035,2|0,1:2|0:0,0:0:0:0:
267,175,62252,2,0,P|300:145|320:48,1,127.500000447035,10|0,0:0|0:0,0:0:0:0:
302,16,62604,2,0,P|278:63|346:102,1,127.500000447035,2|0,1:2|0:0,0:0:0:0:
377,82,62957,6,0,P|453:70|508:140,1,170.000000596046,10|2,0:0|1:2,0:0:0:0:
382,180,63487,1,2,0:0:0:0:
437,321,63663,2,0,P|440:279|464:241,1,85.000000298023,10|0,0:0|0:0,0:0:0:0:
317,264,64016,2,0,P|352:300|365:349,1,85.000000298023,2|0,1:2|0:0,0:0:0:0:
382,180,64369,2,0,L|224:195,1,127.500000447035,10|0,0:0|0:0,0:0:0:0:
203,197,64722,2,0,P|186:154|102:110,1,127.500000447035,2|0,1:2|0:0,0:0:0:0:
68,123,65075,2,0,P|110:165|165:141,1,127.500000447035,10|0,0:0|0:0,0:0:0:0:
172,90,65428,2,0,P|193:43|267:-2,1,127.500000447035,2|0,1:2|0:0,0:0:0:0:
303,16,65781,6,0,P|330:87|312:202,1,170.000000596046,10|0,0:0|1:0,0:0:0:0:
250,238,66310,2,0,P|218:269|247:313,1,85.000000298023,2|8,0:0|0:0,0:0:0:0:
297,369,66663,1,2,0:0:0:0:
130,334,66840,1,2,1:2:0:0:
300,376,67016,1,2,0:0:0:0:
380,343,67193,5,14,0:0:0:0:
463,316,67369,2,0,L|480:208,1,85.000000298023,2|0,0:0|1:0,0:0:0:0:
331,101,67722,1,2,0:0:0:0:
417,117,67899,1,10,0:0:0:0:
242,87,68075,2,0,L|249:171,1,85.000000298023,2|0,0:0|1:0,0:0:0:0:
355,255,68428,1,2,0:0:0:0:
372,171,68604,5,10,0:0:0:0:
400,335,68781,1,2,0:0:0:0:
269,295,68957,1,2,1:2:0:0:
114,358,69134,2,0,P|79:328|68:277,1,85.000000298023,2|8,0:0|0:0,0:0:0:0:
125,121,69487,5,2,0:0:0:0:
4,206,69663,1,2,1:2:0:0:
118,114,69840,2,0,P|129:65|178:42,1,85.000000298023,2|8,0:0|0:0,0:0:0:0:
268,186,70193,5,2,0:0:0:0:
111,213,70369,1,2,1:2:0:0:
260,170,70546,2,0,P|314:153|365:173,1,85.000000298023,2|8,0:0|0:0,0:0:0:0:
334,331,70899,5,2,0:0:0:0:
200,249,71075,1,2,1:2:0:0:
327,338,71252,2,0,P|380:328|433:356,1,85.000000298023,2|8,0:0|0:0,0:0:0:0:
202,357,71604,1,2,0:0:0:0:
202,357,71781,2,0,P|161:329|117:321,1,85.000000298023,2|0,1:2|0:0,0:0:0:0:
285,196,72134,1,8,0:0:0:0:
277,269,72310,1,2,0:0:0:0:
272,117,72487,1,2,1:2:0:0:
358,227,72663,1,2,0:0:0:0:
198,194,72840,6,0,L|62:214,1,127.500000447035,10|0,0:0|0:0,0:0:0:0:
63,240,73193,2,0,P|55:190|96:218,1,127.500000447035,2|0,1:2|0:0,0:0:0:0:
71,212,73546,2,0,P|49:153|68:93,1,127.500000447035,10|0,0:0|0:0,0:0:0:0:
110,63,73899,2,0,L|242:69,1,127.500000447035,2|0,1:2|0:0,0:0:0:0:
250,102,74252,2,0,P|249:53|209:91,1,127.500000447035,10|0,0:0|0:0,0:0:0:0:
237,68,74604,2,0,P|269:24|359:26,1,127.500000447035,2|0,1:2|0:0,0:0:0:0:
383,43,74957,2,0,P|403:89|384:149,1,85.000000298023,10|0,0:0|0:0,0:0:0:0:
334,167,75310,1,2,0:0:0:0:
334,167,75663,6,0,L|327:247,1,46.7500015906095,14|0,0:1|0:0,0:0:0:0:
268,258,75840,1,0,0:0:0:0:
268,258,75928,2,0,L|264:312,1,46.7500015906095,2|0,0:1|1:0,0:0:0:0:
327,368,76104,1,0,0:0:0:0:
327,368,76193,1,2,0:1:0:0:
405,312,76369,2,0,L|504:305,1,93.500003181219,10|0,0:1|0:0,0:0:0:0:
190,220,76722,2,0,L|87:226,1,93.500003181219,2|2,1:1|0:1,0:0:0:0:
329,213,77075,6,0,L|334:167,1,46.7500015906095,14|0,0:1|0:0,0:0:0:0:
275,111,77252,1,0,0:0:0:0:
275,111,77340,2,0,L|283:38,1,46.7500015906095,2|0,0:1|1:0,0:0:0:0:
340,9,77516,1,0,0:0:0:0:
340,9,77604,1,2,0:1:0:0:
183,137,77781,1,10,0:1:0:0:
181,56,77957,1,2,0:1:0:0:
413,80,78134,1,2,1:1:0:0:
415,161,78310,1,2,0:1:0:0:
317,226,78487,6,0,L|238:228,1,46.7500015906095,14|0,0:1|0:0,0:0:0:0:
196,262,78663,1,0,0:0:0:0:
196,262,78752,2,0,L|132:260,1,46.7500015906095,2|0,0:1|1:0,0:0:0:0:
74,289,78928,1,0,0:0:0:0:
74,289,79016,1,2,0:1:0:0:
30,205,79193,6,0,L|26:91,1,93.500003181219,10|0,0:1|0:0,0:0:0:0:
219,336,79546,2,0,B|173:334|173:334|171:393,1,93.500003181219,2|2,1:1|0:1,0:0:0:0:
270,223,79899,6,0,L|321:225,1,46.7500015906095,14|0,0:1|0:0,0:0:0:0:
378,282,80075,1,0,0:0:0:0:
378,282,80163,2,0,L|433:286,1,46.7500015906095,2|0,0:1|1:0,0:0:0:0:
494,329,80340,1,0,0:0:0:0:
494,329,80428,1,2,0:1:0:0:
356,367,80604,1,10,0:1:0:0:
282,341,80781,1,2,0:1:0:0:
397,174,80957,1,2,1:1:0:0:
471,200,81134,1,2,0:1:0:0:
260,130,81310,6,0,L|240:14,1,93.500003181219,14|0,0:1|0:0,0:0:0:0:
252,30,81575,2,0,L|150:6,1,93.500003181219,2|0,0:1|0:0,0:0:0:0:
165,3,81840,2,0,L|174:76,1,46.7500015906095,2|0,0:1|0:0,0:0:0:0:
196,204,82016,1,10,0:1:0:0:
119,221,82193,1,0,0:0:0:0:
10,68,82369,1,2,1:1:0:0:
87,51,82546,1,2,0:1:0:0:
42,238,82722,6,0,L|28:342,1,93.500003181219,14|0,0:1|0:0,0:0:0:0:
21,336,82987,2,0,L|134:359,1,93.500003181219,2|0,0:1|0:0,0:0:0:0:
118,361,83252,2,0,L|132:297,1,46.7500015906095,2|0,0:1|0:0,0:0:0:0:
163,155,83428,1,10,0:1:0:0:
239,132,83604,1,2,0:1:0:0:
256,313,83781,1,2,1:1:0:0:
332,331,83957,1,2,0:1:0:0:
426,203,84134,6,0,B|434:129|434:129|485:95,2,102.000000357628,14|2|2,0:1|0:1|0:1,0:0:0:0:
433,287,84840,1,2,0:1:0:0:
422,213,85016,1,2,0:1:0:0:
321,167,85193,1,2,0:1:0:0:
327,92,85369,1,2,0:1:0:0:
245,257,85546,2,0,B|221:188|221:188|194:173,2,102.000000357628,10|2|2,0:1|0:1|0:1,0:0:0:0:
236,339,86252,1,2,0:1:0:0:
247,265,86428,1,2,0:1:0:0:
376,300,86604,1,2,0:1:0:0:
342,234,86781,1,2,0:1:0:0:
317,374,86957,5,14,0:1:0:0:
