osu file format v14

[General]
AudioFilename: audio.mp3
AudioLeadIn: 0
PreviewTime:35737
Countdown: 0
SampleSet: Soft
StackLeniency: 0.5
Mode: 0
LetterboxInBreaks: 0
WidescreenStoryboard: 1

[Editor]
Bookmarks: 1546,2252,7899,13546,19193,24840,30487,36134,47075,47428,53781,55899,61546,67193,75663,79899,84134,86957
DistanceSpacing: 0.7
BeatDivisor: 4
GridSize: 32
TimelineZoom: 2.1

[Metadata]
Title:Kaibutsu (TV Size)
TitleUnicode:怪物 (TV Size)
Artist:YOASOBI
ArtistUnicode:YOASOBI
Creator:Ryuusei Aika
Version:wafer's Insane
Source:BEASTARS
Tags:ビースターズ japanese furry anime op2 pop j-pop jpop opening theme 幾田りら Ikuta Rira Lilas Ayase Monster MoeAsuka Atrue SuperBox Fall Marle Calvaria Mariko Sakuragi Reiji Maigo SB hhjkl [Hatsune Miku] [Hatsune_Miku] Hatsune Miku Remapper _lai Kyrian 09kami Ducky- Acyl Acylica Bellicose wafer iWaifu KAMI NO KOTOBA Addy2607 KaedeharaKazuha Airincat Chompy Yooh Reywateil Amateurre Sparhten Ajisai- HabiHolic newton- Yuuma Ogura Yui fedora- UberFazz xidorn Pata-Mon PataMon Deca Wanpachi cycopton Gibune wiken Fuju Stratos Crystal OneShotFox Elcheer Fieryrage hypercyte hypercute Kittyadventure gokugohan12468 Kyouren Zelq ponbot Yuuma3 Mimari i love ganyu Flake yaspo Regraz Mafumafu bongo Moete Senseabel Senseable Kuse KuBsNia_ZhoYL_ wetdog123 eiri-
BeatmapID:2820249
BeatmapSetID:1335792

[Difficulty]
HPDrainRate:5
CircleSize:4.6
OverallDifficulty:8.6
ApproachRate:9
SliderMultiplier:1.7
SliderTickRate:1

[Events]
//Background and Video events
0,0,"furry.jpg",0,0
Video,-200,"OP.mp4"
//Break Periods
//Storyboard Layer 0 (Background)
//Storyboard Layer 1 (Fail)
//Storyboard Layer 2 (Pass)
//Storyboard Layer 3 (Foreground)
//Storyboard Layer 4 (Overlay)
//Storyboard Sound Samples

[TimingPoints]
-3395,352.941176470588,4,2,1,40,1,0
1546,-1000,4,2,1,40,0,0
2252,-166.666666666667,4,2,1,60,0,0
13546,-133.333333333333,4,2,1,70,0,0
24840,-133.333333333333,4,2,1,60,0,0
25369,-200,4,2,1,60,0,0
30487,-117.647058823529,4,2,1,75,0,0
34899,-285.714285714284,4,2,1,75,0,0
35781,-285.714285714284,4,2,1,60,0,0
36046,-285.714285714284,4,2,1,5,0,0
36134,-66.6666666666667,4,2,1,80,0,0
41781,-100,4,2,1,80,0,0
42134,-80,4,2,1,80,0,0
42487,-66.6666666666667,4,2,1,80,0,0
42840,-58.8235294117647,4,2,1,80,0,0
43193,-66.6666666666667,4,2,1,80,0,0
45663,-76.9230769230769,4,2,1,80,0,0
47428,-60.6060606060606,4,2,1,80,0,0
52369,-133.333333333333,4,2,1,80,0,0
53428,-100,4,2,1,80,0,0
53781,-80,4,2,1,80,0,0
54134,-66.6666666666667,4,2,1,80,0,0
55899,-83.3333333333333,4,2,1,80,0,0
67193,-55.5555555555556,4,2,1,80,0,0
72840,-100,4,2,1,80,0,0
73193,-80,4,2,1,80,0,0
73546,-66.6666666666667,4,2,1,80,0,0
73899,-58.8235294117647,4,2,1,80,0,0
74252,-66.6666666666667,4,2,1,80,0,0
75663,-50,4,2,1,80,0,0
84133,-50,4,2,1,70,0,0
84840,-100,4,2,1,70,0,0
86957,-100,4,2,1,90,0,0

[Colours]
Combo1 : 191,96,0
Combo2 : 143,32,255
Combo3 : 191,0,96
Combo4 : 0,80,159

[HitObjects]
205,87,1546,6,2,P|203:75|200:60,1,25.5,2|0,0:0|0:0,0:1:0:0:
228,210,2252,6,0,P|231:184|237:160,3,50.9999984436036,10|0|10|2,0:0|0:0|0:0|0:0,0:0:0:0:
324,49,2957,2,0,P|320:23|314:0,3,50.9999984436036,10|0|10|2,0:0|0:0|0:0|0:0,0:0:0:0:
414,106,3663,6,0,B|472:103|460:132|532:128,1,101.999996887207,10|8,0:0|0:0,0:0:0:0:
496,218,4193,2,0,P|476:201|455:188,1,50.9999984436036,2|8,0:0|0:0,0:0:0:0:
390,237,4546,2,0,P|388:211|382:186,1,50.9999984436036,2|8,0:0|0:0,0:0:0:0:
456,286,4899,1,2,0:0:0:0:
456,286,5251,1,2,0:0:0:0:
328,296,5428,6,0,P|353:299|377:305,3,50.9999984436036,8|2|10|2,0:0|0:0|0:0|0:0,0:0:0:0:
248,248,6134,2,0,P|224:254|199:258,3,50.9999984436036,10|2|10|2,0:0|0:0|0:0|0:0,0:0:0:0:
73,347,7016,5,2,0:0:0:0:
33,287,7193,1,10,0:0:0:0:
83,234,7369,1,2,0:0:0:0:
130,129,7546,5,10,0:0:0:0:
73,82,7722,1,2,0:0:0:0:
130,129,7899,6,0,P|126:154|120:178,3,50.9999984436036,10|0|10|2,0:0|0:0|0:0|0:0,0:0:0:0:
193,26,8604,2,0,P|196:51|202:75,1,50.9999984436036,10|2,0:0|0:0,0:0:0:0:
293,77,8957,2,0,P|289:102|283:126,3,50.9999984436036,10|2|10|0,0:0|0:0|0:0|0:0,0:0:0:0:
361,207,9663,5,10,0:0:0:0:
375,132,9840,2,0,P|365:160|360:187,1,50.9999984436036,2|8,0:0|0:0,0:0:0:0:
439,86,10193,1,2,0:0:0:0:
439,86,10546,6,0,P|428:62|414:41,1,50.9999984436036,2|8,0:0|0:0,0:0:0:0:
310,68,10899,1,2,0:0:0:0:
310,68,11075,2,0,P|319:44|319:2,2,50.9999984436036,10|0|8,0:0|0:0|0:0,0:0:0:0:
231,110,11604,1,2,0:0:0:0:
167,78,11781,2,0,P|130:71|110:69,1,50.9999984436036,10|2,0:0|0:0,0:0:0:0:
43,133,12134,5,10,0:0:0:0:
111,147,12310,1,2,0:0:0:0:
44,168,12487,1,10,0:0:0:0:
117,240,12663,1,2,0:0:0:0:
117,240,13016,1,2,0:0:0:0:
73,304,13193,1,2,0:3:0:0:
73,304,13281,1,0,0:0:0:0:
73,304,13369,1,2,0:0:0:0:
214,374,13546,6,0,P|183:364|152:357,3,63.7500024318696,10|0|2|2,0:0|0:0|1:2|0:0,0:0:0:0:
313,279,14251,2,0,P|343:269|374:262,3,63.7500024318696,10|2|2|2,0:0|0:0|1:2|0:0,0:0:0:0:
463,305,14957,6,0,P|476:260|512:183,1,127.500004863739,10|0,0:0|1:0,0:0:0:0:
446,75,15487,2,0,P|438:99|450:143,1,63.7500024318696,2|8,0:0|0:0,0:0:0:0:
348,142,15840,2,0,P|360:164|400:187,1,63.7500024318696,2|0,0:0|1:0,0:0:0:0:
511,101,16193,5,2,0:0:0:0:
511,101,16546,1,2,0:0:0:0:
348,142,16722,6,0,P|357:111|364:80,3,63.7500024318696,0|2|10|2,1:0|0:0|0:0|0:0,0:0:0:0:
201,118,17428,2,0,P|191:87|184:56,2,63.7500024318696,2|2|10,1:2|0:0|0:0,0:0:0:0:
249,244,17957,2,0,P|244:201|237:166,1,63.7500024318696,2|0,0:0|1:0,0:0:0:0:
363,142,18310,1,2,0:0:0:0:
374,214,18487,1,10,0:0:0:0:
437,186,18663,1,2,0:0:0:0:
306,282,18840,1,2,1:2:0:0:
249,244,19016,1,2,0:0:0:0:
324,296,19193,6,0,P|384:287|427:285,1,95.6250036478044,10|0,0:0|0:0,0:0:0:0:
512,304,19546,6,0,P|494:259|498:220,4,63.7500024318696,2|0|10|2|2,1:2|0:0|0:0|0:0|1:2,0:0:0:0:
438,140,20428,2,0,B|361:125|394:157|306:149,1,127.500004863739,2|2,0:0|0:0,0:0:0:0:
193,103,20957,1,2,1:2:0:0:
306,140,21134,1,2,0:0:0:0:
306,140,21487,5,2,0:0:0:0:
330,71,21663,1,2,1:2:0:0:
233,162,21840,2,0,P|251:197|264:236,1,63.7500024318696,2|8,0:0|0:0,0:0:0:0:
325,275,22193,2,0,P|336:245|351:217,2,63.7500024318696,2|2|0,0:0|1:2|0:0,0:0:0:0:
373,363,22722,1,10,0:0:0:0:
426,313,22899,2,0,P|455:300|485:290,2,63.7500024318696,2|0|2,0:0|1:0|0:0,0:0:0:0:
325,275,23428,5,10,0:0:0:0:
207,232,23781,1,2,1:2:0:0:
135,254,24134,1,10,0:0:0:0:
101,229,24487,1,2,1:2:0:0:
256,287,24840,5,10,0:1:0:0:
256,287,25193,1,2,1:2:0:0:
320,164,25369,1,10,1:1:0:0:
256,192,25546,2,0,P|236:182|202:174,1,42.5,2|10,0:0|0:1,0:0:0:0:
161,287,26075,5,10,0:1:0:0:
216,341,26251,1,2,0:0:0:0:
327,293,26428,1,2,0:0:0:0:
416,383,26604,1,2,1:2:0:0:
416,383,26781,1,2,1:2:0:0:
256,287,27134,5,10,0:1:0:0:
256,192,27310,1,2,1:2:0:0:
256,97,27487,1,2,0:0:0:0:
160,32,27663,1,10,0:1:0:0:
256,97,28016,5,2,1:2:0:0:
256,192,28193,1,10,1:1:0:0:
256,287,28369,2,0,P|235:305|223:320,2,42.5,2|10|0,0:0|0:1|1:2,0:0:0:0:
348,261,28899,5,10,0:1:0:0:
358,192,29075,1,2,0:0:0:0:
256,192,29251,1,2,0:0:0:0:
256,287,29428,1,2,1:2:0:0:
352,352,29604,1,2,1:2:0:0:
352,352,29957,1,2,0:0:0:0:
426,329,30134,1,10,0:1:0:0:
496,302,30310,1,2,0:0:0:0:
496,302,30399,1,0,0:0:0:0:
496,302,30487,6,0,P|474:261|469:170,1,108.375002067089,14|0,0:0|0:0,0:0:0:0:
477,123,30840,1,2,1:2:0:0:
400,253,31016,1,2,1:2:0:0:
350,197,31193,1,10,0:0:0:0:
437,61,31369,2,0,P|380:106|374:108,1,72.2500013780594,2|0,0:0|1:0,0:0:0:0:
237,19,31722,1,2,0:0:0:0:
237,19,31810,1,0,0:0:0:0:
237,19,31899,2,0,P|258:77|280:186,1,144.500002756119,8|2,0:0|1:2,0:0:0:0:
224,320,32428,2,0,P|223:273|230:230,1,72.2500013780594,2|8,1:2|0:0,0:0:0:0:
276,157,32781,5,2,0:0:0:0:
243,94,32957,1,2,1:2:0:0:
263,69,33134,1,2,0:0:0:0:
178,195,33310,6,0,P|132:206|97:224,1,72.2500013780594,10|0,0:0|0:0,0:0:0:0:
334,195,33663,1,2,1:2:0:0:
390,253,33840,1,0,1:0:0:0:
414,119,34016,2,0,B|319:125|367:150|244:161,1,144.500002756119,10|0,0:0|1:0,0:0:0:0:
111,70,34546,5,2,0:0:0:0:
120,79,34899,1,2,0:0:0:0:
95,212,35075,1,10,0:0:0:0:
166,141,35251,1,2,0:0:0:0:
39,103,35428,1,10,0:0:0:0:
256,32,35781,6,0,P|283:28|303:24,1,44.6249986381531,2|0,0:1|0:0,0:0:0:0:
390,140,36134,5,14,0:0:0:0:
410,0,36310,2,0,P|393:54|377:128,1,127.500004863739,2|0,0:0|1:0,0:0:0:0:
273,324,36663,5,2,0:0:0:0:
253,184,36840,2,0,P|270:238|286:312,2,127.500004863739,10|0|2,0:0|0:0|1:2,0:0:0:0:
476,177,37369,6,0,B|411:211|357:140|388:147|332:52|252:106,1,255.000009727478,2|2,0:0|0:0,0:0:0:0:
175,274,37899,1,2,1:2:0:0:
337,224,38075,1,2,0:0:0:0:
118,214,38251,5,10,0:0:0:0:
476,177,38604,1,2,1:2:0:0:
122,140,38957,5,10,0:0:0:0:
102,0,39133,2,0,P|119:54|135:128,1,127.500004863739,2|0,0:0|1:0,0:0:0:0:
239,324,39486,5,2,0:0:0:0:
259,184,39663,2,0,P|242:238|226:312,1,127.500004863739,10|0,0:0|0:0,0:0:0:0:
20,141,40016,5,2,1:2:0:0:
40,281,40193,2,0,P|23:227|7:153,1,127.500004863739,2|8,0:0|0:0,0:0:0:0:
153,52,40546,5,2,0:0:0:0:
232,104,40722,1,2,1:2:0:0:
128,199,40899,1,2,0:0:0:0:
181,364,41075,5,10,0:0:0:0:
203,278,41251,1,2,0:0:0:0:
107,133,41428,5,2,1:2:0:0:
128,199,41604,1,2,0:0:0:0:
323,248,41781,6,0,B|245:237|270:289|195:277,1,127.5,10|0,0:0|0:0,0:0:0:0:
61,273,42134,2,0,B|154:259|124:322|214:307,1,159.375,2|0,1:2|0:0,0:0:0:0:
312,238,42487,2,0,P|281:180|257:109,1,127.500004863739,10|0,0:0|0:0,0:0:0:0:
500,53,42840,6,0,P|469:194|373:233,1,216.750004134178,2|0,1:2|0:0,0:0:0:0:
355,162,43193,6,0,P|284:105|94:102,3,255.000009727478,10|2|10|2,0:0|1:2|0:0|1:2,0:0:0:0:
125,90,44428,1,0,0:0:0:0:
217,179,44604,6,0,P|109:194|-22:332,2,255.000009727478,10|2|10,0:0|1:2|0:0,0:0:0:0:
217,179,45487,1,0,0:0:0:0:
335,309,45663,5,2,1:2:0:0:
406,242,45840,2,0,P|329:233|248:360,1,220.999989883423,2|2,0:0|0:0,0:0:0:0:
428,327,46369,1,2,1:2:0:0:
492,259,46546,5,2,0:0:0:0:
492,259,46634,1,0,0:0:0:0:
492,259,46722,1,10,0:0:0:0:
430,178,46899,1,2,1:2:0:0:
498,75,47075,1,2,1:2:0:0:
357,160,47251,1,2,1:2:0:0:
355,151,47340,1,2,1:2:0:0:
352,140,47428,6,0,B|119:145|286:178|47:187,1,280.500002675057,14|0,0:0|1:0,0:0:0:0:
133,36,47957,1,2,0:0:0:0:
205,69,48134,2,0,P|250:55|370:32,2,140.250001337528,10|2|0,0:0|0:0|1:0,0:0:0:0:
5,9,48663,1,2,0:0:0:0:
133,109,48840,5,10,0:0:0:0:
56,166,49016,1,2,0:0:0:0:
98,264,49193,1,2,1:2:0:0:
101,8,49369,2,0,P|94:44|-4:57,1,140.250001337528,2|8,0:0|0:0,0:0:0:0:
258,229,49722,5,2,0:0:0:0:
98,264,49898,1,2,1:2:0:0:
41,314,50075,2,0,P|113:294|185:287,1,140.250001337528,2|8,0:0|0:0,0:0:0:0:
254,155,50428,5,2,0:0:0:0:
414,120,50604,1,2,1:2:0:0:
471,70,50781,2,0,P|399:90|327:97,1,140.250001337528,2|8,0:0|0:0,0:0:0:0:
214,15,51134,5,2,0:0:0:0:
214,15,51222,1,0,0:0:0:0:
214,15,51310,1,2,1:2:0:0:
277,159,51487,1,2,0:0:0:0:
334,97,51663,1,8,0:0:0:0:
175,110,51840,1,2,0:0:0:0:
277,159,52016,2,0,B|194:159|232:216|133:211,1,140.250001337528,2|0,1:2|0:0,0:0:0:0:
4,154,52369,5,10,0:0:0:0:
75,161,52546,1,2,0:0:0:0:
111,143,52722,1,2,1:2:0:0:
4,154,52899,1,2,0:0:0:0:
24,271,53075,6,0,P|80:268|117:316,1,95.6250036478044,10|0,0:0|0:0,0:0:0:0:
165,335,53428,2,0,P|208:290|298:294,1,127.5,2|0,1:2|0:0,0:0:0:0:
329,235,53781,6,0,P|376:284|475:280,1,159.375,10|0,0:0|0:0,0:0:0:0:
512,205,54134,2,0,P|479:99|479:-24,1,191.250007295609,2|0,1:2|0:0,0:0:0:0:
353,51,54487,6,0,P|388:88|470:106,1,127.500004863739,10|0,0:0|0:0,0:0:0:0:
251,213,54840,2,0,P|286:176|368:158,1,127.500004863739,2|0,1:2|0:0,0:0:0:0:
231,97,55193,2,0,P|166:134|63:137,1,127.500004863739,10|0,0:0|0:0,0:0:0:0:
10,330,55546,2,0,P|81:271|216:252,1,191.250007295609,2|0,1:2|0:0,0:0:0:0:
242,275,55899,6,0,B|367:258|317:302|480:302,1,203.999993774414,14|0,0:0|1:0,0:0:0:0:
270,109,56604,6,0,B|145:92|195:136|32:136,1,203.999993774414,10|2,0:0|1:2,0:0:0:0:
401,223,57310,6,0,P|382:158|375:2,3,203.999993774414,10|2|10|2,0:0|1:2|0:0|1:2,0:0:0:0:
256,192,58722,5,10,0:0:0:0:
139,361,59075,6,0,P|135:259|111:161,3,203.999993774414,2|10|2|10,1:2|0:0|1:2|0:0,0:0:0:0:
372,361,60487,6,0,P|376:259|401:161,2,203.999993774414,2|10|2,1:2|0:0|1:2,0:0:0:0:
256,192,61546,6,0,P|241:134|243:77,1,101.999996887207,10|0,0:0|0:0,0:0:0:0:
164,165,61899,2,0,P|112:134|73:92,1,101.999996887207,2|0,1:2|0:0,0:0:0:0:
193,235,62251,2,0,P|90:258|26:338,1,203.999993774414,10|2,0:0|1:2,0:0:0:0:
313,144,62957,6,0,B|446:143|391:187|519:182,1,203.999993774414,10|2,0:0|1:2,0:0:0:0:
199,144,63663,2,0,B|66:143|121:187|-7:182,1,203.999993774414,10|2,0:0|1:2,0:0:0:0:
256,256,64369,6,0,L|256:8,3,203.999993774414,10|2|10|2,0:0|1:2|0:0|1:2,0:0:0:0:
197,296,65781,6,0,P|122:283|27:381,1,203.999993774414,10|0,0:0|1:0,0:0:0:0:
262,328,66310,2,0,P|324:305|374:308,1,101.999996887207,2|8,0:0|0:0,0:0:0:0:
502,173,66663,5,2,0:0:0:0:
442,235,66840,1,2,1:2:0:0:
486,298,67017,1,2,0:0:0:0:
255,128,67193,6,0,L|74:112,2,152.999995330811,14|2|0,0:0|0:0|1:0,0:0:0:0:
320,288,67722,1,2,0:0:0:0:
352,352,67899,6,0,L|533:336,2,152.999995330811,10|2|0,0:0|0:0|1:0,0:0:0:0:
82,197,68428,1,2,0:0:0:0:
18,165,68604,5,10,0:0:0:0:
122,0,68781,1,2,0:0:0:0:
31,37,68957,1,2,1:2:0:0:
272,105,69134,2,0,B|180:85|210:127|100:116,1,152.999995330811,2|8,0:0|0:0,0:0:0:0:
62,350,69487,5,2,0:0:0:0:
0,99,69663,1,2,1:2:0:0:
51,363,69840,2,0,P|33:198|24:150,1,152.999995330811,2|8,0:0|0:0,0:0:0:0:
62,350,70193,5,2,0:0:0:0:
0,99,70369,1,2,1:2:0:0:
51,363,70546,2,0,P|33:198|24:150,1,152.999995330811,2|8,0:0|0:0,0:0:0:0:
62,350,70899,5,2,0:0:0:0:
0,99,71075,1,2,1:2:0:0:
51,363,71252,2,0,P|33:198|24:150,1,152.999995330811,2|8,0:0|0:0,0:0:0:0:
145,37,71604,5,2,0:0:0:0:
145,37,71693,1,0,0:0:0:0:
145,37,71781,2,0,P|188:99|312:93,1,152.999995330811,2|0,1:2|0:0,0:0:0:0:
442,56,72134,6,0,P|354:91|328:149,3,152.999995330811,8|2|2|2,0:0|0:0|1:2|0:0,0:0:0:0:
214,293,72840,6,0,P|259:202|287:190,1,127.5,10|0,0:0|0:0,0:0:0:0:
353,205,73193,2,0,B|449:198|411:255|505:253,1,159.375,2|0,1:2|0:0,0:0:0:0:
506,243,73546,6,0,P|384:267|352:342,1,191.250007295609,10|0,0:0|0:0,0:0:0:0:
293,363,73899,2,0,P|250:286|120:290,1,216.750004134178,2|0,1:2|0:0,0:0:0:0:
73,353,74252,6,0,P|49:190|20:50,3,255.000009727478,10|2|10|2,0:0|1:2|0:0|0:0,0:0:0:0:
31,101,75663,6,0,B|21:83|21:83|197:133|197:133|104:53,2,255,14|2|2,0:1|0:1|0:1,0:0:0:0:
265,150,76369,2,0,P|382:109|474:105,1,170,10|0,0:1|0:0,0:0:0:0:
265,150,76722,2,0,P|382:109|474:105,1,170,2|2,1:1|0:1,0:0:0:0:
223,209,77075,5,14,0:1:0:0:
271,300,77340,1,2,0:1:0:0:
250,367,77604,1,2,0:1:0:0:
310,228,77781,6,0,P|281:104|275:15,3,170,10|2|2|2,0:1|0:1|1:1|0:1,0:0:0:0:
510,260,78487,6,0,B|523:238|523:238|449:258|449:258|448:267|448:267|350:288|350:288|443:208,2,255,14|2|2,0:1|0:1|0:1,0:0:0:0:
210,148,79193,2,0,P|93:107|1:103,1,170,10|0,0:1|0:0,0:0:0:0:
210,148,79546,2,0,P|93:107|1:103,1,170,2|2,1:1|0:1,0:0:0:0:
289,209,79899,5,14,0:1:0:0:
241,300,80164,1,2,0:1:0:0:
262,367,80428,1,2,0:1:0:0:
202,228,80605,6,0,P|231:104|237:15,3,170,10|2|2|2,0:1|0:1|1:1|0:1,0:0:0:0:
241,300,81310,6,0,B|355:304|355:304|365:297|365:297|530:306,2,255,14|2|2,0:1|0:1|0:1,0:0:0:0:
45,312,82016,2,0,P|105:237|130:164,1,170,10|0,0:1|0:0,0:0:0:0:
45,312,82369,2,0,P|105:237|130:164,1,170,2|2,1:1|0:1,0:0:0:0:
289,175,82722,5,14,0:1:0:0:
241,84,82987,1,2,0:1:0:0:
262,17,83251,1,2,0:1:0:0:
202,156,83428,6,0,P|231:280|237:369,3,170,10|2|2|2,0:1|0:1|1:1|0:1,0:0:0:0:
235,322,84134,5,14,0:1:0:0:
235,322,84399,1,2,0:1:0:0:
235,322,84663,1,2,0:1:0:0:
318,359,84840,2,0,P|369:345|415:339,3,85,2|2|2|2,0:1|0:1|0:1|0:1,0:0:0:0:
216,256,85546,5,10,0:1:0:0:
216,256,85811,1,2,0:1:0:0:
216,256,86075,1,2,0:1:0:0:
288,224,86251,2,0,P|339:238|385:244,1,85,2|2,0:1|0:1,0:0:0:0:
422,184,86604,2,0,P|473:170|519:164,1,85,2|2,0:1|0:1,0:0:0:0:
400,340,86957,5,14,0:1:0:0:
