osu file format v14

[General]
AudioFilename: audio.mp3
AudioLeadIn: 0
PreviewTime:35737
Countdown: 0
SampleSet: Soft
StackLeniency: 0.2
Mode: 0
LetterboxInBreaks: 0
WidescreenStoryboard: 1

[Editor]
DistanceSpacing: 1.1
BeatDivisor: 4
GridSize: 8
TimelineZoom: 2.5

[Metadata]
Title:Kaibutsu (TV Size)
TitleUnicode:怪物 (TV Size)
Artist:YOASOBI
ArtistUnicode:YOASOBI
Creator:Ryuusei Aika
Version:ponbot's Extra
Source:BEASTARS
Tags:ビースターズ japanese furry anime op2 pop j-pop jpop opening theme 幾田りら Ikuta Rira Lilas Ayase Monster MoeAsuka Atrue SuperBox Fall Marle Calvaria Mariko Sakuragi Reiji Maigo SB hhjkl [Hatsune Miku] [Hatsune_Miku] Hatsune Miku Remapper _lai Kyrian 09kami Ducky- Acyl Acylica Bellicose wafer iWaifu KAMI NO KOTOBA Addy2607 KaedeharaKazuha Airincat Chompy Yooh Reywateil Amateurre Sparhten Ajisai- HabiHolic newton- Yuuma Ogura Yui fedora- UberFazz xidorn Pata-Mon PataMon Deca Wanpachi cycopton Gibune wiken Fuju Stratos Crystal OneShotFox Elcheer Fieryrage hypercyte hypercute Kittyadventure gokugohan12468 Kyouren Zelq ponbot Yuuma3 Mimari i love ganyu Flake yaspo Regraz Mafumafu bongo Moete Senseabel Senseable Kuse KuBsNia_ZhoYL_ wetdog123 eiri-
BeatmapID:2820242
BeatmapSetID:1335792

[Difficulty]
HPDrainRate:5
CircleSize:4
OverallDifficulty:7
ApproachRate:9
SliderMultiplier:1.80000000596046
SliderTickRate:1

[Events]
//Background and Video events
0,0,"furry.jpg",0,0
Video,-200,"OP.mp4"
//Break Periods
//Storyboard Layer 0 (Background)
//Storyboard Layer 1 (Fail)
//Storyboard Layer 2 (Pass)
//Storyboard Layer 3 (Foreground)
//Storyboard Layer 4 (Overlay)
//Storyboard Sound Samples

[TimingPoints]
-3395,352.941176470588,4,2,1,40,1,0
1546,-133.333333333333,4,2,1,40,0,0
2252,-133.333333333333,4,2,1,60,0,0
3134,-100,4,2,1,60,0,0
10899,-83.3333333333333,4,2,1,60,0,0
13546,-83.3333333333333,4,2,1,70,0,0
14957,-100,4,2,1,70,0,0
22193,-83.3333333333333,4,2,1,70,0,0
23428,-66.6666666666667,4,2,1,70,0,0
24840,-66.6666666666667,4,2,1,60,0,0
25193,-100,4,2,1,60,0,0
30487,-100,4,2,1,75,0,0
35781,-50,4,2,1,60,0,0
36134,-50,4,2,1,80,0,1
36222,-50,4,2,1,80,0,0
36310,-66.6666666666667,4,2,1,80,0,0
41781,-133.333333333333,4,2,1,80,0,0
42134,-66.6666666666667,4,2,1,80,0,0
48840,-50,4,2,1,80,0,0
49722,-45.4545454545455,4,2,1,80,0,0
50075,-100,4,2,1,80,0,0
50428,-45.4545454545455,4,2,1,80,0,0
50781,-100,4,2,1,80,0,0
51134,-45.4545454545455,4,2,1,80,0,0
51487,-100,4,2,1,80,0,0
52016,-66.6666666666667,4,2,1,80,0,0
55899,-66.6666666666667,4,2,1,80,0,1
55987,-66.6666666666667,4,2,1,80,0,0
56428,-66.6666666666667,4,2,1,80,0,0
62252,-58.8235294117647,4,2,1,80,0,0
62605,-52.6315789473684,4,2,1,80,0,0
65781,-66.6666666666667,4,2,1,80,0,0
66663,-55.5555555555556,4,2,1,80,0,0
67193,-45.4545454545455,4,2,1,80,0,0
67369,-100,4,2,1,80,0,0
67722,-45.4545454545455,4,2,1,80,0,0
68075,-100,4,2,1,80,0,0
68428,-45.4545454545455,4,2,1,80,0,0
69134,-100,4,2,1,80,0,0
69487,-45.4545454545455,4,2,1,80,0,0
69840,-100,4,2,1,80,0,0
70193,-45.4545454545455,4,2,1,80,0,0
70546,-100,4,2,1,80,0,0
70899,-45.4545454545455,4,2,1,80,0,0
71252,-100,4,2,1,80,0,0
71605,-45.4545454545455,4,2,1,80,0,0
72840,-62.111801242236,4,2,1,80,0,0
75310,-200,4,2,1,80,0,0
75663,-55.5555555555556,4,2,1,80,0,1
84134,-83.3333333333333,4,2,1,70,0,0
86957,-83.3333333333333,4,2,1,90,0,0

[Colours]
Combo1 : 191,96,0
Combo2 : 143,32,255
Combo3 : 191,0,96
Combo4 : 0,80,159

[HitObjects]
56,324,1546,6,0,B|116:336|132:324|196:336,1,135.000000447035,2|0,0:0|0:0,0:0:0:0:
191,335,2075,1,0,0:0:0:0:
153,157,2252,5,10,0:0:0:0:
261,261,2428,1,0,0:0:0:0:
234,114,2605,1,10,0:0:0:0:
169,247,2781,1,2,0:0:0:0:
300,178,2957,1,10,0:0:0:0:
153,157,3134,6,0,P|128:112|176:0,1,180.000000596046,0|2,0:0|0:0,0:0:0:0:
319,85,3663,2,0,P|275:97|233:113,1,90.000000298023,10|0,0:0|0:0,0:0:0:0:
169,247,4016,1,8,0:0:0:0:
300,178,4193,2,0,P|312:248|328:360,2,180.000000596046,2|2|2,0:0|0:0|0:0,0:0:0:0:
300,178,5252,5,2,0:0:0:0:
191,335,5428,1,8,0:0:0:0:
327,355,5605,1,2,0:0:0:0:
436,208,5781,5,10,0:0:0:0:
384,284,5957,1,2,0:0:0:0:
472,296,6134,1,10,0:0:0:0:
436,208,6310,1,2,0:0:0:0:
404,128,6487,5,10,0:0:0:0:
300,178,6663,2,0,P|304:234|292:302,1,90.000000298023,2|8,0:0|0:0,0:0:0:0:
196,317,7016,5,2,0:0:0:0:
92,268,7193,1,10,0:0:0:0:
196,129,7369,1,2,0:0:0:0:
300,178,7546,1,10,0:0:0:0:
144,198,7722,1,2,0:0:0:0:
184,39,7899,6,0,P|190:83|195:128,1,90.000000298023,10|0,0:0|0:0,0:0:0:0:
311,267,8252,2,0,P|304:222|299:177,1,90.000000298023,10|2,0:0|0:0,0:0:0:0:
54,209,8605,5,10,0:0:0:0:
143,197,8781,1,2,0:0:0:0:
389,166,8957,5,10,0:0:0:0:
299,177,9134,1,2,0:0:0:0:
195,128,9310,5,10,0:0:0:0:
311,267,9487,1,0,0:0:0:0:
184,39,9663,1,10,0:0:0:0:
143,197,9840,6,0,L|56:208,1,45.0000001490115,2|0,0:0|0:0,0:0:0:0:
216,244,10016,1,8,0:0:0:0:
398,76,10193,2,0,L|388:165,1,90.000000298023,2|8,0:0|0:0,0:0:0:0:
398,76,10546,1,2,0:0:0:0:
440,232,10722,1,8,0:0:0:0:
248,328,10899,6,0,B|196:324|196:324|192:320|192:320|136:316,2,108.000000357628,2|10|0,0:0|0:0|0:0,0:0:0:0:
76,268,11428,1,8,0:0:0:0:
248,328,11605,2,0,B|196:324|196:324|192:320|192:320|136:316,2,108.000000357628,2|10|2,0:0|0:0|0:0,0:0:0:0:
452,292,12134,6,0,B|492:252|476:184|444:212|428:144|480:96|480:96|468:68|468:40|468:40|452:56|452:56|424:36|408:12|408:12|400:32|400:32|372:32|336:20|336:20|352:48|352:48|324:64|288:76|288:76|320:84|320:84|316:116|296:148,1,648.000002145766,10|2,0:0|0:3,0:0:0:0:
388,112,13369,5,0,0:0:0:0:
212,112,13546,5,10,0:0:0:0:
132,152,13722,1,0,0:0:0:0:
296,147,13899,5,2,1:2:0:0:
452,176,14075,1,2,0:0:0:0:
208,240,14252,5,10,0:0:0:0:
48,212,14428,1,2,0:0:0:0:
304,284,14605,5,2,1:2:0:0:
400,236,14781,1,2,0:0:0:0:
236,384,14957,6,0,B|160:344|216:336|136:296,1,135.000000447034,10|0,0:0|0:0,0:0:0:0:
137,296,15310,1,0,1:0:0:0:
314,194,15487,6,0,P|308:238|303:283,1,90.000000298023,2|8,0:0|0:0,0:0:0:0:
201,22,15840,2,0,P|206:66|211:111,1,90.000000298023,2|0,0:0|1:0,0:0:0:0:
91,222,16193,6,0,L|23:206,1,45.0000001490115,2|0,0:0|0:0,0:0:0:0:
91,222,16546,6,0,L|79:174,1,45.0000001490115,2|0,0:0|0:0,0:0:0:0:
211,111,16722,1,0,1:0:0:0:
188,212,16899,5,2,0:0:0:0:
360,344,17075,1,10,0:0:0:0:
259,321,17252,5,2,0:0:0:0:
492,172,17428,1,2,1:2:0:0:
469,273,17605,5,2,0:0:0:0:
320,40,17781,1,10,0:0:0:0:
421,63,17957,6,0,P|400:120|384:176,1,90.000000298023,2|0,0:0|1:0,0:0:0:0:
259,321,18310,1,2,0:0:0:0:
492,172,18487,1,10,0:0:0:0:
188,212,18663,1,2,0:0:0:0:
360,344,18840,1,2,1:2:0:0:
211,111,19016,1,2,0:0:0:0:
100,260,19193,6,0,P|58:277|18:297,1,90.000000298023,10|0,0:0|0:0,0:0:0:0:
292,148,19546,2,0,P|250:130|210:110,1,90.000000298023,2|0,1:2|0:0,0:0:0:0:
341,284,19899,5,10,0:0:0:0:
259,321,20075,1,2,0:0:0:0:
468,236,20252,5,2,1:2:0:0:
294,58,20428,2,0,P|294:103|292:148,1,90.000000298023,2|8,0:0|0:0,0:0:0:0:
341,284,20781,5,2,0:0:0:0:
472,160,20957,1,2,1:2:0:0:
368,12,21134,1,2,0:0:0:0:
376,8,21487,5,2,0:0:0:0:
480,156,21663,1,2,1:2:0:0:
349,280,21840,2,0,P|304:288|252:300,1,90.000000298023,2|8,0:0|0:0,0:0:0:0:
112,80,22193,6,0,B|164:88|164:88|168:92|168:92|224:100,2,108.000000357628,2|2|0,0:0|1:2|0:0,0:0:0:0:
292,56,22722,1,10,0:0:0:0:
112,80,22899,2,0,B|164:88|164:88|168:92|168:92|224:100,2,108.000000357628,2|0|2,0:0|1:0|0:0,0:0:0:0:
325,343,23428,6,0,B|270:307|270:307|202:323,1,135.000000447034,10|0,0:0|0:0,0:0:0:0:
294,142,23781,2,0,B|318:203|318:203|382:231,1,135.000000447034,2|0,1:2|0:0,0:0:0:0:
202,322,24134,2,0,B|219:258|219:258|183:199,1,135.000000447034,10|0,0:0|0:0,0:0:0:0:
383,231,24487,2,0,B|333:273|333:273|326:342,1,135.000000447034,2|0,1:2|0:0,0:0:0:0:
183,199,24840,2,0,B|248:195|248:195|294:143,1,135.000000447034,10|0,0:1|0:0,0:0:0:0:
294,142,25193,6,0,P|293:125|289:141,1,45.0000001490115,2|0,1:2|0:0,0:0:0:0:
387,231,25369,2,0,P|383:246|382:230,1,45.0000001490115,10|0,1:1|0:0,0:0:0:0:
325,342,25546,1,2,0:0:0:0:
202,322,25722,1,10,0:1:0:0:
183,199,25899,2,0,P|182:215|178:199,1,45.0000001490115,0|0,1:2|0:0,0:0:0:0:
400,321,26075,5,10,0:1:0:0:
133,276,26252,1,0,0:0:0:0:
305,67,26428,1,2,0:0:0:0:
128,275,26605,2,0,P|128:291|132:275,1,45.0000001490115,2|0,1:2|0:0,0:0:0:0:
404,320,26781,2,0,P|403:336|399:320,1,45.0000001490115,2|0,1:2|0:0,0:0:0:0:
399,319,27134,5,10,0:1:0:0:
234,249,27310,2,0,P|235:233|239:249,1,45.0000001490115,2|0,1:2|0:0,0:0:0:0:
69,179,27487,1,0,0:0:0:0:
305,67,27663,5,10,0:1:0:0:
305,67,28016,6,0,L|266:94,1,45.0000001490115,2|0,1:2|0:0,0:0:0:0:
423,204,28369,2,0,L|384:231,1,45.0000001490115,2|0,0:0|0:0,0:0:0:0:
105,152,28546,2,0,L|66:179,1,45.0000001490115,10|0,0:1|0:0,0:0:0:0:
197,222,28899,6,0,L|235:249,1,45.0000001490115,10|0,0:1|0:0,0:0:0:0:
349,204,29075,2,0,L|387:231,1,45.0000001490115
186,224,29252,6,0,L|224:251,1,45.0000001490115,2|0,0:0|0:0,0:0:0:0:
400,130,29428,2,0,L|438:157,1,45.0000001490115,2|0,1:2|0:0,0:0:0:0:
175,226,29605,6,0,L|213:253,1,45.0000001490115,2|0,1:2|0:0,0:0:0:0:
451,56,29957,5,2,0:0:0:0:
349,204,30134,1,10,0:1:0:0:
271,41,30310,1,2,0:0:0:0:
451,56,30487,1,14,0:0:0:0:
249,128,30840,6,0,P|262:85|270:40,1,90.000000298023,2|2,1:2|1:2,0:0:0:0:
435,179,31193,1,10,0:0:0:0:
327,291,31369,2,0,P|335:246|349:204,1,90.000000298023,0|0,0:0|1:0,0:0:0:0:
181,56,31722,1,2,0:0:0:0:
249,128,31899,5,8,0:0:0:0:
35,257,32075,1,2,0:0:0:0:
35,176,32252,5,2,1:2:0:0:
249,352,32428,1,2,1:2:0:0:
168,352,32605,5,8,0:0:0:0:
408,227,32781,1,2,0:0:0:0:
249,128,32957,1,2,1:2:0:0:
208,240,33134,1,2,0:0:0:0:
438,142,33310,6,0,L|397:255,1,90.000000298023,10|0,0:0|0:0,0:0:0:0:
249,128,33663,2,0,B|168:107|145:123|71:107,1,180.000000596046,2|10,1:2|0:0,0:0:0:0:
332,171,34193,5,2,0:0:0:0:
249,128,34369,1,0,1:0:0:0:
166,85,34546,1,2,0:0:0:0:
162,72,34899,5,0,0:0:0:0:
335,181,35075,1,10,0:0:0:0:
195,214,35252,5,0,0:0:0:0:
304,41,35428,1,10,0:0:0:0:
271,331,35781,6,0,B|296:319|323:318|323:318|320:291|327:263|327:263|299:258|276:242|276:242|264:266|239:285|239:285|260:305|271:331,1,270.000000894069,2|0,0:1|0:0,0:0:0:0:
265,347,36134,5,14,0:0:0:0:
512,176,36310,2,0,B|463:145|406:166|421:188|361:209|319:176,1,202.500000670552,2|0,0:0|0:0,0:0:0:0:
300,152,36663,1,2,0:0:0:0:
450,43,36840,2,0,L|419:174,1,135.000000447034,10|0,0:0|0:0,0:0:0:0:
468,256,37193,1,2,1:2:0:0:
170,59,37369,5,2,0:0:0:0:
388,106,37546,1,8,0:0:0:0:
341,324,37722,1,2,0:0:0:0:
123,277,37899,1,2,1:2:0:0:
278,84,38075,5,2,0:0:0:0:
363,214,38252,1,10,0:0:0:0:
233,299,38428,1,0,0:0:0:0:
148,169,38605,1,2,1:2:0:0:
256,192,38781,5,0,0:0:0:0:
256,192,38869,1,0,0:0:0:0:
256,192,38957,1,10,0:0:0:0:
38,32,39134,6,0,P|102:44|186:64,1,135.000000447034,2|0,0:0|1:0,0:0:0:0:
278,84,39487,1,2,0:0:0:0:
196,288,39663,2,0,B|141:256|149:168|149:168|113:248|53:252,1,270.000000894069,10|2,0:0|1:2,0:0:0:0:
256,192,40193,2,0,B|360:168|360:168|328:192,1,135.000000447034,2|8,0:0|0:0,0:0:0:0:
108,336,40546,5,2,0:0:0:0:
404,48,40722,1,2,1:2:0:0:
164,328,40899,1,2,0:0:0:0:
348,56,41075,1,10,0:0:0:0:
220,312,41252,1,2,0:0:0:0:
292,72,41428,1,2,1:2:0:0:
268,276,41605,1,2,0:0:0:0:
244,108,41781,2,0,L|256:192,1,67.5000002235174,10|0,0:0|0:0,0:0:0:0:
384,320,42134,6,0,L|408:180,1,135.000000447034,2|0,1:2|0:0,0:0:0:0:
128,64,42487,2,0,L|104:204,1,135.000000447034,10|0,0:0|0:0,0:0:0:0:
128,320,42840,2,0,L|104:180,1,135.000000447034,2|0,1:2|0:0,0:0:0:0:
384,64,43193,2,0,L|408:204,1,135.000000447034,10|0,0:0|0:0,0:0:0:0:
192,280,43546,5,2,1:2:0:0:
320,104,43722,1,0,0:0:0:0:
320,280,43899,1,10,0:0:0:0:
192,104,44075,1,0,0:0:0:0:
440,192,44252,6,0,P|416:255|401:320,1,135.000000447034,2|0,1:2|0:0,0:0:0:0:
284,380,44604,2,0,L|128:364,1,135.000000447034,10|0,0:0|0:0,0:0:0:0:
4,204,44957,6,0,L|140:192,1,135.000000447034,2|2,1:2|0:0,0:0:0:0:
264,240,45310,2,0,P|311:194|308:128,1,135.000000447034,10|0,0:0|0:0,0:0:0:0:
84,48,45663,5,2,1:2:0:0:
124,336,45840,1,2,0:0:0:0:
204,304,46016,5,8,0:0:0:0:
236,80,46193,1,2,0:0:0:0:
316,112,46369,5,2,1:2:0:0:
340,272,46546,1,2,0:0:0:0:
420,240,46722,5,10,0:0:0:0:
436,144,46899,1,2,1:2:0:0:
512,192,47075,5,2,1:2:0:0:
124,336,47252,5,2,1:2:0:0:
124,336,47340,1,2,1:2:0:0:
124,336,47428,2,0,P|136:240|140:176,1,135.000000447034,14|0,0:0|0:0,0:0:0:0:
316,112,47781,5,0,1:0:0:0:
284,340,47957,1,2,0:0:0:0:
324,104,48134,1,10,0:0:0:0:
332,96,48310,1,2,0:0:0:0:
436,144,48487,5,0,1:0:0:0:
216,76,48663,1,2,0:0:0:0:
284,340,48840,6,0,L|320:236,1,90.000000298023,10|0,0:0|0:0,0:0:0:0:
450,136,49016,1,2,0:0:0:0:
209,65,49193,1,2,1:2:0:0:
399,302,49369,2,0,P|320:259|237:224,1,180.000000596046,2|0,0:0|0:0,0:0:0:0:
21,112,49722,6,0,L|120:94,1,99.0000033490656,2|0,0:0|0:0,0:0:0:0:
313,58,49899,2,0,L|214:76,1,99.0000033490656,2|0,1:2|0:0,0:0:0:0:
1,116,50075,6,0,L|100:98,1,90.000000298023,2|8,0:0|0:0,0:0:0:0:
409,191,50428,6,0,L|310:209,1,99.0000033490656,2|0,0:0|0:0,0:0:0:0:
49,253,50605,2,0,L|148:235,1,99.0000033490656,2|0,1:2|0:0,0:0:0:0:
429,187,50781,6,0,L|330:205,1,90.000000298023,2|8,0:0|0:0,0:0:0:0:
127,332,51134,6,0,L|146:235,1,99.0000033490656,2|0,0:0|0:0,0:0:0:0:
323,11,51310,2,0,L|304:108,1,99.0000033490656,2|0,1:2|0:0,0:0:0:0:
124,350,51487,6,0,L|141:262,1,90.000000298023,2|8,0:0|0:0,0:0:0:0:
429,187,51840,5,2,0:0:0:0:
216,384,52016,2,0,P|149:370|82:361,1,135.000000447034,2|0,1:2|0:0,0:0:0:0:
0,112,52369,5,10,0:0:0:0:
160,128,52546,1,2,0:0:0:0:
272,204,52722,1,2,1:2:0:0:
296,308,52899,1,2,0:0:0:0:
264,380,53075,6,0,P|283:315|314:255,1,135.000000447034,10|0,0:0|0:0,0:0:0:0:
412,208,53428,2,0,P|380:148|361:83,1,135.000000447034,2|0,1:2|0:0,0:0:0:0:
248,4,53781,2,0,P|228:68|197:128,1,135.000000447034,10|0,0:0|0:0,0:0:0:0:
100,176,54134,2,0,P|131:235|150:300,1,135.000000447034,2|0,1:2|0:0,0:0:0:0:
150,300,54487,5,10,0:0:0:0:
361,83,54663,1,0,0:0:0:0:
264,380,54840,1,2,1:2:0:0:
248,4,55016,1,0,0:0:0:0:
314,255,55193,1,10,0:0:0:0:
197,128,55369,1,0,0:0:0:0:
412,208,55546,1,2,1:2:0:0:
100,176,55722,1,0,0:0:0:0:
256,192,55899,6,0,P|300:140|356:96,1,135.000000447034,14|0,0:0|0:0,0:0:0:0:
256,192,56252,2,0,P|212:244|156:288,1,135.000000447034,0|0,1:0|0:0,0:0:0:0:
379,372,56605,6,0,P|355:309|320:252,1,135.000000447034,10|2,0:0|0:0,0:0:0:0:
132,11,56957,2,0,P|156:74|192:132,1,135.000000447034,2|0,1:2|0:0,0:0:0:0:
256,192,57310,5,10,0:0:0:0:
256,192,57487,1,0,0:0:0:0:
194,250,57663,5,2,1:2:0:0:
317,133,57840,1,0,0:0:0:0:
348,280,58016,5,10,0:0:0:0:
162,102,58193,1,0,0:0:0:0:
145,324,58369,6,0,P|195:367|257:346,1,135.000005596876,2|0,1:2|0:0,0:0:0:0:
512,192,58722,6,0,P|448:196|376:204,1,135.000000447034,10|0,0:0|0:0,0:0:0:0:
256,348,59075,2,0,P|188:355|121:359,1,135.000000447034,2|0,1:2|0:0,0:0:0:0:
121,337,59428,2,0,P|188:341|255:347,1,135.000000447034,10|0,0:0|0:0,0:0:0:0:
377,203,59781,2,0,P|444:207|511:213,1,135.000000447034,2|0,1:2|0:0,0:0:0:0:
496,288,60134,5,10,0:0:0:0:
456,128,60310,1,0,0:0:0:0:
291,208,60487,5,2,1:2:0:0:
320,96,60663,1,0,0:0:0:0:
212,258,60840,5,10,0:0:0:0:
165,75,61016,1,0,0:0:0:0:
27,204,61193,2,0,P|67:260|140:235,1,135.000005596876,2|0,1:2|0:0,0:0:0:0:
320,96,61546,6,0,B|300:192|300:192|296:196|296:196|276:296,1,202.500000670552,10|0,0:0|0:0,0:0:0:0:
272,316,61899,2,0,P|200:352|112:288,1,135.000000447034,2|0,1:2|0:0,0:0:0:0:
336,216,62252,2,0,P|400:260|492:208,1,153.000000506639,10|0,0:0|0:0,0:0:0:0:
320,96,62605,2,0,P|246:121|171:47,1,171.000000566244,2|0,1:2|0:0,0:0:0:0:
484,24,62957,6,0,L|426:361,1,342.000001132488,10|2,0:0|1:2,0:0:0:0:
150,338,63487,1,2,0:0:0:0:
130,224,63663,1,10,0:0:0:0:
337,362,63840,1,0,0:0:0:0:
416,213,64016,1,2,1:2:0:0:
337,362,64193,1,0,0:0:0:0:
256,192,64369,5,10,0:0:0:0:
256,192,64546,1,0,0:0:0:0:
432,296,64722,5,2,1:2:0:0:
320,280,64899,1,0,0:0:0:0:
192,104,65075,5,10,0:0:0:0:
41,153,65252,1,0,0:0:0:0:
368,168,65428,5,2,1:2:0:0:
312,8,65605,1,0,0:0:0:0:
144,216,65781,6,0,P|131:282|116:348,1,135.000000447034,10|0,0:0|0:0,0:0:0:0:
115,348,66134,2,0,B|81:349|81:349|95:318,1,67.500002798438,0|0,1:0|0:0,0:0:0:0:
236,232,66310,2,0,L|380:253,1,135.000000447034,2|8,0:0|0:0,0:0:0:0:
429,303,66663,6,0,P|393:284|369:251,1,81.0000002682206,2|0,0:0|0:0,0:0:0:0:
236,232,66840,2,0,P|242:192|266:159,1,81.0000002682206,2|0,1:2|0:0,0:0:0:0:
224,60,67016,2,0,P|263:54|302:66,1,81.0000002682206,2|0,0:0|0:0,0:0:0:0:
480,20,67193,6,0,P|482:68|461:113,1,99.0000003278252,14|0,0:0|0:0,0:0:0:0:
455,237,67369,6,0,P|409:254|360:248,1,90.000000298023,2|0,0:0|1:0,0:0:0:0:
276,318,67722,6,0,P|244:280|235:231,1,99.0000003278252,2|0,0:0|0:0,0:0:0:0:
148,212,67899,2,0,P|174:170|217:147,1,99.0000003278252,10|0,0:0|0:0,0:0:0:0:
224,60,68075,6,0,P|267:70|301:98,1,90.000000298023,2|0,0:0|1:0,0:0:0:0:
400,52,68428,6,0,P|403:101|386:147,1,99.0000003278252,2|0,0:0|0:0,0:0:0:0:
208,68,68605,2,0,P|255:79|293:110,1,99.0000003278252,10|0,0:0|0:0,0:0:0:0:
148,224,68781,2,0,P|174:182|217:159,1,99.0000003278252,2|0,0:0|0:0,0:0:0:0:
292,320,68957,2,0,P|260:282|251:233,1,99.0000003278252,2|0,1:2|0:0,0:0:0:0:
427,212,69134,6,0,P|381:229|332:223,1,90.000000298023,2|8,0:0|0:0,0:0:0:0:
138,322,69487,6,0,L|147:223,1,99.0000003278252,2|0,0:0|0:0,0:0:0:0:
168,40,69663,2,0,L|158:138,1,99.0000003278252,2|0,1:2|0:0,0:0:0:0:
136,341,69840,6,0,L|145:242,1,90.000000298023,2|8,0:0|0:0,0:0:0:0:
320,42,70193,6,0,L|329:140,1,99.0000003278252,2|0,0:0|0:0,0:0:0:0:
350,324,70369,2,0,L|340:225,1,99.0000003278252,2|0,1:2|0:0,0:0:0:0:
318,24,70546,6,0,L|327:122,1,90.000000298023,2|8,0:0|0:0,0:0:0:0:
45,259,70899,6,0,L|143:249,1,99.0000003278252,2|0,0:0|0:0,0:0:0:0:
424,104,71075,2,0,L|325:113,1,99.0000003278252,2|0,1:2|0:0,0:0:0:0:
28,260,71252,6,0,L|126:250,1,90.000000298023,2|8,0:0|0:0,0:0:0:0:
439,234,71605,6,0,L|340:224,1,99.0000003278252,2|0,0:0|0:0,0:0:0:0:
59,128,71781,2,0,L|158:138,1,99.0000003278252,2|0,1:2|0:0,0:0:0:0:
256,0,71957,5,0,0:0:0:0:
256,0,72046,1,0,0:0:0:0:
256,0,72134,1,8,0:0:0:0:
324,112,72310,1,2,0:0:0:0:
336,232,72487,1,2,1:2:0:0:
316,320,72663,1,2,0:0:0:0:
256,384,72840,6,0,B|248:368|248:368|332:128|332:128|324:112,3,289.800000959634,10|2|10|2,0:0|1:2|0:0|1:2,0:0:0:0:
64,248,74252,6,0,B|108:260|108:260|220:244,1,144.900000479817,10|0,0:0|0:0,0:0:0:0:
400,330,74605,2,0,B|388:286|388:286|319:197,1,144.900000479817,2|0,1:2|0:0,0:0:0:0:
303,0,74957,2,0,B|271:29|271:29|228:134,1,144.900000479817,10|0,0:0|0:0,0:0:0:0:
206,245,75310,6,0,L|240:288,1,45.0000001490115,2|0,0:0|0:0,0:0:0:0:
473,190,75663,6,0,B|410:180|410:180|379:213|379:213|326:206,1,162.000000536441,14|0,0:1|0:0,0:0:0:0:
326,206,75928,1,2,0:1:0:0:
326,206,76016,1,0,1:0:0:0:
77,327,76193,6,0,L|61:231,1,81.0000002682206,2|0,0:1|0:0,0:0:0:0:
232,123,76369,2,0,L|248:219,1,81.0000002682206,10|0,0:1|0:0,0:0:0:0:
168,304,76546,6,0,L|152:208,1,81.0000002682206
142,145,76722,2,0,L|158:241,1,81.0000002682206,2|0,1:1|0:0,0:0:0:0:
242,362,76899,5,2,0:1:0:0:
329,334,76987,1,0,0:0:0:0:
329,334,77075,2,0,B|338:253|338:253|342:251|342:251|351:162,1,162.000000536441,14|0,0:1|0:0,0:0:0:0:
142,145,77340,2,0,B|133:221|133:221|130:223|130:223|120:303,1,162.000000536441,2|0,0:1|0:0,0:0:0:0:
120,303,77605,6,0,L|227:287,1,81.0000002682206,2|0,0:1|0:0,0:0:0:0:
350,175,77781,2,0,L|456:158,1,81.0000002682206,10|0,0:1|0:0,0:0:0:0:
61,132,77957,6,0,L|167:148,1,81.0000002682206,2|0,0:1|0:0,0:0:0:0:
329,334,78134,2,0,L|435:350,1,81.0000002682206,2|0,1:1|0:0,0:0:0:0:
509,148,78310,5,2,0:1:0:0:
509,148,78399,1,0,0:0:0:0:
509,148,78487,2,0,L|348:175,1,162.000000536441,14|0,0:1|0:0,0:0:0:0:
142,145,78752,2,0,B|110:224|110:224|163:282,1,162.000000536441,2|0,0:1|0:0,0:0:0:0:
251,113,79016,2,0,L|236:23,1,81.0000002682206,2|0,0:1|0:0,0:0:0:0:
158,17,79193,6,0,L|268:39,1,81.0000002682206,10|0,0:1|0:0,0:0:0:0:
362,254,79369,2,0,L|347:164,1,81.0000002682206
428,159,79546,6,0,L|348:174,1,81.0000002682206,2|0,1:1|0:0,0:0:0:0:
161,280,79722,2,0,L|148:360,1,81.0000002682206,2|0,0:1|0:0,0:0:0:0:
307,384,79899,6,0,B|147:357,1,162.000000536441,14|0,0:1|0:0,0:0:0:0:
29,342,80163,2,0,B|55:182,1,162.000000536441,2|0,0:1|0:0,0:0:0:0:
173,200,80428,2,0,L|160:280,1,81.0000002682206,2|0,0:1|0:0,0:0:0:0:
369,229,80605,6,0,B|289:216,1,81.0000002682206,10|0,0:1|0:0,0:0:0:0:
71,65,80781,2,0,B|150:78,1,81.0000002682206,2|0,0:1|0:0,0:0:0:0:
355,309,80957,6,0,B|368:229,1,81.0000002682206,2|0,1:1|0:0,0:0:0:0:
512,60,81134,2,0,B|498:139,1,81.0000002682206,2|0,0:1|0:0,0:0:0:0:
340,128,81310,6,0,B|351:122|351:122|482:144|482:144|498:139,1,162.000000536441,14|0,0:1|0:0,0:0:0:0:
247,33,81575,2,0,B|242:49|242:49|264:180|264:180|258:191,1,162.000000536441,2|0,0:1|0:0,0:0:0:0:
173,200,81840,6,0,L|86:185,1,81.0000002682206,2|0,0:1|0:0,0:0:0:0:
65,110,82016,2,0,L|95:192,1,81.0000002682206,10|0,0:1|0:0,0:0:0:0:
200,276,82193,2,0,L|172:199,1,81.0000002682206
30,258,82369,2,0,L|109:271,1,81.0000002682206,2|0,1:1|0:0,0:0:0:0:
287,276,82546,5,2,0:1:0:0:
266,365,82634,1,0,0:0:0:0:
266,365,82722,2,0,L|432:336,1,162.000000536441,14|0,0:1|0:0,0:0:0:0:
425,337,82987,2,0,L|456:163,1,162.000000536441,2|0,0:1|0:0,0:0:0:0:
453,177,83252,6,0,L|369:189,1,81.0000002682206,2|0,0:1|0:0,0:0:0:0:
206,287,83428,2,0,L|286:275,1,81.0000002682206,10|0,0:1|0:0,0:0:0:0:
361,108,83605,6,0,L|373:192,1,81.0000002682206,2|0,0:1|0:0,0:0:0:0:
297,355,83781,2,0,L|286:275,1,81.0000002682206,2|0,1:1|0:0,0:0:0:0:
269,120,83957,1,2,0:1:0:0:
93,305,84134,38,0,B|165:265|249:277|297:357|297:357|226:347|159:292|95:162|182:10|367:3|367:3|375:124|375:124|389:257|389:257|269:120|269:120|439:153|439:153|285:235|285:235|359:72,1,1728.00000572204,14|14,0:1|0:1,0:0:0:0:
