osu file format v14

[General]
AudioFilename: audio.mp3
AudioLeadIn: 0
PreviewTime:35737
Countdown: 0
SampleSet: Soft
StackLeniency: 0.2
Mode: 0
LetterboxInBreaks: 0
WidescreenStoryboard: 1

[Editor]
DistanceSpacing: 0.8
BeatDivisor: 4
GridSize: 4
TimelineZoom: 1.4

[Metadata]
Title:Kaibutsu (TV Size)
TitleUnicode:怪物 (TV Size)
Artist:YOASOBI
ArtistUnicode:YOASOBI
Creator:Ryuusei Aika
Version:newton's Insane
Source:BEASTARS
Tags:ビースターズ japanese furry anime op2 pop j-pop jpop opening theme 幾田りら Ikuta Rira Lilas Ayase Monster MoeAsuka Atrue SuperBox Fall Marle Calvaria Mariko Sakuragi Reiji Maigo SB hhjkl [Hatsune Miku] [Hatsune_Miku] Hatsune Miku Remapper _lai Kyrian 09kami Ducky- Acyl Acylica Bellicose wafer iWaifu KAMI NO KOTOBA Addy2607 KaedeharaKazuha Airincat Chompy Yooh Reywateil Amateurre Sparhten Ajisai- HabiHolic newton- Yuuma Ogura Yui fedora- UberFazz xidorn Pata-Mon PataMon Deca Wanpachi cycopton Gibune wiken Fuju Stratos Crystal OneShotFox Elcheer Fieryrage hypercyte hypercute Kittyadventure gokugohan12468 Kyouren Zelq ponbot Yuuma3 Mimari i love ganyu Flake yaspo Regraz Mafumafu bongo Moete Senseabel Senseable Kuse KuBsNia_ZhoYL_ wetdog123 eiri-
BeatmapID:2820239
BeatmapSetID:1335792

[Difficulty]
HPDrainRate:5
CircleSize:4.8
OverallDifficulty:8
ApproachRate:9
SliderMultiplier:1.6
SliderTickRate:1

[Events]
//Background and Video events
0,0,"furry.jpg",0,0
Video,-200,"OP.mp4"
//Break Periods
//Storyboard Layer 0 (Background)
//Storyboard Layer 1 (Fail)
//Storyboard Layer 2 (Pass)
//Storyboard Layer 3 (Foreground)
//Storyboard Layer 4 (Overlay)
//Storyboard Sound Samples

[TimingPoints]
-3395,352.941176470588,4,2,1,40,1,0
2252,-76.9230769230769,4,2,1,60,0,0
13546,-76.9230769230769,4,2,1,70,0,0
24840,-500,4,2,1,60,0,0
30310,-76.9230769230769,4,2,1,60,0,0
30487,-76.9230769230769,4,2,1,75,0,0
35781,-76.9230769230769,4,2,1,60,0,0
36134,-60.2409638554217,4,2,1,80,0,0
55899,-76.9230769230769,4,2,1,80,0,0
84133,-76.9230769230769,4,2,1,70,0,0
86957,-76.9230769230769,4,2,1,90,0,0

[Colours]
Combo1 : 191,96,0
Combo2 : 143,32,255
Combo3 : 191,0,96
Combo4 : 0,80,159

[HitObjects]
153,74,2252,6,0,P|197:57|221:98,1,103.999995239258,10|0,0:0|0:0,0:0:0:0:
309,98,2604,2,0,P|232:112|165:150,1,155.999992858887,10|0,0:0|0:0,0:0:0:0:
148,174,2957,1,10,0:0:0:0:
148,174,3134,1,0,0:0:0:0:
47,101,3310,2,0,B|76:143|76:143|55:190,1,103.999995239258,10|2,0:0|0:0,0:0:0:0:
64,281,3663,6,0,B|106:231|165:245|165:245|146:258|137:283,1,155.999992858887,10|0,0:0|0:0,0:0:0:0:
138,295,4016,1,8,0:0:0:0:
148,174,4193,2,0,L|138:281,1,103.999995239258,2|8,0:0|0:0,0:0:0:0:
261,335,4546,2,0,B|231:292|231:292|252:245,1,103.999995239258,2|8,0:0|0:0,0:0:0:0:
188,362,4899,5,2,0:0:0:0:
188,362,5252,1,2,0:0:0:0:
317,285,5428,2,0,P|369:293|405:330,1,103.999995239258,8|2,0:0|0:0,0:0:0:0:
338,210,5781,1,10,0:0:0:0:
404,328,5957,1,2,0:0:0:0:
501,189,6134,2,0,P|464:224|413:232,1,103.999995239258,10|2,0:0|0:0,0:0:0:0:
360,134,6487,5,10,0:0:0:0:
360,134,6663,1,2,0:0:0:0:
360,134,7016,1,2,0:0:0:0:
338,210,7193,1,10,0:0:0:0:
262,188,7369,1,2,0:0:0:0:
229,74,7546,1,10,0:0:0:0:
115,107,7722,1,2,0:0:0:0:
40,241,7899,6,0,B|19:194|19:194|49:151,1,103.999995239258,10|0,0:0|0:0,0:0:0:0:
161,254,8252,2,0,B|191:211|191:211|170:164,1,103.999995239258,10|2,0:0|0:0,0:0:0:0:
107,205,8604,1,10,0:0:0:0:
107,205,8781,1,2,0:0:0:0:
220,332,8957,2,0,P|171:276|98:288,1,155.999992858887,10|0,0:0|0:0,0:0:0:0:
82,316,9310,5,10,0:0:0:0:
82,316,9487,1,0,0:0:0:0:
259,245,9663,1,10,0:0:0:0:
408,361,9840,1,2,0:0:0:0:
408,361,10193,1,2,0:0:0:0:
360,302,10369,2,0,B|338:253|338:253|367:211,1,103.999995239258,8|2,0:0|0:0,0:0:0:0:
512,138,10722,6,0,B|498:148|498:148|323:133|323:133|310:144,3,207.999990478516,8|10|8|10,0:0|0:0|0:0|0:0,0:0:0:0:
312,143,11957,1,2,0:0:0:0:
421,68,12134,5,10,0:0:0:0:
421,68,12487,1,10,0:0:0:0:
421,68,12840,1,8,0:0:0:0:
421,68,13193,6,0,L|423:42,2,25.9999988098145,2|0|0,0:3|0:0|0:0,0:0:0:0:
312,143,13546,6,0,B|301:157|304:175|304:175|316:209|278:215|253:191|282:166|282:166|295:154|293:133,1,155.999992858887,10|0,0:0|0:0,0:0:0:0:
249,72,13899,2,0,B|270:120|270:120|241:162,1,103.999995239258,2|2,1:2|0:0,0:0:0:0:
171,205,14252,2,0,B|149:156|149:156|178:114,1,103.999995239258,10|2,0:0|0:0,0:0:0:0:
103,90,14604,1,2,1:2:0:0:
103,90,14781,1,2,0:0:0:0:
11,222,14957,6,0,B|0:192|0:192|69:168|102:234,1,155.999992858887,10|0,0:0|0:0,0:0:0:0:
107,258,15310,1,0,1:0:0:0:
104,359,15487,2,0,P|141:324|192:316,1,103.999995239258,2|8,0:0|0:0,0:0:0:0:
258,248,15840,2,0,P|207:240|170:204,1,103.999995239258,2|0,0:0|1:0,0:0:0:0:
42,302,16193,1,2,0:0:0:0:
42,302,16546,5,2,0:0:0:0:
107,258,16722,1,0,1:0:0:0:
102,234,16899,1,2,0:0:0:0:
20,183,17075,1,10,0:0:0:0:
11,222,17252,1,2,0:0:0:0:
89,134,17428,1,2,1:2:0:0:
71,56,17605,1,2,0:0:0:0:
20,183,17781,5,10,0:0:0:0:
218,133,17957,1,2,0:0:0:0:
218,133,18310,1,2,0:0:0:0:
238,216,18487,2,0,B|216:167|216:167|245:125,1,103.999995239258,10|2,0:0|0:0,0:0:0:0:
321,200,18840,2,0,L|311:307,1,103.999995239258,2|2,1:2|0:0,0:0:0:0:
445,331,19193,6,0,B|431:321|431:321|256:336|256:336|243:325,2,207.999990478516,10|2|10,0:0|1:2|0:0,0:0:0:0:
396,245,20075,1,2,0:0:0:0:
461,202,20252,1,2,1:2:0:0:
355,64,20428,6,0,B|405:106|391:165|391:165|378:146|353:137,1,155.999992858887,2|0,0:0|0:0,0:0:0:0:
288,105,20781,1,2,0:0:0:0:
445,57,20957,1,2,1:2:0:0:
445,57,21134,2,0,B|396:35|396:35|354:64,1,103.999995239258,2|8,0:0|0:0,0:0:0:0:
197,111,21487,1,2,0:0:0:0:
197,111,21663,2,0,B|246:133|246:133|288:104,1,103.999995239258,2|2,1:2|0:0,0:0:0:0:
132,22,22016,6,0,B|100:39|101:73|101:73|110:177|110:177|111:159|128:141,3,207.999990478516,8|2|10|0,0:0|1:2|0:0|1:0,0:0:0:0:
23,56,23252,1,2,0:0:0:0:
12,239,23428,6,0,B|34:192|34:192|59:237,1,103.999995239258,10|0,0:0|0:0,0:0:0:0:
184,250,23781,2,0,B|162:297|162:297|136:251,1,103.999995239258,2|0,1:2|0:0,0:0:0:0:
4,362,24134,2,0,P|48:336|101:347,1,103.999995239258,10|0,0:0|0:0,0:0:0:0:
358,272,24487,2,0,P|307:280|263:255,1,103.999995239258,2|0,1:2|0:0,0:0:0:0:
173,90,24840,5,10,0:1:0:0:
173,90,25193,5,2,1:2:0:0:
338,118,25369,2,0,L|339:137,1,16,10|2,1:1|0:0,0:0:0:0:
267,125,25722,2,0,L|268:144,1,16,10|0,0:1|1:2,0:0:0:0:
399,183,26075,1,10,0:1:0:0:
442,53,26604,5,2,1:2:0:0:
399,183,26780,1,2,1:2:0:0:
442,53,27134,5,10,0:1:0:0:
462,137,27310,2,0,L|460:117,1,16,2|2,1:2|0:0,0:0:0:0:
399,183,27663,1,10,0:1:0:0:
399,183,28016,5,2,1:2:0:0:
229,243,28193,2,0,L|227:262,1,16,10|2,1:1|0:0,0:0:0:0:
300,250,28546,2,0,L|298:269,1,16,10|0,0:1|1:2,0:0:0:0:
196,174,28899,1,10,0:1:0:0:
196,174,29428,5,2,1:2:0:0:
135,342,29604,1,2,1:2:0:0:
71,302,29781,2,0,L|69:286,2,16,10|2|10,0:1|0:0|0:1,0:0:0:0:
219,255,30310,5,2,0:0:0:0:
219,255,30399,1,0,0:0:0:0:
219,255,30487,2,0,B|240:303|240:303|211:345,1,103.999995239258,14|0,0:0|0:0,0:0:0:0:
308,250,30840,1,2,1:2:0:0:
308,250,31016,1,2,1:2:0:0:
440,323,31193,6,0,B|451:293|451:293|382:269|349:335,1,155.999992858887,10|0,0:0|0:0,0:0:0:0:
344,359,31546,1,0,1:0:0:0:
379,213,31722,1,2,0:0:0:0:
308,250,31899,6,0,L|298:146,2,103.999995239258,8|2|2,0:0|0:0|1:2,0:0:0:0:
445,116,32428,2,0,B|403:66|344:80|344:80|363:93|372:118,1,155.999992858887,2|0,1:2|0:0,0:0:0:0:
377,0,32781,1,2,0:0:0:0:
377,0,32957,2,0,B|406:42|406:42|384:90,1,103.999995239258,2|2,1:2|0:0,0:0:0:0:
142,167,33310,6,0,B|159:135|193:136|193:136|297:145|297:145|279:146|261:163,1,207.999990478516,10|2,0:0|1:2,0:0:0:0:
146,65,33840,1,0,1:0:0:0:
146,65,34016,1,10,0:0:0:0:
191,305,34369,2,0,P|219:264|202:216,1,103.999995239258,0|2,1:0|0:0,0:0:0:0:
202,216,34722,1,8,0:0:0:0:
202,216,35075,1,10,0:0:0:0:
202,216,35428,1,10,0:0:0:0:
125,343,35781,5,2,0:1:0:0:
125,343,36134,5,14,0:0:0:0:
96,186,36310,1,2,0:0:0:0:
139,128,36487,1,0,1:0:0:0:
107,338,36663,5,2,0:0:0:0:
78,181,36839,1,10,0:0:0:0:
122,123,37016,1,0,0:0:0:0:
89,333,37193,5,2,1:2:0:0:
215,260,37369,2,0,B|245:225|282:260|257:303|214:272|214:272|173:251|131:270,1,199.200002887573,2|0,0:0|0:0,0:0:0:0:
131,269,37722,1,2,0:0:0:0:
199,179,37899,6,0,B|223:118|223:118|261:173,1,132.800001925049,2|2,1:2|0:0,0:0:0:0:
313,345,38252,2,0,B|325:295|386:263|430:289|430:289|382:302,1,199.200002887573,10|0,0:0|0:0,0:0:0:0:
341,200,38604,2,0,P|376:255|376:321,1,132.800001925049,2|0,1:2|0:0,0:0:0:0:
446,211,38957,5,10,0:0:0:0:
326,122,39134,1,2,0:0:0:0:
341,47,39310,1,0,1:0:0:0:
461,208,39487,5,2,0:0:0:0:
341,119,39664,1,10,0:0:0:0:
356,44,39840,1,0,0:0:0:0:
476,205,40016,5,2,1:2:0:0:
371,41,40193,1,2,0:0:0:0:
228,75,40369,2,0,B|250:111|250:111|340:118,1,132.800001925049,8|2,0:0|0:0,0:0:0:0:
458,208,40722,2,0,B|368:215|368:215|345:251,1,132.800001925049,2|2,1:2|0:0,0:0:0:0:
288,192,41075,5,10,0:0:0:0:
366,327,41252,1,2,0:0:0:0:
284,202,41428,5,2,1:2:0:0:
362,337,41605,1,2,0:0:0:0:
158,254,41781,2,0,B|142:210|142:210|189:222|189:222|168:327,1,199.200002887573,10|0,0:0|0:0,0:0:0:0:
187,347,42134,2,0,P|207:287|270:282,1,132.800001925049,2|0,1:2|0:0,0:0:0:0:
235,132,42487,2,0,P|173:143|137:91,1,132.800001925049,10|0,0:0|0:0,0:0:0:0:
25,198,42840,2,0,P|65:245|39:302,1,132.800001925049,2|0,1:2|0:0,0:0:0:0:
7,54,43193,6,0,B|26:78|52:74|52:74|229:43|229:43|210:51|204:64,2,265.600003850098,10|2|10,0:0|1:2|0:0,0:0:0:0:
7,54,44075,1,0,0:0:0:0:
155,132,44252,2,0,B|105:144|73:205|99:249|99:249|112:201,1,199.200002887573,2|0,1:2|0:0,0:0:0:0:
27,269,44604,6,0,P|91:272|135:320,1,132.800001925049,10|0,0:0|0:0,0:0:0:0:
246,361,44957,2,0,P|216:303|236:241,1,132.800001925049,2|2,1:2|0:0,0:0:0:0:
427,222,45310,2,0,P|456:279|436:341,1,132.800001925049,10|0,0:0|0:0,0:0:0:0:
303,296,45663,1,2,1:2:0:0:
510,191,45840,6,0,B|497:201|497:201|331:187|331:187|318:196,1,199.200002887573,2|0,0:0|0:0,0:0:0:0:
318,196,46193,1,2,0:0:0:0:
474,122,46369,1,2,1:2:0:0:
329,112,46546,2,0,B|353:51|353:51|391:106,1,132.800001925049,2|10,0:0|0:0,0:0:0:0:
236,241,46899,6,0,B|224:210|224:210|205:238,1,66.4000009625244,2|2,1:2|1:2,0:0:0:0:
112,166,47075,1,2,1:2:0:0:
176,86,47252,2,0,B|157:58|157:58|145:89,1,66.4000009625244,2|2,1:2|1:2,0:0:0:0:
7,148,47428,6,0,P|96:173|97:266,1,199.200002887573,14|0,0:0|0:0,0:0:0:0:
0,302,47781,2,0,B|51:261|51:261|110:292,1,132.800001925049,0|2,1:0|0:0,0:0:0:0:
111,167,48134,1,10,0:0:0:0:
62,353,48310,1,2,0:0:0:0:
194,209,48487,2,0,B|186:119|186:119|150:96,1,132.800001925049,0|2,1:0|0:0,0:0:0:0:
200,287,48840,5,10,0:0:0:0:
270,158,49016,1,2,0:0:0:0:
205,294,49193,1,2,1:2:0:0:
275,165,49369,1,2,0:0:0:0:
388,229,49546,2,0,P|323:232|279:280,1,132.800001925049,8|2,0:0|0:0,0:0:0:0:
313,349,49899,2,0,P|377:345|421:297,1,132.800001925049,2|2,1:2|0:0,0:0:0:0:
508,349,50252,6,0,B|498:337|498:337|512:171|512:171|503:158,1,199.200002887573,8|0,0:0|0:0,0:0:0:0:
402,120,50604,2,0,B|453:160|453:160|512:129,1,132.800001925049,2|2,1:2|0:0,0:0:0:0:
388,229,50957,2,0,B|336:188|336:188|277:219,1,132.800001925049,8|2,0:0|0:0,0:0:0:0:
201,259,51310,1,2,1:2:0:0:
317,102,51487,1,2,0:0:0:0:
392,308,51663,5,8,0:0:0:0:
363,335,51839,1,2,0:0:0:0:
326,323,52016,1,2,1:2:0:0:
326,323,52369,5,10,0:0:0:0:
252,254,52545,1,2,0:0:0:0:
158,284,52722,1,2,1:2:0:0:
258,233,52899,1,2,0:0:0:0:
124,163,53075,6,0,B|147:185|144:208|144:208|113:385|113:385|121:366|134:360,2,265.600003850098,10|2|10,0:0|1:2|0:0,0:0:0:0:
57,217,53957,1,0,0:0:0:0:
210,91,54134,2,0,B|196:81|196:81|30:95|30:95|18:85,1,199.200002887573,2|0,1:2|0:0,0:0:0:0:
18,85,54487,2,0,B|42:24|42:24|80:79,1,132.800001925049,10|0,0:0|0:0,0:0:0:0:
210,91,54840,2,0,B|248:146|248:146|272:85,1,132.800001925049,2|0,1:2|0:0,0:0:0:0:
59,167,55193,2,0,B|109:179|141:240|115:284|115:284|102:236,1,199.200002887573,10|0,0:0|0:0,0:0:0:0:
101,235,55546,6,0,P|176:246|212:292,1,132.800001925049,2|0,1:2|0:0,0:0:0:0:
286,179,55899,6,0,B|295:190|295:190|280:365|280:365|290:379,3,207.999990478516,14|0|10|2,0:0|1:0|0:0|1:2,0:0:0:0:
290,379,57134,1,0,0:0:0:0:
454,334,57310,2,0,B|407:313|407:313|364:343,1,103.999995239258,10|0,0:0|0:0,0:0:0:0:
413,226,57663,2,0,B|460:247|460:247|503:217,1,103.999995239258,2|0,1:2|0:0,0:0:0:0:
462,54,58016,2,0,L|452:161,1,103.999995239258,10|0,0:0|0:0,0:0:0:0:
296,283,58369,2,0,L|286:179,1,103.999995239258,2|0,1:2|0:0,0:0:0:0:
372,68,58722,6,0,P|321:153|219:127,2,207.999990478516,10|2|10,0:0|1:2|0:0,0:0:0:0:
103,51,59781,2,0,P|138:88|146:139,1,103.999995239258,2|0,1:2|0:0,0:0:0:0:
32,209,60134,6,0,P|81:153|154:165,1,155.999992858887,10|0,0:0|0:0,0:0:0:0:
164,193,60487,2,0,B|143:240|143:240|173:283,1,103.999995239258,2|0,1:2|0:0,0:0:0:0:
82,367,60840,2,0,B|103:320|103:320|73:277,1,103.999995239258,10|0,0:0|0:0,0:0:0:0:
234,335,61193,2,0,L|341:345,1,103.999995239258,2|0,1:2|0:0,0:0:0:0:
390,176,61546,6,0,B|422:193|421:227|421:227|412:331|412:331|411:313|394:295,2,207.999990478516,10|2|10,0:0|1:2|0:0,0:0:0:0:
337,238,62428,1,0,0:0:0:0:
496,181,62604,2,0,L|506:74,1,103.999995239258,2|0,1:2|0:0,0:0:0:0:
291,138,62957,6,0,P|364:151|414:95,1,155.999992858887,10|0,0:0|0:0,0:0:0:0:
403,68,63310,2,0,B|378:23|378:23|356:70,1,103.999995239258,2|2,1:2|0:0,0:0:0:0:
218,171,63663,2,0,B|171:192|171:192|128:162,1,103.999995239258,10|0,0:0|0:0,0:0:0:0:
136,82,64016,2,0,B|183:61|183:61|226:91,1,103.999995239258,2|0,1:2|0:0,0:0:0:0:
53,222,64369,6,0,B|43:208|43:208|58:33|58:33|49:22,2,207.999990478516,10|2|10,0:0|1:2|0:0,0:0:0:0:
264,250,65428,2,0,P|213:257|176:293,1,103.999995239258,2|0,1:2|0:0,0:0:0:0:
73,320,65781,6,0,P|176:320|264:376,1,207.999990478516,10|0,0:0|1:0,0:0:0:0:
366,379,66310,2,0,B|334:362|335:328|335:328|344:224|344:224|345:242|362:260,1,207.999990478516,2|2,0:0|0:0,0:0:0:0:
512,311,66840,2,0,B|469:341|469:341|422:320,1,103.999995239258,2|2,1:2|0:0,0:0:0:0:
349,144,67193,5,14,0:0:0:0:
349,144,67369,1,2,0:0:0:0:
503,166,67546,2,0,P|452:168|418:205,1,103.999995239258,0|2,1:0|0:0,0:0:0:0:
275,171,67899,1,10,0:0:0:0:
275,171,68075,1,2,0:0:0:0:
464,88,68252,2,0,P|413:86|378:48,1,103.999995239258,0|2,1:0|0:0,0:0:0:0:
275,171,68604,5,10,0:0:0:0:
248,97,68781,1,2,0:0:0:0:
174,124,68957,1,2,1:2:0:0:
153,250,69134,2,0,B|144:239|144:239|159:64|159:64|149:50,1,207.999990478516,2|2,0:0|0:0,0:0:0:0:
62,18,69663,2,0,B|41:65|41:65|71:108,1,103.999995239258,2|2,1:2|0:0,0:0:0:0:
34,254,70016,6,0,B|51:222|85:223|85:223|189:232|189:232|171:233|153:250,1,207.999990478516,8|2,0:0|1:2,0:0:0:0:
12,164,70546,1,2,0:0:0:0:
143,353,70722,2,0,L|153:246,1,103.999995239258,8|2,0:0|0:0,0:0:0:0:
256,113,71075,2,0,L|266:220,1,103.999995239258,2|2,1:2|0:0,0:0:0:0:
353,341,71428,5,8,0:0:0:0:
326,267,71605,1,2,0:0:0:0:
252,294,71781,1,2,1:2:0:0:
252,294,72134,5,8,0:0:0:0:
353,341,72310,1,2,0:0:0:0:
502,192,72487,5,2,1:2:0:0:
401,239,72663,1,2,0:0:0:0:
282,99,72840,6,0,P|378:81|427:166,2,207.999990478516,10|2|10,0:0|1:2|0:0,0:0:0:0:
282,99,73722,1,0,0:0:0:0:
197,220,73899,2,0,P|248:213|285:177,1,103.999995239258,2|0,1:2|0:0,0:0:0:0:
168,90,74252,2,0,B|158:104|158:104|173:279|173:279|164:290,3,207.999990478516,10|2|10|2,0:0|1:2|0:0|0:0,0:0:0:0:
163,290,75663,5,14,0:1:0:0:
241,305,75840,1,0,0:0:0:0:
241,305,75928,1,2,0:1:0:0:
319,320,76105,1,0,0:0:0:0:
319,320,76193,1,2,0:1:0:0:
412,234,76369,5,10,0:1:0:0:
397,312,76546,1,0,0:0:0:0:
405,273,76722,1,2,1:1:0:0:
390,351,76899,1,2,0:1:0:0:
477,144,77075,5,14,0:1:0:0:
399,159,77252,1,0,0:0:0:0:
399,159,77340,1,2,0:1:0:0:
321,174,77517,1,0,0:0:0:0:
321,174,77605,1,2,0:1:0:0:
228,88,77780,5,10,0:1:0:0:
250,205,77957,1,2,0:1:0:0:
235,127,78133,1,2,1:1:0:0:
243,166,78310,1,2,0:1:0:0:
145,361,78487,5,14,0:1:0:0:
160,283,78664,1,0,0:0:0:0:
160,283,78752,1,2,0:1:0:0:
175,205,78929,1,0,0:0:0:0:
175,205,79017,1,2,0:1:0:0:
79,153,79193,5,10,0:1:0:0:
87,192,79370,1,0,0:0:0:0:
72,114,79546,1,2,1:1:0:0:
94,231,79723,1,2,0:1:0:0:
47,38,79899,5,14,0:1:0:0:
125,53,80076,1,0,0:0:0:0:
125,53,80164,1,2,0:1:0:0:
203,68,80341,1,0,0:0:0:0:
203,68,80429,1,2,0:1:0:0:
47,38,80604,5,10,0:1:0:0:
281,83,80781,1,2,0:1:0:0:
125,53,80957,1,2,1:1:0:0:
203,68,81134,1,2,0:1:0:0:
414,127,81310,5,14,0:1:0:0:
336,142,81487,1,0,0:0:0:0:
336,142,81575,1,2,0:1:0:0:
258,157,81752,1,0,0:0:0:0:
258,157,81840,1,2,0:1:0:0:
385,200,82016,5,10,0:1:0:0:
370,278,82193,1,0,0:0:0:0:
378,239,82369,1,2,1:1:0:0:
363,317,82546,1,2,0:1:0:0:
134,253,82722,5,14,0:1:0:0:
212,268,82899,1,0,0:0:0:0:
212,268,82987,1,2,0:1:0:0:
290,283,83164,1,0,0:0:0:0:
290,283,83252,1,2,0:1:0:0:
81,364,83428,5,10,0:1:0:0:
66,286,83605,1,2,0:1:0:0:
74,325,83781,1,2,1:1:0:0:
59,247,83958,1,2,0:1:0:0:
164,97,84134,5,14,0:1:0:0:
149,175,84399,1,2,0:1:0:0:
134,253,84664,1,2,0:1:0:0:
240,123,84840,5,2,0:1:0:0:
225,45,85016,1,2,0:1:0:0:
240,123,85193,1,2,0:1:0:0:
225,45,85369,1,2,0:1:0:0:
288,253,85546,5,10,0:1:0:0:
303,175,85811,1,2,0:1:0:0:
318,97,86076,1,2,0:1:0:0:
379,305,86252,5,2,0:1:0:0:
364,227,86428,1,2,0:1:0:0:
379,305,86605,1,2,0:1:0:0:
364,227,86781,1,2,0:1:0:0:
457,290,86957,1,14,0:1:0:0:
