osu file format v14

[General]
AudioFilename: audio.mp3
AudioLeadIn: 0
PreviewTime:35737
Countdown: 0
SampleSet: None
StackLeniency: 0.4
Mode: 0
LetterboxInBreaks: 0
WidescreenStoryboard: 1

[Editor]
DistanceSpacing: 1.1
BeatDivisor: 4
GridSize: 8
TimelineZoom: 1

[Metadata]
Title:Kaibutsu (TV Size)
TitleUnicode:怪物 (TV Size)
Artist:YOASOBI
ArtistUnicode:YOASOBI
Creator:Ryuusei Aika
Version:fedora's Expert
Source:BEASTARS
Tags:ビースターズ japanese furry anime op2 pop j-pop jpop opening theme 幾田りら Ikuta Rira Lilas Ayase Monster MoeAsuka Atrue SuperBox Fall Marle Calvaria Mariko Sakuragi Reiji Maigo SB hhjkl [Hatsune Miku] [Hatsune_Miku] Hatsune Miku Remapper _lai Kyrian 09kami Ducky- Acyl Acylica Bellicose wafer iWaifu KAMI NO KOTOBA Addy2607 KaedeharaKazuha Airincat Chompy Yooh Reywateil Amateurre Sparhten Ajisai- HabiHolic newton- Yuuma Ogura Yui fedora- UberFazz xidorn Pata-Mon PataMon Deca Wanpachi cycopton Gibune wiken Fuju Stratos Crystal OneShotFox Elcheer Fieryrage hypercyte hypercute Kittyadventure gokugohan12468 Kyouren Zelq ponbot Yuuma3 Mimari i love ganyu Flake yaspo Regraz Mafumafu bongo Moete Senseabel Senseable Kuse KuBsNia_ZhoYL_ wetdog123 eiri-
BeatmapID:2820224
BeatmapSetID:1335792

[Difficulty]
HPDrainRate:5.7
CircleSize:3.8
OverallDifficulty:8.3
ApproachRate:9
SliderMultiplier:1.72000000596046
SliderTickRate:1

[Events]
//Background and Video events
0,0,"furry.jpg",0,0
Video,-200,"OP.mp4"
//Break Periods
//Storyboard Layer 0 (Background)
//Storyboard Layer 1 (Fail)
//Storyboard Layer 2 (Pass)
//Storyboard Layer 3 (Foreground)
//Storyboard Layer 4 (Overlay)
//Storyboard Sound Samples

[TimingPoints]
-3395,352.941176470588,4,2,1,40,1,0
2252,-125,4,2,1,60,0,0
12134,-500,4,2,1,60,0,0
13546,-111.111111111111,4,2,1,70,0,0
24840,-111.111111111111,4,2,1,60,0,0
30487,-111.111111111111,4,2,1,75,0,0
34722,-500,4,2,1,75,0,0
36134,-500,4,2,1,80,0,0
36310,-90.9090909090909,4,2,1,80,0,0
42045,-90.9090909090909,4,2,1,5,0,0
42134,-90.9090909090909,4,2,1,80,0,0
42398,-90.9090909090909,4,2,1,5,0,0
42487,-90.9090909090909,4,2,1,80,0,0
42840,-76.9230769230769,4,2,1,80,0,0
43193,-83.3333333333333,4,2,1,80,0,0
43457,-83.3333333333333,4,2,1,5,0,0
43546,-83.3333333333333,4,2,1,80,0,0
43810,-83.3333333333333,4,2,1,5,0,0
43899,-71.4285714285714,4,2,1,80,0,0
44163,-71.4285714285714,4,2,1,5,0,0
44252,-62.5,4,2,1,80,0,0
44516,-62.5,4,2,1,5,0,0
44605,-71.4285714285714,4,2,1,80,0,0
44869,-71.4285714285714,4,2,1,5,0,0
44957,-83.3333333333333,4,2,1,80,0,0
45221,-83.3333333333333,4,2,1,5,0,0
45310,-83.3333333333333,4,2,1,80,0,0
46016,-90.9090909090909,4,2,1,80,0,0
47428,-76.9230769230769,4,2,1,80,0,0
48310,-90.9090909090909,4,2,1,80,0,0
52192,-90.9090909090909,4,2,1,5,0,0
52369,-90.9090909090909,4,2,1,80,0,0
53075,-83.3333333333333,4,2,1,80,0,0
53428,-90.9090909090909,4,2,1,80,0,0
53692,-90.9090909090909,4,2,1,5,0,0
53781,-83.3333333333333,4,2,1,80,0,0
54134,-71.4285714285714,4,2,1,80,0,0
54398,-71.4285714285714,4,2,1,5,0,0
54487,-76.9230769230769,4,2,1,80,0,0
54840,-83.3333333333333,4,2,1,80,0,0
55104,-83.3333333333333,4,2,1,5,0,0
55193,-90.9090909090909,4,2,1,80,0,0
55810,-90.9090909090909,4,2,1,5,0,0
55899,-90.9090909090909,4,2,1,80,0,0
72840,-83.3333333333333,4,2,1,80,0,0
73193,-90.9090909090909,4,2,1,80,0,0
73457,-90.9090909090909,4,2,1,5,0,0
73546,-83.3333333333333,4,2,1,80,0,0
73899,-71.4285714285714,4,2,1,80,0,0
74163,-71.4285714285714,4,2,1,5,0,0
74252,-76.9230769230769,4,2,1,80,0,0
74869,-76.9230769230769,4,2,1,5,0,0
74957,-83.3333333333333,4,2,1,80,0,0
75663,-55.5555555555556,4,2,1,80,0,0
75839,-55.5555555555556,4,2,1,5,0,0
75928,-55.5555555555556,4,2,1,80,0,0
76104,-55.5555555555556,4,2,1,5,0,0
76193,-55.5555555555556,4,2,1,80,0,0
76369,-71.4285714285714,4,2,1,80,0,0
77075,-55.5555555555556,4,2,1,80,0,0
77251,-55.5555555555556,4,2,1,5,0,0
77340,-55.5555555555556,4,2,1,80,0,0
77516,-55.5555555555556,4,2,1,5,0,0
77605,-55.5555555555556,4,2,1,80,0,0
77781,-71.4285714285714,4,2,1,80,0,0
78487,-55.5555555555556,4,2,1,80,0,0
78663,-55.5555555555556,4,2,1,5,0,0
78752,-55.5555555555556,4,2,1,80,0,0
78928,-55.5555555555556,4,2,1,5,0,0
79016,-55.5555555555556,4,2,1,80,0,0
79193,-71.4285714285714,4,2,1,80,0,0
79899,-55.5555555555556,4,2,1,80,0,0
80075,-55.5555555555556,4,2,1,5,0,0
80163,-55.5555555555556,4,2,1,80,0,0
80339,-55.5555555555556,4,2,1,5,0,0
80428,-55.5555555555556,4,2,1,80,0,0
80605,-71.4285714285714,4,2,1,80,0,0
81310,-50,4,2,1,80,0,0
81486,-50,4,2,1,5,0,0
81575,-55.5555555555556,4,2,1,80,0,0
82016,-71.4285714285714,4,2,1,80,0,0
82722,-55.5555555555556,4,2,1,80,0,0
82898,-55.5555555555556,4,2,1,5,0,0
82987,-55.5555555555556,4,2,1,80,0,0
83163,-55.5555555555556,4,2,1,5,0,0
83252,-55.5555555555556,4,2,1,80,0,0
83428,-71.4285714285714,4,2,1,80,0,0
84134,-166.666666666667,4,2,1,70,0,0
86957,-166.666666666667,4,2,1,90,0,0

[Colours]
Combo1 : 191,0,96
Combo2 : 128,0,255

[HitObjects]
40,155,2252,6,0,P|30:110|38:74,1,68.8000002384184,10|0,2:0|2:0,2:0:0:0:
114,185,2605,2,0,P|68:180|36:161,1,68.8000002384184,10|2,2:0|2:0,2:0:0:0:
165,123,2957,2,0,P|146:165|119:189,1,68.8000002384184,10|0,2:0|2:0,2:0:0:0:
121,55,3310,2,0,P|155:85|170:119,1,68.8000002384184,10|2,2:0|2:0,2:0:0:0:
42,75,3663,2,0,P|81:51|118:48,1,68.8000002384184,10|0,2:0|2:0,2:0:0:0:
165,123,4016,1,8,2:0:0:0:
165,123,4193,2,0,L|302:142,2,137.600000476837,2|2|2,2:0|2:0|2:0,2:0:0:0:
313,130,5075,1,8,2:0:0:0:
345,251,5428,6,0,P|380:221|415:211,1,68.8000002384184,8|2,2:0|2:0,2:0:0:0:
353,330,5781,2,0,P|335:287|336:250,1,68.8000002384184,10|2,2:0|2:0,2:0:0:0:
431,346,6134,2,0,P|385:349|350:336,1,68.8000002384184,10|2,2:0|2:0,2:0:0:0:
481,240,6487,1,10,2:0:0:0:
435,336,6663,2,0,P|389:339|354:326,1,68.8000002384184,2|8,2:0|2:0,2:0:0:0:
256,204,7016,1,2,2:0:0:0:
256,204,7369,2,0,L|256:282,2,68.8000002384184,2|10|2,2:0|2:0|2:0,2:0:0:0:
311,88,7899,6,0,P|286:63|255:49,1,68.8000002384184,10|0,2:0|2:0,2:0:0:0:
301,167,8252,2,0,P|316:136|320:102,1,68.8000002384184,10|2,2:0|2:0,2:0:0:0:
222,181,8605,2,0,P|255:186|289:179,1,68.8000002384184,10|2,2:0|2:0,2:0:0:0:
184,110,8957,2,0,P|189:143|206:173,1,68.8000002384184,10|2,2:0|2:0,2:0:0:0:
240,50,9310,2,0,P|209:65|186:90,1,68.8000002384184,10|0,2:0|2:0,2:0:0:0:
256,204,9663,1,10,2:0:0:0:
256,204,9840,2,0,L|256:353,2,137.600000476837,2|2|2,2:0|2:0|2:0,2:0:0:0:
256,354,10722,5,8,2:0:0:0:
256,354,11075,1,10,2:0:0:0:
256,354,11428,1,8,2:0:0:0:
256,354,11781,1,10,2:0:0:0:
256,354,12134,6,0,L|256:318,2,34.4000001192092,10|10|8,2:0|2:0|2:0,2:0:0:0:
498,89,13193,5,2,2:3:0:0:
498,89,13546,6,0,P|481:123|451:148,1,77.4000002682208,14|0,2:0|2:0,2:0:0:0:
389,1,13899,2,0,P|410:32|417:70,1,77.4000002682208,2|2,1:2|2:0,2:0:0:0:
258,51,14252,2,0,P|296:48|332:61,1,77.4000002682208,10|2,2:0|2:0,2:0:0:0:
235,190,14605,2,0,P|251:155|281:130,1,77.4000002682208,2|2,1:2|2:0,2:0:0:0:
397,217,14957,6,0,P|390:179|368:147,1,77.4000002682208,10|0,2:0|2:0,2:0:0:0:
296,295,15310,1,0,1:0:0:0:
315,209,15487,2,0,L|303:289,1,77.4000002682208,2|8,2:0|2:0,2:0:0:0:
158,165,15840,2,0,L|169:241,1,77.4000002682208,2|0,2:0|1:0,2:0:0:0:
326,193,16193,1,2,2:0:0:0:
71,157,16546,1,2,2:0:0:0:
6,297,16722,6,0,P|23:263|53:238,1,77.4000002682208,0|2,1:0|2:0,2:0:0:0:
146,362,17075,2,0,P|112:345|87:315,1,77.4000002682208,10|2,2:0|2:0,2:0:0:0:
211,222,17428,2,0,P|194:256|164:281,1,77.4000002682208,2|2,1:2|2:0,2:0:0:0:
71,157,17781,5,10,2:0:0:0:
172,287,17957,2,0,P|201:262|218:228,1,77.4000002682208,2|0,2:0|1:0,2:0:0:0:
206,65,18310,1,2,2:0:0:0:
206,65,18663,1,2,2:0:0:0:
293,45,18840,1,2,1:2:0:0:
380,25,19016,1,2,2:0:0:0:
324,171,19193,6,0,P|288:156|262:127,1,77.4000002682208,10|0,2:0|2:0,2:0:0:0:
391,226,19546,2,0,P|360:249|322:257,1,77.4000002682208,2|0,1:2|2:0,2:0:0:0:
471,197,19899,2,0,P|475:235|463:271,1,77.4000002682208,10|2,2:0|2:0,2:0:0:0:
412,61,20252,5,2,1:2:0:0:
318,179,20428,2,0,P|306:215|310:253,1,77.4000002682208,2|8,2:0|2:0,2:0:0:0:
476,184,20781,1,2,2:0:0:0:
476,184,20957,1,2,1:2:0:0:
382,316,21134,1,2,2:0:0:0:
382,316,21487,2,0,L|391:223,1,77.4000002682208,2|2,2:0|1:2,2:0:0:0:
224,355,21840,2,0,L|233:262,1,77.4000002682208,2|8,2:0|2:0,2:0:0:0:
250,120,22193,1,2,2:0:0:0:
250,120,22369,6,0,L|232:38,2,77.4000002682208,2|0|10,1:2|2:0|2:0,2:0:0:0:
139,177,22899,1,2,2:0:0:0:
139,177,23075,2,0,L|121:95,1,77.4000002682208,0|2,1:0|2:0,2:0:0:0:
36,294,23428,6,0,P|90:281|145:270,1,77.4000002682208,10|0,2:0|2:0,2:0:0:0:
151,193,23781,2,0,P|188:201|226:210,1,77.4000002682208,2|0,1:2|2:0,2:0:0:0:
53,298,24134,2,0,P|107:285|162:274,1,77.4000002682208,10|0,2:0|2:0,2:0:0:0:
138,202,24487,2,0,P|175:210|213:219,1,77.4000002682208,2|0,1:2|2:0,2:0:0:0:
256,384,24840,5,10,2:1:0:0:
256,384,25369,5,10,1:0:0:0:
256,384,25722,5,10,2:1:0:0:
256,384,26075,5,10,2:1:0:0:
256,384,27134,5,10,2:1:0:0:
256,384,27663,5,10,2:1:0:0:
256,384,28193,5,10,1:0:0:0:
256,384,28546,5,10,2:1:0:0:
256,384,28899,5,10,2:1:0:0:
256,384,29781,5,10,2:1:0:0:
256,384,30134,5,10,2:1:0:0:
451,107,30310,5,2,2:0:0:0:
451,107,30399,1,0,2:0:0:0:
451,107,30487,2,0,P|465:164|441:214,1,116.100000402331,14|0,2:0|2:0,2:0:0:0:
419,217,30840,2,0,P|370:204|332:200,1,77.4000002682208,2|2,1:2|1:2,2:0:0:0:
239,212,31193,1,10,2:0:0:0:
277,111,31369,2,0,P|326:98|364:94,1,77.4000002682208,2|0,2:0|1:0,2:0:0:0:
180,50,31722,2,0,P|221:24|257:9,1,77.4000002682208,2|8,2:0|2:0,2:0:0:0:
37,104,32075,5,2,2:0:0:0:
44,87,32252,1,2,1:2:0:0:
114,175,32428,2,0,P|123:217|128:264,1,77.4000002682208,2|8,1:2|2:0,2:0:0:0:
96,363,32781,1,2,2:0:0:0:
27,276,32957,1,2,1:2:0:0:
12,269,33134,1,2,2:0:0:0:
138,259,33310,6,0,P|180:247|272:233,1,116.100000402331,10|0,2:0|2:0,2:0:0:0:
315,269,33663,2,0,P|265:252|244:218,1,77.4000002682208,2|0,1:2|1:0,2:0:0:0:
332,166,34016,1,10,2:0:0:0:
324,284,34193,2,0,P|319:322|311:360,1,77.4000002682208,2|0,2:0|1:0,2:0:0:0:
222,304,34546,1,2,2:0:0:0:
428,264,34722,6,0,L|462:256,2,34.4000001192092,8|10|10,2:0|2:0|2:0,2:0:0:0:
1,46,36134,5,14,2:0:0:0:
66,178,36310,2,0,P|105:203|152:207,1,94.6000003278253,2|0,2:0|1:0,2:0:0:0:
9,67,36663,1,2,2:0:0:0:
153,208,36840,2,0,P|196:189|225:153,1,94.6000003278253,10|0,2:0|2:0,2:0:0:0:
18,86,37193,1,2,1:2:0:0:
225,153,37369,2,0,P|234:106|216:57,1,94.6000003278253,2|8,2:0|2:0,2:0:0:0:
192,316,37722,5,2,2:0:0:0:
153,208,37899,1,2,1:2:0:0:
299,275,38075,1,2,2:0:0:0:
144,194,38252,2,0,P|128:149|135:103,1,94.6000003278253,10|0,2:0|2:0,2:0:0:0:
317,276,38605,2,0,P|360:259|390:223,1,94.6000003278253,2|0,1:2|2:0,2:0:0:0:
464,0,38957,5,10,2:0:0:0:
375,123,39134,2,0,P|328:121|287:98,1,94.6000003278253,2|0,2:0|1:0,2:0:0:0:
473,52,39487,1,2,2:0:0:0:
310,185,39663,2,0,P|287:144|287:97,1,94.6000003278253,10|0,2:0|2:0,2:0:0:0:
445,100,40016,1,2,1:2:0:0:
222,161,40193,2,0,P|246:121|286:97,1,94.6000003278253,2|8,2:0|2:0,2:0:0:0:
394,207,40546,1,2,2:0:0:0:
184,303,40722,5,2,1:2:0:0:
310,185,40899,1,2,2:0:0:0:
429,295,41075,1,10,2:0:0:0:
247,248,41252,1,2,2:0:0:0:
121,356,41428,1,2,1:2:0:0:
263,329,41605,1,2,2:0:0:0:
170,226,41781,6,0,P|160:140|186:61,1,141.900000491738,10|0,2:0|2:0,2:0:0:0:
256,157,42134,2,0,P|190:151|173:87,1,141.900000491738,2|0,1:2|2:0,2:0:0:0:
286,36,42487,1,10,2:0:0:0:
286,36,42840,2,0,B|356:14|402:65|402:65|380:60|358:65,1,167.700000581145,2|0,1:2|2:0,2:0:0:0:
385,145,43193,6,0,P|373:198|422:315,1,154.800000536441,10|0,2:0|2:0,2:0:0:0:
512,351,43546,2,0,P|488:296|397:296,1,154.800000536441,2|0,1:2|2:0,2:0:0:0:
317,353,43899,2,0,B|272:320|210:320|210:320|187:349|151:354,1,180.600000625848,10|0,2:0|2:0,2:0:0:0:
48,292,44252,2,0,P|74:209|139:267,1,206.400000715255,2|0,1:2|2:0,2:0:0:0:
68,179,44605,6,0,P|55:121|119:24,1,180.600000625848,10|0,2:0|2:0,2:0:0:0:
168,125,44957,2,0,P|103:94|117:24,1,154.800000536441,2|0,1:2|2:0,2:0:0:0:
236,34,45310,1,10,2:0:0:0:
236,34,45663,1,2,1:2:0:0:
334,103,45840,1,2,2:0:0:0:
334,103,45928,1,0,2:0:0:0:
334,103,46016,6,0,P|397:92|456:83,1,94.6000003278253,8|2,2:0|2:0,2:0:0:0:
403,211,46369,1,2,1:2:0:0:
255,159,46546,2,0,P|192:148|133:139,1,94.6000003278253,2|10,2:0|2:0,2:0:0:0:
71,249,46899,1,2,1:2:0:0:
150,152,47075,1,2,1:2:0:0:
486,376,47428,6,0,B|514:363|527:338|527:338|499:285|431:270|385:305,1,223.60000077486,14|0,2:0|1:0,2:0:0:0:
224,384,47957,1,2,2:0:0:0:
374,300,48134,1,10,2:0:0:0:
319,220,48310,2,0,P|305:165|300:108,1,94.6000003278253,2|0,2:0|1:0,2:0:0:0:
436,29,48663,1,2,2:0:0:0:
436,29,48752,1,0,2:0:0:0:
436,29,48840,5,10,2:0:0:0:
311,116,49016,1,2,2:0:0:0:
372,318,49193,1,2,1:2:0:0:
300,107,49369,2,0,P|255:75|197:64,1,94.6000003278253,2|8,2:0|2:0,2:0:0:0:
42,221,49722,5,2,2:0:0:0:
103,91,49899,1,2,1:2:0:0:
259,189,50075,2,0,P|306:198|350:185,1,94.6000003278253,2|8,2:0|2:0,2:0:0:0:
31,228,50428,5,2,2:0:0:0:
101,77,50605,1,2,1:2:0:0:
260,203,50781,2,0,P|307:212|351:199,1,94.6000003278253,2|8,2:0|2:0,2:0:0:0:
19,237,51134,5,2,2:0:0:0:
100,59,51310,1,2,1:2:0:0:
120,294,51487,2,0,P|140:252|139:202,1,94.6000003278253,2|8,2:0|2:0,2:0:0:0:
98,38,51840,1,2,2:0:0:0:
259,172,52016,2,0,P|306:181|350:168,1,94.6000003278253,2|0,1:2|2:0,2:0:0:0:
447,33,52369,5,10,2:0:0:0:
429,207,52546,1,2,2:0:0:0:
338,92,52722,1,2,1:2:0:0:
435,224,52899,1,2,2:0:0:0:
128,319,53075,6,0,B|115:308|107:286|107:286|163:258|213:301,1,154.800000536441,10|0,2:0|2:0,2:0:0:0:
282,362,53428,2,0,P|341:346|357:262,1,141.900000491738,2|0,1:2|2:0,2:0:0:0:
291,221,53781,2,0,P|242:178|249:93,1,154.800000536441,10|0,2:0|2:0,2:0:0:0:
385,123,54134,2,0,P|306:155|247:93,1,180.600000625848,2|0,1:2|2:0,2:0:0:0:
124,14,54487,6,0,P|204:24|247:93,1,167.700000581145,10|0,2:0|2:0,2:0:0:0:
177,154,54840,2,0,P|158:207|221:291,1,154.800000536441,2|0,1:2|2:0,2:0:0:0:
263,355,55193,2,0,L|124:323,1,141.900000491738,10|0,2:0|2:0,2:0:0:0:
78,334,55546,2,0,L|216:302,1,141.900000491738,2|0,1:2|2:0,2:0:0:0:
344,268,55899,6,0,P|279:215|296:111,2,189.200000655651,14|0|10,2:0|1:0|2:0,2:0:0:0:
372,144,56781,1,2,2:0:0:0:
254,212,56957,2,0,P|207:204|160:196,1,94.6000003278253,2|0,1:2|2:0,2:0:0:0:
49,47,57310,6,0,P|90:83|100:154,1,94.6000003278253,10|0,2:0|2:0,2:0:0:0:
66,202,57663,2,0,P|73:155|102:119,1,94.6000003278253,2|0,1:2|2:0,2:0:0:0:
322,40,58016,2,0,P|275:48|228:56,1,94.6000003278253,10|0,2:0|2:0,2:0:0:0:
102,119,58369,2,0,P|149:127|196:135,1,94.6000003278253,2|0,1:2|2:0,2:0:0:0:
287,190,58722,6,0,P|218:180|166:225,1,141.900000491738,10|0,2:0|2:0,2:0:0:0:
170,310,59075,2,0,P|214:294|243:258,1,94.6000003278253,2|0,1:2|2:0,2:0:0:0:
278,100,59428,2,0,P|269:145|286:189,1,94.6000003278253,10|0,2:0|2:0,2:0:0:0:
436,175,59781,2,0,P|400:144|354:137,1,94.6000003278253,2|0,1:2|2:0,2:0:0:0:
276,331,60134,6,0,B|342:320|342:320|350:322|350:322|419:309,1,141.900000491738,10|0,2:0|2:0,2:0:0:0:
431,320,60487,2,0,L|329:305,1,94.6000003278253,2|0,1:2|2:0,2:0:0:0:
256,229,60840,2,0,L|358:214,1,94.6000003278253,10|0,2:0|2:0,2:0:0:0:
413,134,61193,2,0,L|311:119,1,94.6000003278253,2|0,1:2|2:0,2:0:0:0:
85,21,61546,6,0,P|173:47|201:134,2,189.200000655651,10|2|10,2:0|1:2|2:0,2:0:0:0:
105,152,62428,1,0,2:0:0:0:
195,36,62605,2,0,P|251:22|309:21,1,94.6000003278253,2|0,1:2|2:0,2:0:0:0:
307,193,62957,6,0,P|305:131|225:183,1,189.200000655651,10|2,2:0|1:2,2:0:0:0:
247,304,63487,1,2,2:0:0:0:
152,250,63663,2,0,P|94:241|49:237,1,94.6000003278253,10|0,2:0|2:0,2:0:0:0:
259,311,64016,2,0,P|317:302|362:298,1,94.6000003278253,2|0,1:2|2:0,2:0:0:0:
468,132,64369,6,0,B|444:161|419:188|419:188|442:237|462:294,2,189.200000655651,10|2|10,2:0|1:2|2:0,2:0:0:0:
482,298,65252,1,0,2:0:0:0:
406,190,65428,2,0,P|355:178|296:171,1,94.6000003278253,2|0,1:2|2:0,2:0:0:0:
185,260,65781,6,0,P|179:172|92:157,1,189.200000655651,10|0,2:0|1:0,2:0:0:0:
170,357,66310,2,0,B|229:361|265:312|265:312|303:299|344:312,1,189.200000655651,2|2,2:0|2:0,2:0:0:0:
479,383,66840,1,2,1:2:0:0:
479,383,67016,1,2,2:0:0:0:
339,321,67193,5,14,2:0:0:0:
440,212,67369,2,0,P|458:165|446:108,1,94.6000003278253,2|0,2:0|1:0,2:0:0:0:
181,82,67722,1,2,2:0:0:0:
262,186,67899,1,10,2:0:0:0:
385,61,68075,2,0,P|430:36|498:43,1,94.6000003278253,2|0,2:0|1:0,2:0:0:0:
162,77,68428,1,2,2:0:0:0:
162,77,68605,5,10,2:0:0:0:
257,207,68781,1,2,2:0:0:0:
386,47,68957,1,2,1:2:0:0:
251,218,69134,2,0,P|192:236|132:211,1,94.6000003278253,2|8,2:0|2:0,2:0:0:0:
34,77,69487,5,2,2:0:0:0:
72,224,69663,1,2,1:2:0:0:
229,130,69840,2,0,P|280:110|344:118,1,94.6000003278253,2|8,2:0|2:0,2:0:0:0:
24,69,70193,5,2,2:0:0:0:
67,236,70369,1,2,1:2:0:0:
225,118,70546,2,0,P|276:98|340:106,1,94.6000003278253,2|8,2:0|2:0,2:0:0:0:
16,64,70899,5,2,2:0:0:0:
63,247,71075,1,2,1:2:0:0:
222,103,71252,2,0,P|273:83|337:91,1,94.6000003278253,2|8,2:0|2:0,2:0:0:0:
126,187,71605,1,2,2:0:0:0:
216,265,71781,2,0,P|267:285|331:277,1,94.6000003278253,2|0,1:2|2:0,2:0:0:0:
510,234,72134,1,8,2:0:0:0:
340,180,72310,1,2,2:0:0:0:
294,368,72487,1,2,1:2:0:0:
393,297,72663,1,2,2:0:0:0:
255,196,72840,6,0,P|246:138|309:14,1,154.800000536441,10|0,2:0|2:0,2:0:0:0:
375,11,73193,2,0,P|339:67|275:48,1,141.900000491738,2|0,1:2|2:0,2:0:0:0:
190,21,73546,2,0,P|138:24|39:63,1,154.800000536441,10|0,2:0|2:0,2:0:0:0:
141,131,73899,2,0,P|125:51|43:61,1,180.600000625848,2|0,1:2|2:0,2:0:0:0:
41,184,74252,6,0,P|59:299|71:368,1,167.700000581145,10|0,2:0|2:0,2:0:0:0:
84,351,74605,2,0,L|21:186,1,167.700000581145,2|0,1:2|2:0,2:0:0:0:
9,288,74957,2,0,P|71:283|107:167,1,154.800000536441,10|0,2:0|2:0,2:0:0:0:
141,131,75310,1,2,2:0:0:0:
141,131,75663,6,0,P|214:75|296:70,1,154.800000536441,14|0,2:1|2:0,2:0:0:0:
346,91,75928,2,0,P|276:59|200:69,1,154.800000536441,2|0,2:1|2:0,2:0:0:0:
121,125,76193,2,0,P|152:96|188:76,1,77.4000002682207,2|0,2:1|2:0,2:0:0:0:
298,328,76369,6,0,L|288:251,1,60.2000002086161,10|0,2:1|2:0,2:0:0:0:
206,170,76546,2,0,L|176:241,1,60.2000002086161,0|0,2:0|2:0,2:0:0:0:
300,342,76722,2,0,L|290:265,1,60.2000002086161,2|0,1:0|2:0,2:0:0:0:
347,151,76899,2,0,L|393:212,1,60.2000002086161,2|0,2:1|2:0,2:0:0:0:
302,357,77075,6,0,L|466:386,1,154.800000536441,14|0,2:1|2:0,2:0:0:0:
281,352,77340,2,0,L|433:325,1,154.800000536441,2|0,2:1|2:0,2:0:0:0:
265,347,77605,2,0,L|344:310,1,77.4000002682207,2|0,2:1|2:0,2:0:0:0:
91,180,77781,6,0,L|101:258,1,60.2000002086161,10|0,2:1|2:0,2:0:0:0:
4,295,77957,2,0,P|18:321|44:338,1,60.2000002086161,2|0,2:1|2:0,2:0:0:0:
90,167,78134,2,0,L|100:245,1,60.2000002086161,2|0,1:0|2:0,2:0:0:0:
203,265,78310,2,0,P|201:294|186:320,1,60.2000002086161,2|0,2:1|2:0,2:0:0:0:
207,121,78487,6,0,P|154:68|77:56,1,154.800000536441,14|0,2:1|2:0,2:0:0:0:
0,68,78752,2,0,P|74:41|167:55,1,154.800000536441,2|0,2:1|2:0,2:0:0:0:
220,116,79016,2,0,P|188:78|155:56,1,77.4000002682207,2|0,2:1|2:0,2:0:0:0:
48,237,79193,2,0,L|130:252,1,60.2000002086161,10|0,2:1|2:0,2:0:0:0:
264,188,79369,2,0,L|214:222,1,60.2000002086161,0|0,2:0|2:0,2:0:0:0:
37,236,79546,2,0,L|119:251,1,60.2000002086161,2|0,1:0|2:0,2:0:0:0:
237,357,79722,2,0,L|202:307,1,60.2000002086161,2|0,2:1|2:0,2:0:0:0:
348,231,79899,6,0,L|378:28,1,154.800000536441,14|0,2:1|2:0,2:0:0:0:
371,231,80163,2,0,L|333:29,1,154.800000536441,2|0,2:1|2:0,2:0:0:0:
356,248,80428,2,0,L|373:141,1,77.4000002682207,2|0,2:1|2:0,2:0:0:0:
493,21,80605,6,0,P|459:33|418:37,1,60.2000002086161,10|0,2:1|2:0,2:0:0:0:
329,88,80781,2,0,P|293:81|256:64,1,60.2000002086161,2|0,2:1|2:0,2:0:0:0:
503,11,80957,2,0,P|469:23|428:27,1,60.2000002086161,2|0,1:0|2:0,2:0:0:0:
234,149,81134,2,0,P|206:125|182:92,1,60.2000002086161,2|0,2:1|2:0,2:0:0:0:
510,264,81310,6,0,P|451:173|344:200,1,172.000000596046,14|0,2:1|2:0,2:0:0:0:
332,250,81575,2,0,P|378:256|425:267,1,77.4000002682206,2|0,2:1|2:0,2:0:0:0:
264,379,81752,1,0,2:0:0:0:
279,362,81840,2,0,P|320:352|363:347,1,77.4000002682206,2|0,2:1|2:0,2:0:0:0:
110,306,82016,6,0,P|89:280|77:236,1,60.2000002086161,10|0,2:1|2:0,2:0:0:0:
11,194,82193,2,0,P|23:162|55:130,1,60.2000002086161,0|0,2:0|2:0,2:0:0:0:
121,301,82369,2,0,P|100:275|88:231,1,60.2000002086161,2|0,1:0|2:0,2:0:0:0:
9,50,82546,2,0,P|42:44|86:56,1,60.2000002086161,2|0,2:1|2:0,2:0:0:0:
214,172,82722,6,0,P|291:173|364:149,1,154.800000536441,14|0,2:1|2:0,2:0:0:0:
273,56,82987,2,0,P|292:127|363:148,1,154.800000536441,2|0,2:1|2:0,2:0:0:0:
383,0,83252,2,0,P|361:30|351:68,1,77.4000002682207,2|0,2:1|2:0,2:0:0:0:
487,198,83428,6,0,L|427:210,1,60.2000002086161,10|0,2:1|2:0,2:0:0:0:
368,285,83605,2,0,L|310:265,1,60.2000002086161,2|0,2:1|2:0,2:0:0:0:
493,188,83781,2,0,L|433:200,1,60.2000002086161,2|0,1:0|2:0,2:0:0:0:
232,313,83957,2,0,L|191:267,1,60.2000002086161,2|0,2:1|2:0,2:0:0:0:
69,116,84134,6,0,P|52:43|54:18,2,77.4000002682206,14|2|2,2:1|2:1|2:1,2:0:0:0:
154,146,84840,2,0,L|220:151,3,51.6000001788137,2|2|2|2,2:1|2:1|2:1|2:1,2:0:0:0:
82,205,85546,6,0,L|61:298,2,77.4000002682206,10|2|2,2:1|2:1|2:1,2:0:0:0:
171,327,86252,2,0,L|107:341,1,51.6000001788137,2|2,2:1|2:1,2:0:0:0:
245,261,86605,2,0,L|182:246,1,51.6000001788137,2|2,2:1|2:1,2:0:0:0:
432,305,86957,5,14,2:1:0:0:
